Скачать через торрент музыку Большой Белый Обман The Great White Hype бесплатно без регистрации torrent

Если у вас наблюдаются проблемы со скриншотами, переходом по ссылками, скачиванием торрентов - проблемы в блокировщике рекламы AdBlock. #хорошегоДня!


Статистика раздачи
Размер:  310 MB   |    Зарегистрирован:  1 год 5 месяцев   |    .torrent скачан:  81 раз   |   
Раздают:  1  
   
Загрузка...
 
Автор Сообщение

Galfimbul

avatar Galfimbul


Большой Белый Обман / The Great White Hype

Название альбома: Music From The Motion Picture
Жанр: Soundtrack
Композитор: Various
Год выпуска диска: 1996
Страна-производитель диска: Austria
Издатель (лейбл): Hudlin Bros./Epic Soundtrax/Sony
Номер по каталогу: 484294 2
Аудиокодек: FLAC (*.flac)
Тип рипа: image+.cue
Битрейт аудио: lossless
Продолжительность: 00:53:05
Источник: собственный рип
Наличие сканов в содержимом раздачи: нет
Треклист:
01 Movin' On - D.J. U-Neek feat. Nyt Owl
02 Baller's Lady - Passion feat. E-40
03 Shoot 'Em Up - Bone Thugs-n-Harmony
04 If It's Alright With You - Cappadonna feat. U-God
05 Who's the Champion - Ghostface Killer feat. RZA
06 Coolie High - Camp Lo
07 Running Song - Ambersunshower
08 Knocked Nekked (From the Waist Down) - Jamie Foxx feat. Dolemite
09 We Got It - Premiere
10 I've Got You Under My Skin - Lou Rawls and Biz Markie
11 Bring the Pain - Method Man
12 And I Love You - Marcus Miller
13 Chicken Huntin' (Slaughterhouse No Blood Radio Mix) - Insane Clown Posse (ICP)
Exact Audio Copy V1.1 from 23. June 2015

EAC extraction logfile from 16. June 2016, 20:04

Various / The Great White Hype

Used drive : TSSTcorpCDDVDW TS-L633C Adapter: 1 ID: 0

Read mode : SecureUtilize accurate stream : YesDefeat audio cache : YesMake use of C2 pointers : No

Read offset correction : 6Overread into Lead-In and Lead-Out : NoFill up missing offset samples with silence : YesDelete leading and trailing silent blocks : NoNull samples used in CRC calculations : YesUsed interface : Native Win32 interface for Win NT & 2000

Used output format : User Defined EncoderSelected bitrate : 768 kBit/sQuality : HighAdd ID3 tag : NoCommand line compressor : C:\Program Files (x86)\Exact Audio Copy\Flac\flac.exeAdditional command line options : -V -8 -T "Date=%year%" -T "Genre=%genre%" %source%

TOC of the extracted CD

Track | Start | Length | Start sector | End sector --------------------------------------------------------- 1 | 0:00.00 | 4:11.47 | 0 | 18871 2 | 4:11.47 | 3:42.45 | 18872 | 35566 3 | 7:54.17 | 5:18.00 | 35567 | 59416 4 | 13:12.17 | 3:34.50 | 59417 | 75516 5 | 16:46.67 | 3:42.65 | 75517 | 92231 6 | 20:29.57 | 4:00.38 | 92232 | 110269 7 | 24:30.20 | 4:24.70 | 110270 | 130139 8 | 28:55.15 | 4:35.40 | 130140 | 150804 9 | 33:30.55 | 3:57.65 | 150805 | 168644 10 | 37:28.45 | 3:58.15 | 168645 | 186509 11 | 41:26.60 | 3:17.40 | 186510 | 201324 12 | 44:44.25 | 4:38.30 | 201325 | 222204 13 | 49:22.55 | 3:42.27 | 222205 | 238881

Range status and errors

Selected range

Filename C:\Users\Public\RIPS\Various - The Great White Hype.wav

Peak level 100.0 % Extraction speed 4.2 X Range quality 100.0 % Test CRC D25DB7A5 Copy CRC D25DB7A5 Copy OK

No errors occurred

AccurateRip summary

Track 1 accurately ripped (confidence 1) [7E7D371C] (AR v1)Track 2 accurately ripped (confidence 1) [E10CD0CF] (AR v1)Track 3 accurately ripped (confidence 1) [8B9A5C50] (AR v1)Track 4 accurately ripped (confidence 1) [A7E6CB2B] (AR v1)Track 5 accurately ripped (confidence 1) [A3641A5E] (AR v1)Track 6 accurately ripped (confidence 1) [DEE979E2] (AR v1)Track 7 accurately ripped (confidence 1) [8231EEDE] (AR v1)Track 8 accurately ripped (confidence 1) [CFE591A7] (AR v1)Track 9 accurately ripped (confidence 1) [61CBFE88] (AR v1)Track 10 accurately ripped (confidence 1) [D40E2900] (AR v1)Track 11 accurately ripped (confidence 1) [3146D877] (AR v1)Track 12 accurately ripped (confidence 1) [18531AA4] (AR v1)Track 13 accurately ripped (confidence 1) [A40D1401] (AR v1)

All tracks accurately ripped

End of status report

---- CUETools DB Plugin V2.1.6

[CTDB TOCID: 8HP0powlzSE6z1RWeNj31.fmXDQ-] foundSubmit result: 8HP0powlzSE6z1RWeNj31.fmXDQ- has been confirmedTrack | CTDB Status 1 | (2/2) Accurately ripped 2 | (2/2) Accurately ripped 3 | (2/2) Accurately ripped 4 | (2/2) Accurately ripped 5 | (2/2) Accurately ripped 6 | (2/2) Accurately ripped 7 | (2/2) Accurately ripped 8 | (2/2) Accurately ripped 9 | (2/2) Accurately ripped 10 | (2/2) Accurately ripped 11 | (2/2) Accurately ripped 12 | (2/2) Accurately ripped 13 | (2/2) Accurately ripped

==== Log checksum 38678ADBC974B8B78DFEDB3170CCD9979DF5DA551CB5A653A601FD5691D5827A ====
A soundtrack containing hip hop music was released on April 30, 1996 by Epic Records. It peaked at 93 on the Billboard 200 and 27 on the Top R&B/Hip-Hop Albums. Camp Lo's single "Coolie High" became a minor hit, peaking at 25 on Rap charts.


Трекер:  [ 05-Июл-2016 20:00 ]

  

Скачать .torrent

Размер .torrent файла 13 KB


Размер: 310 MB
Хэш (hash) релиза: aa6edc906ad05f48a40fb9ebadc61dab199a659c

Торренты, похожие на Большой Белый Обман The Great White Hype скачать торрент

Форум Название Автор Размер S L Добавлен
Саундтреки ·· (Soundtrack) Большой Белый Обман / The Great White Hype - 1996, MP3, 320 kbps _N_ 128495198123 MB 0 0 1338366960

11:36

30-Май-12

Еще никто не оставлял запись к записи скачать торрент Большой Белый Обман The Great White Hype . Будь первым!

!Обратная связь