Скачать через торрент Да, я Сакамото, а что? Sakamoto Desu ga? бесплатно Аниме Все серии на русском torrent

Если у вас наблюдаются проблемы со скриншотами, переходом по ссылками, скачиванием торрентов - проблемы в блокировщике рекламы AdBlock. #хорошегоДня!


Статистика раздачи
Размер:  5.73 GB   |    Зарегистрирован:  1 год 2 месяца   |    .torrent скачан:  117 раз   |   
Раздают:  1  
   
Загрузка...
 
Автор Сообщение

Galfimbul

avatar Galfimbul



Страна: Япония
Год выпуска: 2016 г.
Жанр: комедия, школа
Тип: TV
Продолжительность: 12 эп. по ~ 25 мин
Режиссер: Такамацу Синдзи
Студия: Studio DEEN



Описание: Сакамото – первогодка в старшей школе. Он не просто крутой, а самый крутой! Почти сразу после поступления в школу он стал привлекать к себе всеобщее внимание. Девчонки от него без ума, а большинство парней недолюбливают его. В классе даже есть мальчик, который работает моделью, и даже он сдаёт позиции по популярности Сакамото. И как бы одноклассники не старались навредить Сакамото, ему всегда удаётся с легкостью и изяществом помешать им. Хотя со стороны Сакамото выглядит прохладным и отчуждённым, он помогает другим, если его попросят, например, тому парнишке, над которым издеваются в классе. И какими ни были трудности на пути Сакамото, он всё преодолеет!



Качество: HDTVRip
Тип релиза: Без хардсаба
Формат видео: MP4
Наличие линковки: Нет
Релиз/Автор рипа: [Leopard-Raws]
Видео: H264, 1280x720, 2 917 Kbps, 23.976 fps, 8 bit
Аудио: JAP, AAC, 192 kbps, 48000 Hz, 2ch
Перевод:
<ol class="post-ul">
русские субтитры: [YakuSub Studio] [1-7] (внешним файлом);
Переводчик: Nika_Elrik; Оформление: Helge; Редактор: Harushechka.
русские субтитры: [NI] [8-12] (внешним файлом).
Переводчик: Натилия Ишова.
</ol>
GeneralComplete name : D:\[Leopard-Raws] Sakamoto Desu ga - 01 RAW (TBS 1280x720 x264 AAC).mp4Format : MPEG-4Format profile : Base MediaCodec ID : isom (isom/avc1)File size : 545 MiBDuration : 24mn 29sOverall bit rate mode : VariableOverall bit rate : 3 112 KbpsEncoded date : UTC 2016-04-08 08:48:19Tagged date : UTC 2016-04-08 08:48:19

VideoID : 1Format : AVCFormat/Info : Advanced Video CodecFormat profile : High@L4.1Format settings, CABAC : YesFormat settings, ReFrames : 4 framesCodec ID : avc1Codec ID/Info : Advanced Video CodingDuration : 24mn 29sBit rate : 2 917 KbpsMaximum bit rate : 19.9 MbpsWidth : 1 280 pixelsHeight : 720 pixelsDisplay aspect ratio : 16:9Frame rate mode : ConstantFrame rate : 23.976 (24000/1001) fpsColor space : YUVChroma subsampling : 4:2:0Bit depth : 8 bitsScan type : ProgressiveBits/(Pixel*Frame) : 0.132Stream size : 511 MiB (94%)Title : 264:fps=23.976@GPAC0.5.1-DEV-rev4929Writing library : x264 core 129 r2245+729M 1a52e03Encoding settings : cabac=1 / ref=4 / deblock=1:1:-1 / analyse=0x3:0x113 / me=umh / subme=9 / psy=1 / fade_compensate=0.00 / psy_rd=1.00:0.00 / mixed_ref=1 / me_range=24 / chroma_me=1 / trellis=2 / 8x8dct=1 / cqm=0 / deadzone=21,11 / fast_pskip=1 / chroma_qp_offset=-2 / threads=8 / lookahead_threads=1 / sliced_threads=0 / nr=0 / decimate=1 / interlaced=0 / bluray_compat=0 / constrained_intra=0 / fgo=0 / bframes=9 / b_pyramid=2 / b_adapt=2 / b_bias=0 / direct=1 / weightb=1 / open_gop=0 / weightp=2 / keyint=240 / keyint_min=24 / scenecut=40 / intra_refresh=0 / rc=crf / mbtree=0 / crf=17.5 / qcomp=0.72 / qpmin=0 / qpmax=69 / qpstep=4 / ip_ratio=1.40 / pb_ratio=1.30 / aq=1:0.85Encoded date : UTC 2016-04-08 08:48:19Tagged date : UTC 2016-04-08 08:48:22Color range : LimitedColor primaries : BT.709Transfer characteristics : BT.709Matrix coefficients : BT.709

AudioID : 2Format : AACFormat/Info : Advanced Audio CodecFormat profile : LCCodec ID : 40Duration : 24mn 29sBit rate mode : VariableBit rate : 192 KbpsMaximum bit rate : 237 KbpsChannel(s) : 2 channelsChannel positions : Front: L RSampling rate : 48.0 KHzFrame rate : 46.875 fps (1024 spf)Compression mode : LossyStream size : 33.6 MiB (6%)Language : JapaneseEncoded date : UTC 2016-04-07 19:47:24Tagged date : UTC 2016-04-08 08:48:22
1 - Класс 1-2 Сакамото-кун / Тихо, оса2 - Лучше защищать, чем быть под защитой / Современные психологические техники любви3 - Мальчик на побегушках Сакамото / Любовные прятки4 - Сакамото извращенец? / Коллекция "Достопримечательности класса" / Летнее исчезновение Сакамото5 - Харизматичный хулиган Хаябуса-сэмпай6 - Правила ухода из школы / Любовь через объектив камеры7 - Сакамото, правда, извращенец? / Французская революция Сэры8 - Мрачный фестиваль культуры9 - Как мы с Сакамото познакомились / Самый близкий и при этом далёкий10 - Демон / То, чего не хватает11 - Мне не нужно тепло / Воспоминания 10 "Б"12 - Прощай Сакамото-кун


Трекер:  [ 04-Июл-2016 17:30 ]

  

Скачать .torrent

Размер .torrent файла 17 KB


Размер: 5.73 GB
Хэш (hash) релиза: 008416d40696a858db58a3b36055874fc0ce7404
Подписка на обновления:

Торренты, похожие на Да, я Сакамото, а что? Sakamoto Desu ga? скачать торрент

Форум Название Автор Размер S L Добавлен
Аниме | Rips ·· Да, я Сакамото, а что? / Sakamoto Desu ga? (Такамацу Синдзи) [TV+Special] [12+1 из 12+1] [Без хардсаба] [JAP+SUB] [2016, комедия, школа, WEBRip] Galfimbul 20381383851.9 GB 0 0 1477578550

17:29

27-Окт-16

Аниме | HD Rips ·· Да, я Сакамото, а что? / Sakamoto Desu ga? (Такамацу Синдзи) [TV+Special] [12+1 из 12+1] [Без хардсаба] [JAP+SUB] [2016, комедия, школа, WEBRip] [1080p] Galfimbul 75179892767 GB 0 0 1477574905

16:28

27-Окт-16

Аниме | HD Rips ·· Да, я Сакамото, а что? / Sakamoto Desu ga? [TV] [1-7 из 12] [Без хардсаба] [JAP+SUB] [2016 г., комедия, школа, HDTVRip] [720p] Galfimbul 38655068943.6 GB 0 0 1466095029

19:37

16-Июн-16

Аниме | HD Rips ·· Да, я Сакамото, а что? / Sakamoto Desu ga? [TV] [1-6 из 12] [Без хардсаба] [JAP+SUB] [2016 г., комедия, школа, HDTVRip] [720p] Galfimbul 32788801023.05 GB 0 0 1464023481

20:11

23-Май-16

Аниме | HD Rips ·· Да, я Сакамото, а что? / Sakamoto Desu ga? [TV] [1-5 из 13] [Без хардсаба] [JAP+SUB] [2016 г., комедия, школа, HDTVRip] [720p] Galfimbul 27057527422.52 GB 0 0 1463668926

17:42

19-Май-16

Аниме | HD Rips ·· Да, я Сакамото, а что? / Sakamoto Desu ga? [TV] [1-4 из 13] [Без хардсаба] [JAP+SUB] [2016 г., комедия, школа, HDTVRip] [720p] Galfimbul 21546761092.01 GB 0 0 1462890723

17:32

10-Май-16

Аниме | HD Rips ·· Да, я Сакамото, а что? / Sakamoto Desu ga? [TV] [1-3 из 13] [Без хардсаба] [JAP+SUB] [2016 г., комедия, школа, HDTVRip] [720p] Galfimbul 16376726961.53 GB 0 0 1462203977

18:46

2-Май-16

Аниме | HD Rips ·· Да, я Сакамото, а что? / Sakamoto Desu ga? [TV] [1-2 из 12] [Без хардсаба] [JAP+SUB] [2016 г., комедия, школа, HDTVRip] [720p] Galfimbul 10741702991 GB 0 0 1461516365

19:46

24-Апр-16

Аниме | HD Rips ·· Да, я Сакамото, а что? / Sakamoto Desu ga? [TV] [1 из 12] [Без хардсаба] [JAP+SUB] [2016 г., комедия, школа, HDTVRip] [720p] Galfimbul 571892676545 MB 0 0 1460485787

21:29

12-Апр-16

Еще никто не оставлял запись к записи скачать торрент Да, я Сакамото, а что? Sakamoto Desu ga? . Будь первым!

!Обратная связь