Скачать через торрент Моя первая любовь - монстр Hatsukoi Monster смотреть бесплатно Аниме Все серии на русском torrent

Если у вас наблюдаются проблемы со скриншотами, переходом по ссылками, скачиванием торрентов - проблемы в блокировщике рекламы AdBlock. #хорошегоДня!


Статистика раздачи
Размер:  477 MB   |    Зарегистрирован:  1 год 2 месяца   |    .torrent скачан:  80 раз   |   
Раздают:  1  
   
Загрузка...
 
Автор Сообщение

Galfimbul

avatar Galfimbul


Моя первая любовь - монстр / Hatsukoi Monster смотреть
Страна: Япония
Год выпуска: 2016 г.
Тип: TV
Жанр: Комедия, романтика, сёдзё
Продолжительность: 12 эп. по 25 мин
Русские субтитры: YakuSub Studio
Перевод песен/Оформление: Nika_Elrik
Переводчик: SeshaRim
Режиссер: Инагаки Такаюки

Студия:

Описание: Ох уж эти подростки из богатых семей. Практика показывает, что грузовики по ним проезжаются точно так же как и по "отрепью". Но это уже совсем другая история. Героиня нашей истории юная особа по имени Никайдо Кахо. На вид милая и красивая девочка, невысокого роста с длинными волосами. По характеру так же вполне себе нормальны человек, несмотря на то, что воспитывалась как принцесса в окружении многомиллионого состояния родителей. Характер не приобрел черты "хочу всё, здесь и сейчас".

Ках, несмотря на положение своих родителей в обществе, не слишком хотела быть к ним привязана и поэтому в 15-ть лет отправилась в другой город, чтобы начать самостоятельную жизнь. По прибытию на новое местожительство её чуть не сбивает грузовик, но от него её спасает привлекательны парень, в которого, ох как удивительно, Кахо влюбляется. На вид он был старше её, Кахо даже подумала что он уже женат и имеет семью, так как он сказал, что имеет секретик. Но всё оказалось гораздо проще - он ученик МЛАДШЕЙ школы. Вот и посмотрим что Кахо будет делать.

Качество: HDTVRip | Равка: Leopard-Raws Формат: mp4 | Тип Видео: без хардсаба
Видео: х264, 8 bits, 1280x720, 2583 kbps, 23.976 fps, (16:9)
JP - AAC, 192 kbps, 48.0 KHz, 2 ch Язык Японский
01.So: I`m in Primary School. What Now?
Общее
Полное имя : D:\[Leopard-Raws]\[Leopard-Raws] Hatsukoi Monster\[Leopard-Raws] Hatsukoi Monster - 01 RAW (MX 1280x720 x264 AAC).mp4
Формат : MPEG-4
Профиль формата : Base Media
Идентификатор кодека : isom
Размер файла : 477 Мбайт
Продолжительность : 23 м.
Режим общего битрейта : Переменный
Общий поток : 2778 Кбит/сек
Дата кодирования : UTC 2016-07-03 05:51:42
Дата пометки : UTC 2016-07-03 05:51:42

Видео
Идентификатор : 1
Формат : AVC
Формат/Информация : Advanced Video Codec
Профиль формата : High@L4.1
Параметр CABAC формата : Да
Параметр ReFrames формата : 4 кадра
Идентификатор кодека : avc1
Идентификатор кодека/Информация : Advanced Video Coding
Продолжительность : 23 м.
Битрейт : 2583 Кбит/сек
Максимальный битрейт : 18,6 Мбит/сек
Ширина : 1280 пикселей
Высота : 720 пикселей
Соотношение сторон : 16:9
Режим частоты кадров : Постоянный
Частота кадров : 23,976 кадра/сек
Цветовое пространство : YUV
Субдискретизация насыщенности : 4:2:0
Битовая глубина : 8 бит
Тип развёртки : Прогрессивная
Бит/(Пиксели*Кадры) : 0.117
Размер потока : 443 Мбайт (93%)
Заголовок : 264:fps=23.976@GPAC0.5.1-DEV-rev4929
Библиотека кодирования : x264 core 129 r2245+729M 1a52e03
Настройки программы : cabac=1 / ref=4 / deblock=1:1:-1 / analyse=0x3:0x113 / me=umh / subme=9 / psy=1 / fade_compensate=0.00 / psy_rd=1.00:0.00 / mixed_ref=1 / me_range=24 / chroma_me=1 / trellis=2 / 8x8dct=1 / cqm=0 / deadzone=21,11 / fast_pskip=1 / chroma_qp_offset=-2 / threads=8 / lookahead_threads=1 / sliced_threads=0 / nr=0 / decimate=1 / interlaced=0 / bluray_compat=0 / constrained_intra=0 / fgo=0 / bframes=9 / b_pyramid=2 / b_adapt=2 / b_bias=0 / direct=1 / weightb=1 / open_gop=0 / weightp=2 / keyint=240 / keyint_min=24 / scenecut=40 / intra_refresh=0 / rc=crf / mbtree=0 / crf=18.0 / qcomp=0.72 / qpmin=0 / qpmax=69 / qpstep=4 / ip_ratio=1.40 / pb_ratio=1.30 / aq=1:0.85
Дата кодирования : UTC 2016-07-03 05:51:42
Дата пометки : UTC 2016-07-03 05:52:13
Основные цвета : BT.709
Характеристики трансфера : BT.709
Коэффициенты матрицы : BT.709

Аудио
Идентификатор : 2
Формат : AAC
Формат/Информация : Advanced Audio Codec
Профиль формата : LC
Идентификатор кодека : 40
Продолжительность : 23 м.
Вид битрейта : Переменный
Битрейт : 192 Кбит/сек
Максимальный битрейт : 226 Кбит/сек
Каналы : 2 канала
Расположение каналов : Front: L R
Частота : 48,0 КГц
Метод сжатия : С потерями
Размер потока : 32,9 Мбайт (7%)
Язык : Japanese
Дата кодирования : UTC 2016-07-02 18:19:51
Дата пометки : UTC 2016-07-03 05:52:13


Трекер:  [ 04-Июл-2016 12:00 ]

  

Скачать .torrent

Размер .torrent файла 19 KB


Размер: 477 MB
Хэш (hash) релиза: 6e73b0c5b472b63253329f9a63e75f7be7e3e827
Подписка на обновления:

Торренты, похожие на Моя первая любовь - монстр Hatsukoi Monster смотреть скачать торрент

Форум Название Автор Размер S L Добавлен
Аниме | HD Rips ·· Моя первая любовь - монстр / Hatsukoi Monster смотреть (Инагаки Такаюки) [TV] [2 из 13] [Без хардсаба] [JAP+SUB] [2016 г., комедия, романтика, сёдзё HDTVRip] [720p] Galfimbul 876984331836 MB 0 0 1468477560

09:26

14-Июл-16

Еще никто не оставлял запись к записи скачать торрент Моя первая любовь - монстр Hatsukoi Monster смотреть . Будь первым!

!Обратная связь