David Attenboroughs Conquest of the Skies torrent

UnionPeer.org . . UnionPeer.org 2014 2015 . .

David Attenboroughs Conquest of the Skies .torrent

, , - AdBlock. #!


42.79 GB   |    :  1 1    |    .torrent :  79    |   
1  
   
...
 

Galfimbul

avatar Galfimbul


Conquest of the Skies
: 2014
:
:
: 02:38:53
:
:

: / David Lee
: / David Attenborough

: . , , , , .
3D, , , 300- . , , , ? , CGI-, , .

: Blu-Ray Disc
: ISO
3D: Blu-Ray 3D
: MVC, AVC
: MPEG-4 AVC, 1920x1080 (16:9), 23.976 fps, 15997 kbps
: MPEG-4 MVC 11998 kbps
: English DTS-HD MA 5.1, 2284 kbps, 48 kHz, 16-bit (DTS Core: 5.1, 1509 kbps, 48 kHz, 16-bit)
2: English DTS-HD MA 2.0, 1762 kbps, 48 kHz, 16-bit (DTS Core: 5.1, 1509 kbps, 48 kHz, 16-bit)
:
. : The Making of (00:54:58)

1: First to Fly
David embarks on an extraordinary journey to unravel one of natures most gripping stories the evolution of flying animals. He begins by exploring the unexpectedly advanced world of the very first flyers the insects. Stunning new images give us fresh insights into an astonishing story from the first dragonfly-like creatures that emerged from the water to fly on four wings, to the beetles that built hard wing-cases to colonise the land, and butterflies capable of migrating halfway round the globe. He concludes by investigating the remarkable skills of jet fighter of the insect world the humble but surprisingly acrobatic fly.

2: Rivals
David Attenborough continues his search for the origins of flying animals, as he charts the rise of new, larger creatures extinct reptiles that flew on wings of skin, dinosaurs that sprouted feathers to become the ancestors of birds, and gliding mammals that emerged from a life in the trees to dominate the night as bats. His journey spans the globe from the rainforests of Borneo to see bizarre gliding animals, to China and its new discoveries of dinosaur fossils. Stunning CGI brings to life creatures that disappeared over 200 million years ago, and new filming techniques bring us closer than ever to the secrets of flight itself.

3: Triumph
David concludes his epic history of the evolution of flight with an exploration of the highly advanced fliers that dominate our skies today the extraordinarily diverse skills of the birds, and the sonar-guided precision of the bats. He encounters some of our planets most remarkable fliers from peregrine falcons dive-bombing starlings over Rome, to hummingbirds hovering in the cloud forests of Ecuador. In a spectacular finale, he visits Gomantong cave in Borneo to witness the mass exodus of a million bats.

4: The Making of
From the steaming rainforests of Borneo to the freezing fossil beds of China, the arid canyons of Spain and the remote cloud-forests of Ecuador, this series spans the globe and travels through time to explore the thrilling and surprising story of how flying animals came to conquer the skies. The team used ground-breaking 3D cameras, high speed filming and stunning CGI to immerse the viewer in an astounding aerial world. 3D demands that subjects be filmed relatively close to the camera far from ideal in a wildlife documentary. This represented an extremely tricky task, so the team liaised extensively with UAV designers, macro-rig engineers and directors-of-photography who helped us to develop entirely new systems that took 3D to places it had never been before. The Octocopter is a multi-rotor UAV with customised gimbal capable of carrying 2 Red Epic cameras in order to shoot 3D. The octocopter was developed to help the team film in 3D in places no other 3D rig has ever got to, but it also posed many challenges. Its weight meant that flight-time was severely limited, and in volatile environments like the rainforest, where conditions can change rapidly, every flight was valuable and any failed attempt would have been costly.
Disc Title: CONQUEST_OF_THE_SKIES
Disc Size: 87423130050 bytes
Protection: AACS
BD-Java: No
BDInfo: 0.5.1

Notes:

BDINFO HOME AND REPORTS SUBMISSION:
Cinema Squid
http://www.cinemasquid.com/Tools.aspx

INCLUDES FORUMS REPORT FOR:
Unofficial Blu-ray Audio and Video Specifications Thread
http://www.avsforum.com/avs-vb/showthread.php?t=760714
http://forum.blu-ray.com/showthread.php?t=3338

********************
PLAYLIST: 00009.MPLS
********************

<--- BEGIN SUMMARY PASTE --->
Total Video
Title Codec Length Movie Size Disc Size Bitrate Bitrate Main Audio Track Secondary Audio Track
----- ------ ------- -------------- -------------- ------- ------- ------------------ ---------------------
00009.MPLS AVC 2:38:53 25569275904 87423130050 21,46 16,00 DTS-HD Master 5.1 2284Kbps (48kHz/16-bit) DTS-HD Master 2.0 1762Kbps (48kHz/16-bit)
<---- END SUMMARY PASTE ---->

<--- BEGIN DETAILS PASTE --->
DISC INFO:

Disc Title: CONQUEST_OF_THE_SKIES
Disc Size: 87423130050 bytes
Protection: AACS
BD-Java: No
BDInfo: 0.5.1

PLAYLIST REPORT:

Name: 00009.MPLS
Size: 25569275904 bytes
Length: 2:38:53 (h:m:s)
Total Bitrate: 21,46 Mbps
Description:

VIDEO:

Codec Bitrate Description
----- ------- -----------
MPEG-4 AVC Video 15997 kbps 1080p / 23,976 fps / 16:9 / High Profile 4.1

AUDIO:

Codec Language Bitrate Description
----- -------- ------- -----------
DTS-HD Master Audio English 2284 kbps 5.1 / 48 kHz / 2284 kbps / 16-bit (DTS Core: 5.1 / 48 kHz / 1509 kbps / 16-bit)
DTS-HD Master Audio English 1762 kbps 2.0 / 48 kHz / 1762 kbps / 16-bit (DTS Core: 2.0 / 48 kHz / 1509 kbps / 16-bit)

FILES:

Name Time In Length Size Total Bitrate
---- ------- ------ ---- -------------
00009.M2TS 0:00:00.000 0:53:16.818 8551981056 21401
00010.M2TS 0:53:16.818 0:52:29.020 8456607744 21484
00011.M2TS 1:45:45.839 0:53:07.475 8560687104 21486

CHAPTERS:

Number Time In Length Avg Video Rate Max 1-Sec Rate Max 1-Sec Time Max 5-Sec Rate Max 5-Sec Time Max 10Sec Rate Max 10Sec Time Avg Frame Size Max Frame Size Max Frame Time
------ ------- ------ -------------- -------------- -------------- -------------- -------------- -------------- -------------- -------------- -------------- --------------
1 0:00:00.000 0:11:15.424 16375 kbps 26603 kbps 00:06:21.172 20826 kbps 00:06:17.168 20349 kbps 00:06:12.205 85364 bytes 606557 bytes 00:06:11.704
2 0:11:15.424 0:02:48.668 15413 kbps 21350 kbps 00:11:55.923 20192 kbps 00:11:51.919 20024 kbps 00:11:18.427 80356 bytes 334613 bytes 00:13:11.415
3 0:14:04.093 0:05:53.644 16161 kbps 21933 kbps 00:19:40.429 20309 kbps 00:14:43.132 20076 kbps 00:14:36.083 84256 bytes 471151 bytes 00:14:59.231
4 0:19:57.738 0:19:29.376 16852 kbps 22848 kbps 00:31:35.727 20459 kbps 00:20:22.262 20208 kbps 00:20:17.257 87860 bytes 595402 bytes 00:20:24.473
5 0:39:27.114 0:02:49.210 13880 kbps 21429 kbps 00:41:16.515 20117 kbps 00:39:52.723 19992 kbps 00:39:47.760 72362 bytes 336556 bytes 00:40:29.176
6 0:42:16.325 0:11:00.493 14688 kbps 27878 kbps 00:52:56.923 21400 kbps 00:52:52.919 20690 kbps 00:52:47.914 76579 bytes 514770 bytes 00:51:29.086
7 0:53:16.818 0:07:21.357 16762 kbps 23158 kbps 00:55:51.890 20573 kbps 00:55:47.886 20125 kbps 00:55:30.869 87390 bytes 492095 bytes 00:55:48.928
8 1:00:38.176 0:09:44.625 16602 kbps 22894 kbps 01:05:47.276 20598 kbps 01:05:02.648 20244 kbps 01:04:57.643 86556 bytes 514737 bytes 01:01:15.713
9 1:10:22.801 0:06:33.101 13326 kbps 23450 kbps 01:16:50.731 20302 kbps 01:13:27.528 20104 kbps 01:13:22.648 69476 bytes 472900 bytes 01:15:37.491
10 1:16:55.902 0:10:34.592 16815 kbps 23385 kbps 01:26:06.077 20551 kbps 01:17:07.247 20218 kbps 01:17:02.242 87664 bytes 514002 bytes 01:17:08.498
11 1:27:30.495 0:10:34.842 16423 kbps 22016 kbps 01:34:31.290 20362 kbps 01:34:11.604 20170 kbps 01:34:11.604 85623 bytes 479832 bytes 01:34:27.536
12 1:38:05.337 0:07:40.501 15074 kbps 23135 kbps 01:42:22.928 20526 kbps 01:42:19.049 20204 kbps 01:42:13.919 78589 bytes 540777 bytes 01:40:04.415
13 1:45:45.839 0:10:42.600 18043 kbps 23318 kbps 01:50:35.128 20488 kbps 01:54:25.358 20229 kbps 01:53:58.206 94069 bytes 508485 bytes 01:54:09.092
14 1:56:28.439 0:11:32.733 15307 kbps 24483 kbps 02:04:02.852 20825 kbps 02:03:58.889 20308 kbps 02:03:53.884 79804 bytes 502489 bytes 01:57:42.096
15 2:08:01.173 0:08:02.648 15949 kbps 22729 kbps 02:12:55.008 20296 kbps 02:15:10.644 20153 kbps 02:12:44.039 83152 bytes 509854 bytes 02:10:48.715
16 2:16:03.822 0:04:53.167 12900 kbps 23742 kbps 02:20:55.864 20359 kbps 02:16:20.297 20136 kbps 02:16:11.705 67253 bytes 367276 bytes 02:16:23.550
17 2:20:56.990 0:13:08.412 15897 kbps 21847 kbps 02:23:01.656 20398 kbps 02:31:24.992 20118 kbps 02:31:20.321 82880 bytes 436347 bytes 02:30:54.879
18 2:34:05.402 0:04:47.912 16604 kbps 22930 kbps 02:36:16.408 20383 kbps 02:36:14.782 20091 kbps 02:35:25.065 86578 bytes 513541 bytes 02:36:18.118

STREAM DIAGNOSTICS:

File PID Type Codec Language Seconds Bitrate Bytes Packets
---- --- ---- ----- -------- -------------- -------------- ------------- -----
00009.M2TS 4113 (0x1011) 0x1B AVC 3196,735 15995 6391438675 34781937
00009.M2TS 4352 (0x1100) 0x86 DTS-HD MA eng (English) 3196,735 1754 701010572 4288826
00009.M2TS 4353 (0x1101) 0x86 DTS-HD MA eng (English) 3196,735 2243 896424048 5363683
00010.M2TS 4113 (0x1011) 0x1B AVC 3148,937 15999 6297607477 34271279
00010.M2TS 4352 (0x1100) 0x86 DTS-HD MA eng (English) 3148,937 1767 695340884 4263016
00010.M2TS 4353 (0x1101) 0x86 DTS-HD MA eng (English) 3148,937 2299 904782720 5405040
00011.M2TS 4113 (0x1011) 0x1B AVC 3187,393 15998 6373974832 34686830
00011.M2TS 4352 (0x1100) 0x86 DTS-HD MA eng (English) 3187,393 1765 703075128 4296899
00011.M2TS 4353 (0x1101) 0x86 DTS-HD MA eng (English) 3187,393 2311 920605816 5496404
<---- END DETAILS PASTE ---->

********************
PLAYLIST: 00013.MPLS
********************

<--- BEGIN SUMMARY PASTE --->
Total Video
Title Codec Length Movie Size Disc Size Bitrate Bitrate Main Audio Track Secondary Audio Track
----- ------ ------- -------------- -------------- ------- ------- ------------------ ---------------------
00013.MPLS AVC 0:54:58 4430671872 87423130050 10,75 10,00 DD AC3 2.0 224Kbps
<---- END SUMMARY PASTE ---->

<--- BEGIN DETAILS PASTE --->
DISC INFO:

Disc Title: CONQUEST_OF_THE_SKIES
Disc Size: 87423130050 bytes
Protection: AACS
BD-Java: No
BDInfo: 0.5.1

PLAYLIST REPORT:

Name: 00013.MPLS
Size: 4430671872 bytes
Length: 0:54:58 (h:m:s)
Total Bitrate: 10,75 Mbps
Description:

VIDEO:

Codec Bitrate Description
----- ------- -----------
MPEG-4 AVC Video 9999 kbps 1080p / 23,976 fps / 16:9 / High Profile 4.1

AUDIO:

Codec Language Bitrate Description
----- -------- ------- -----------
Dolby Digital Audio English 224 kbps 2.0 / 48 kHz / 224 kbps

FILES:

Name Time In Length Size Total Bitrate
---- ------- ------ ---- -------------
00013.M2TS 0:00:00.000 0:54:58.295 4430671872 10747

CHAPTERS:

Number Time In Length Avg Video Rate Max 1-Sec Rate Max 1-Sec Time Max 5-Sec Rate Max 5-Sec Time Max 10Sec Rate Max 10Sec Time Avg Frame Size Max Frame Size Max Frame Time
------ ------- ------ -------------- -------------- -------------- -------------- -------------- -------------- -------------- -------------- -------------- --------------
1 0:00:00.000 0:09:05.294 10041 kbps 21475 kbps 00:00:29.279 19596 kbps 00:01:09.319 17078 kbps 00:01:05.148 52345 bytes 403709 bytes 00:01:17.368
2 0:09:05.294 0:09:21.102 9609 kbps 20896 kbps 00:12:11.897 19858 kbps 00:14:52.391 16520 kbps 00:14:52.308 50098 bytes 419603 bytes 00:11:53.129
3 0:18:26.396 0:09:10.800 9177 kbps 21081 kbps 00:23:40.877 20051 kbps 00:23:36.790 19374 kbps 00:23:33.036 47847 bytes 410648 bytes 00:21:36.336
4 0:27:37.197 0:03:49.687 6344 kbps 17174 kbps 00:29:40.487 15877 kbps 00:29:37.066 12968 kbps 00:29:33.855 33074 bytes 304664 bytes 00:28:26.287
5 0:31:26.885 0:13:38.108 11584 kbps 21978 kbps 00:38:59.628 20069 kbps 00:41:12.636 18713 kbps 00:40:36.976 60392 bytes 430765 bytes 00:31:43.651
6 0:45:04.993 0:09:53.301 10321 kbps 21765 kbps 00:47:12.621 19337 kbps 00:47:09.284 17787 kbps 00:47:08.283 53813 bytes 429500 bytes 00:47:13.455

STREAM DIAGNOSTICS:

File PID Type Codec Language Seconds Bitrate Bytes Packets
---- --- ---- ----- -------- -------------- -------------- ------------- -----
00013.M2TS 4113 (0x1011) 0x1B AVC 3298,128 9999 4122407364 22450552
00013.M2TS 4352 (0x1100) 0x81 AC3 eng (English) 3298,128 224 92352512 515360
<---- END DETAILS PASTE ---->

********************
PLAYLIST: 00006.MPLS
********************

<--- BEGIN SUMMARY PASTE --->
Total Video
Title Codec Length Movie Size Disc Size Bitrate Bitrate Main Audio Track Secondary Audio Track
----- ------ ------- -------------- -------------- ------- ------- ------------------ ---------------------
00006.MPLS AVC 0:53:16 8551981056 87423130050 21,40 15,99 DTS-HD Master 5.1 2243Kbps (48kHz/16-bit) DTS-HD Master 2.0 1754Kbps (48kHz/16-bit)
<---- END SUMMARY PASTE ---->

<--- BEGIN DETAILS PASTE --->
DISC INFO:

Disc Title: CONQUEST_OF_THE_SKIES
Disc Size: 87423130050 bytes
Protection: AACS
BD-Java: No
BDInfo: 0.5.1

PLAYLIST REPORT:

Name: 00006.MPLS
Size: 8551981056 bytes
Length: 0:53:16 (h:m:s)
Total Bitrate: 21,40 Mbps
Description:

VIDEO:

Codec Bitrate Description
----- ------- -----------
MPEG-4 AVC Video 15994 kbps 1080p / 23,976 fps / 16:9 / High Profile 4.1

AUDIO:

Codec Language Bitrate Description
----- -------- ------- -----------
DTS-HD Master Audio English 2243 kbps 5.1 / 48 kHz / 2243 kbps / 16-bit (DTS Core: 5.1 / 48 kHz / 1509 kbps / 16-bit)
DTS-HD Master Audio English 1754 kbps 2.0 / 48 kHz / 1754 kbps / 16-bit (DTS Core: 2.0 / 48 kHz / 1509 kbps / 16-bit)

FILES:

Name Time In Length Size Total Bitrate
---- ------- ------ ---- -------------
00009.M2TS 0:00:00.000 0:53:16.818 8551981056 21401

CHAPTERS:

Number Time In Length Avg Video Rate Max 1-Sec Rate Max 1-Sec Time Max 5-Sec Rate Max 5-Sec Time Max 10Sec Rate Max 10Sec Time Avg Frame Size Max Frame Size Max Frame Time
------ ------- ------ -------------- -------------- -------------- -------------- -------------- -------------- -------------- -------------- -------------- --------------
1 0:00:00.000 0:11:15.424 16375 kbps 26603 kbps 00:06:21.172 20826 kbps 00:06:17.168 20349 kbps 00:06:12.205 85364 bytes 606557 bytes 00:06:11.704
2 0:11:15.424 0:02:48.668 15413 kbps 21350 kbps 00:11:55.923 20192 kbps 00:11:51.919 20024 kbps 00:11:18.427 80356 bytes 334613 bytes 00:13:11.415
3 0:14:04.093 0:05:53.644 16161 kbps 21933 kbps 00:19:40.429 20309 kbps 00:14:43.132 20076 kbps 00:14:36.083 84256 bytes 471151 bytes 00:14:59.231
4 0:19:57.738 0:19:29.376 16852 kbps 22848 kbps 00:31:35.727 20459 kbps 00:20:22.262 20208 kbps 00:20:17.257 87860 bytes 595402 bytes 00:20:24.473
5 0:39:27.114 0:02:49.210 13880 kbps 21429 kbps 00:41:16.515 20117 kbps 00:39:52.723 19992 kbps 00:39:47.760 72362 bytes 336556 bytes 00:40:29.176
6 0:42:16.325 0:11:00.493 14688 kbps 27878 kbps 00:52:56.923 21400 kbps 00:52:52.919 20690 kbps 00:52:47.914 76583 bytes 514770 bytes 00:51:29.086

STREAM DIAGNOSTICS:

File PID Type Codec Language Seconds Bitrate Bytes Packets
---- --- ---- ----- -------- -------------- -------------- ------------- -----
00009.M2TS 4113 (0x1011) 0x1B AVC 3196,735 15995 6391438675 34781937
00009.M2TS 4352 (0x1100) 0x86 DTS-HD MA eng (English) 3196,735 1754 701010572 4288826
00009.M2TS 4353 (0x1101) 0x86 DTS-HD MA eng (English) 3196,735 2243 896424048 5363683
<---- END DETAILS PASTE ---->

********************
PLAYLIST: 00010.MPLS
********************

<--- BEGIN SUMMARY PASTE --->
Total Video
Title Codec Length Movie Size Disc Size Bitrate Bitrate Main Audio Track Secondary Audio Track
----- ------ ------- -------------- -------------- ------- ------- ------------------ ---------------------
00010.MPLS AVC 0:53:16 8551981056 87423130050 21,40 15,99 DTS-HD Master 5.1 2243Kbps (48kHz/16-bit) DTS-HD Master 2.0 1754Kbps (48kHz/16-bit)
<---- END SUMMARY PASTE ---->

<--- BEGIN DETAILS PASTE --->
DISC INFO:

Disc Title: CONQUEST_OF_THE_SKIES
Disc Size: 87423130050 bytes
Protection: AACS
BD-Java: No
BDInfo: 0.5.1

PLAYLIST REPORT:

Name: 00010.MPLS
Size: 8551981056 bytes
Length: 0:53:16 (h:m:s)
Total Bitrate: 21,40 Mbps
Description:

VIDEO:

Codec Bitrate Description
----- ------- -----------
MPEG-4 AVC Video 15994 kbps 1080p / 23,976 fps / 16:9 / High Profile 4.1

AUDIO:

Codec Language Bitrate Description
----- -------- ------- -----------
DTS-HD Master Audio English 2243 kbps 5.1 / 48 kHz / 2243 kbps / 16-bit (DTS Core: 5.1 / 48 kHz / 1509 kbps / 16-bit)
DTS-HD Master Audio English 1754 kbps 2.0 / 48 kHz / 1754 kbps / 16-bit (DTS Core: 2.0 / 48 kHz / 1509 kbps / 16-bit)

FILES:

Name Time In Length Size Total Bitrate
---- ------- ------ ---- -------------
00009.M2TS 0:00:00.000 0:53:16.818 8551981056 21401

CHAPTERS:

Number Time In Length Avg Video Rate Max 1-Sec Rate Max 1-Sec Time Max 5-Sec Rate Max 5-Sec Time Max 10Sec Rate Max 10Sec Time Avg Frame Size Max Frame Size Max Frame Time
------ ------- ------ -------------- -------------- -------------- -------------- -------------- -------------- -------------- -------------- -------------- --------------
1 0:00:00.000 0:11:15.424 16375 kbps 26603 kbps 00:06:21.172 20826 kbps 00:06:17.168 20349 kbps 00:06:12.205 85364 bytes 606557 bytes 00:06:11.704
2 0:11:15.424 0:02:48.668 15413 kbps 21350 kbps 00:11:55.923 20192 kbps 00:11:51.919 20024 kbps 00:11:18.427 80356 bytes 334613 bytes 00:13:11.415
3 0:14:04.093 0:05:53.644 16161 kbps 21933 kbps 00:19:40.429 20309 kbps 00:14:43.132 20076 kbps 00:14:36.083 84256 bytes 471151 bytes 00:14:59.231
4 0:19:57.738 0:19:29.376 16852 kbps 22848 kbps 00:31:35.727 20459 kbps 00:20:22.262 20208 kbps 00:20:17.257 87860 bytes 595402 bytes 00:20:24.473
5 0:39:27.114 0:02:49.210 13880 kbps 21429 kbps 00:41:16.515 20117 kbps 00:39:52.723 19992 kbps 00:39:47.760 72362 bytes 336556 bytes 00:40:29.176
6 0:42:16.325 0:11:00.493 14688 kbps 27878 kbps 00:52:56.923 21400 kbps 00:52:52.919 20690 kbps 00:52:47.914 76583 bytes 514770 bytes 00:51:29.086

STREAM DIAGNOSTICS:

File PID Type Codec Language Seconds Bitrate Bytes Packets
---- --- ---- ----- -------- -------------- -------------- ------------- -----
00009.M2TS 4113 (0x1011) 0x1B AVC 3196,735 15995 6391438675 34781937
00009.M2TS 4352 (0x1100) 0x86 DTS-HD MA eng (English) 3196,735 1754 701010572 4288826
00009.M2TS 4353 (0x1101) 0x86 DTS-HD MA eng (English) 3196,735 2243 896424048 5363683
<---- END DETAILS PASTE ---->

********************
PLAYLIST: 00008.MPLS
********************

<--- BEGIN SUMMARY PASTE --->
Total Video
Title Codec Length Movie Size Disc Size Bitrate Bitrate Main Audio Track Secondary Audio Track
----- ------ ------- -------------- -------------- ------- ------- ------------------ ---------------------
00008.MPLS AVC 0:53:07 8560687104 87423130050 21,49 16,00 DTS-HD Master 5.1 2311Kbps (48kHz/16-bit) DTS-HD Master 2.0 1765Kbps (48kHz/16-bit)
<---- END SUMMARY PASTE ---->

<--- BEGIN DETAILS PASTE --->
DISC INFO:

Disc Title: CONQUEST_OF_THE_SKIES
Disc Size: 87423130050 bytes
Protection: AACS
BD-Java: No
BDInfo: 0.5.1

PLAYLIST REPORT:

Name: 00008.MPLS
Size: 8560687104 bytes
Length: 0:53:07 (h:m:s)
Total Bitrate: 21,49 Mbps
Description:

VIDEO:

Codec Bitrate Description
----- ------- -----------
MPEG-4 AVC Video 15998 kbps 1080p / 23,976 fps / 16:9 / High Profile 4.1

AUDIO:

Codec Language Bitrate Description
----- -------- ------- -----------
DTS-HD Master Audio English 2311 kbps 5.1 / 48 kHz / 2311 kbps / 16-bit (DTS Core: 5.1 / 48 kHz / 1509 kbps / 16-bit)
DTS-HD Master Audio English 1765 kbps 2.0 / 48 kHz / 1765 kbps / 16-bit (DTS Core: 2.0 / 48 kHz / 1509 kbps / 16-bit)

FILES:

Name Time In Length Size Total Bitrate
---- ------- ------ ---- -------------
00011.M2TS 0:00:00.000 0:53:07.475 8560687104 21486

CHAPTERS:

Number Time In Length Avg Video Rate Max 1-Sec Rate Max 1-Sec Time Max 5-Sec Rate Max 5-Sec Time Max 10Sec Rate Max 10Sec Time Avg Frame Size Max Frame Size Max Frame Time
------ ------- ------ -------------- -------------- -------------- -------------- -------------- -------------- -------------- -------------- -------------- --------------
1 0:00:00.000 0:10:42.600 18043 kbps 23318 kbps 00:04:49.289 20488 kbps 00:08:39.519 20229 kbps 00:08:12.366 94063 bytes 508485 bytes 00:08:23.252
2 0:10:42.600 0:11:32.733 15307 kbps 24483 kbps 00:18:17.012 20825 kbps 00:18:13.050 20308 kbps 00:18:08.045 79804 bytes 502489 bytes 00:11:56.257
3 0:22:15.334 0:08:02.648 15949 kbps 22729 kbps 00:27:09.169 20296 kbps 00:29:24.804 20153 kbps 00:26:58.199 83152 bytes 509854 bytes 00:25:02.876
4 0:30:17.982 0:04:53.167 12900 kbps 23742 kbps 00:35:10.024 20359 kbps 00:30:34.457 20136 kbps 00:30:25.865 67253 bytes 367276 bytes 00:30:37.710
5 0:35:11.150 0:13:08.412 15897 kbps 21847 kbps 00:37:15.816 20398 kbps 00:45:39.153 20118 kbps 00:45:34.481 82880 bytes 436347 bytes 00:45:09.039
6 0:48:19.563 0:04:47.912 16604 kbps 22930 kbps 00:50:30.569 20383 kbps 00:50:28.942 20091 kbps 00:49:39.226 86578 bytes 513541 bytes 00:50:32.279

STREAM DIAGNOSTICS:

File PID Type Codec Language Seconds Bitrate Bytes Packets
---- --- ---- ----- -------- -------------- -------------- ------------- -----
00011.M2TS 4113 (0x1011) 0x1B AVC 3187,393 15998 6373974832 34686830
00011.M2TS 4352 (0x1100) 0x86 DTS-HD MA eng (English) 3187,393 1765 703075128 4296899
00011.M2TS 4353 (0x1101) 0x86 DTS-HD MA eng (English) 3187,393 2311 920605816 5496404
<---- END DETAILS PASTE ---->

********************
PLAYLIST: 00012.MPLS
********************

<--- BEGIN SUMMARY PASTE --->
Total Video
Title Codec Length Movie Size Disc Size Bitrate Bitrate Main Audio Track Secondary Audio Track
----- ------ ------- -------------- -------------- ------- ------- ------------------ ---------------------
00012.MPLS AVC 0:53:07 8560687104 87423130050 21,49 16,00 DTS-HD Master 5.1 2311Kbps (48kHz/16-bit) DTS-HD Master 2.0 1765Kbps (48kHz/16-bit)
<---- END SUMMARY PASTE ---->

<--- BEGIN DETAILS PASTE --->
DISC INFO:

Disc Title: CONQUEST_OF_THE_SKIES
Disc Size: 87423130050 bytes
Protection: AACS
BD-Java: No
BDInfo: 0.5.1

PLAYLIST REPORT:

Name: 00012.MPLS
Size: 8560687104 bytes
Length: 0:53:07 (h:m:s)
Total Bitrate: 21,49 Mbps
Description:

VIDEO:

Codec Bitrate Description
----- ------- -----------
MPEG-4 AVC Video 15998 kbps 1080p / 23,976 fps / 16:9 / High Profile 4.1

AUDIO:

Codec Language Bitrate Description
----- -------- ------- -----------
DTS-HD Master Audio English 2311 kbps 5.1 / 48 kHz / 2311 kbps / 16-bit (DTS Core: 5.1 / 48 kHz / 1509 kbps / 16-bit)
DTS-HD Master Audio English 1765 kbps 2.0 / 48 kHz / 1765 kbps / 16-bit (DTS Core: 2.0 / 48 kHz / 1509 kbps / 16-bit)

FILES:

Name Time In Length Size Total Bitrate
---- ------- ------ ---- -------------
00011.M2TS 0:00:00.000 0:53:07.475 8560687104 21486

CHAPTERS:

Number Time In Length Avg Video Rate Max 1-Sec Rate Max 1-Sec Time Max 5-Sec Rate Max 5-Sec Time Max 10Sec Rate Max 10Sec Time Avg Frame Size Max Frame Size Max Frame Time
------ ------- ------ -------------- -------------- -------------- -------------- -------------- -------------- -------------- -------------- -------------- --------------
1 0:00:00.000 0:10:42.600 18043 kbps 23318 kbps 00:04:49.289 20488 kbps 00:08:39.519 20229 kbps 00:08:12.366 94063 bytes 508485 bytes 00:08:23.252
2 0:10:42.600 0:11:32.733 15307 kbps 24483 kbps 00:18:17.012 20825 kbps 00:18:13.050 20308 kbps 00:18:08.045 79804 bytes 502489 bytes 00:11:56.257
3 0:22:15.334 0:08:02.648 15949 kbps 22729 kbps 00:27:09.169 20296 kbps 00:29:24.804 20153 kbps 00:26:58.199 83152 bytes 509854 bytes 00:25:02.876
4 0:30:17.982 0:04:53.167 12900 kbps 23742 kbps 00:35:10.024 20359 kbps 00:30:34.457 20136 kbps 00:30:25.865 67253 bytes 367276 bytes 00:30:37.710
5 0:35:11.150 0:13:08.412 15897 kbps 21847 kbps 00:37:15.816 20398 kbps 00:45:39.153 20118 kbps 00:45:34.481 82880 bytes 436347 bytes 00:45:09.039
6 0:48:19.563 0:04:47.912 16604 kbps 22930 kbps 00:50:30.569 20383 kbps 00:50:28.942 20091 kbps 00:49:39.226 86578 bytes 513541 bytes 00:50:32.279

STREAM DIAGNOSTICS:

File PID Type Codec Language Seconds Bitrate Bytes Packets
---- --- ---- ----- -------- -------------- -------------- ------------- -----
00011.M2TS 4113 (0x1011) 0x1B AVC 3187,393 15998 6373974832 34686830
00011.M2TS 4352 (0x1100) 0x86 DTS-HD MA eng (English) 3187,393 1765 703075128 4296899
00011.M2TS 4353 (0x1101) 0x86 DTS-HD MA eng (English) 3187,393 2311 920605816 5496404
<---- END DETAILS PASTE ---->

********************
PLAYLIST: 00007.MPLS
********************

<--- BEGIN SUMMARY PASTE --->
Total Video
Title Codec Length Movie Size Disc Size Bitrate Bitrate Main Audio Track Secondary Audio Track
----- ------ ------- -------------- -------------- ------- ------- ------------------ ---------------------
00007.MPLS AVC 0:52:29 8456607744 87423130050 21,48 16,00 DTS-HD Master 5.1 2299Kbps (48kHz/16-bit) DTS-HD Master 2.0 1766Kbps (48kHz/16-bit)
<---- END SUMMARY PASTE ---->

<--- BEGIN DETAILS PASTE --->
DISC INFO:

Disc Title: CONQUEST_OF_THE_SKIES
Disc Size: 87423130050 bytes
Protection: AACS
BD-Java: No
BDInfo: 0.5.1

PLAYLIST REPORT:

Name: 00007.MPLS
Size: 8456607744 bytes
Length: 0:52:29 (h:m:s)
Total Bitrate: 21,48 Mbps
Description:

VIDEO:

Codec Bitrate Description
----- ------- -----------
MPEG-4 AVC Video 15999 kbps 1080p / 23,976 fps / 16:9 / High Profile 4.1

AUDIO:

Codec Language Bitrate Description
----- -------- ------- -----------
DTS-HD Master Audio English 2299 kbps 5.1 / 48 kHz / 2299 kbps / 16-bit (DTS Core: 5.1 / 48 kHz / 1509 kbps / 16-bit)
DTS-HD Master Audio English 1766 kbps 2.0 / 48 kHz / 1766 kbps / 16-bit (DTS Core: 2.0 / 48 kHz / 1509 kbps / 16-bit)

FILES:

Name Time In Length Size Total Bitrate
---- ------- ------ ---- -------------
00010.M2TS 0:00:00.000 0:52:29.020 8456607744 21484

CHAPTERS:

Number Time In Length Avg Video Rate Max 1-Sec Rate Max 1-Sec Time Max 5-Sec Rate Max 5-Sec Time Max 10Sec Rate Max 10Sec Time Avg Frame Size Max Frame Size Max Frame Time
------ ------- ------ -------------- -------------- -------------- -------------- -------------- -------------- -------------- -------------- -------------- --------------
1 0:00:00.000 0:07:21.357 16762 kbps 23158 kbps 00:02:35.071 20573 kbps 00:02:31.067 20125 kbps 00:02:14.050 87382 bytes 492095 bytes 00:02:32.110
2 0:07:21.357 0:09:44.625 16602 kbps 22894 kbps 00:12:30.458 20598 kbps 00:11:45.830 20244 kbps 00:11:40.825 86556 bytes 514737 bytes 00:07:58.895
3 0:17:05.983 0:06:33.101 13326 kbps 23450 kbps 00:23:33.912 20302 kbps 00:20:10.709 20104 kbps 00:20:05.829 69476 bytes 472900 bytes 00:22:20.672
4 0:23:39.084 0:10:34.592 16815 kbps 23385 kbps 00:32:49.258 20551 kbps 00:23:50.428 20218 kbps 00:23:45.424 87664 bytes 514002 bytes 00:23:51.680
5 0:34:13.676 0:10:34.842 16423 kbps 22016 kbps 00:41:14.471 20362 kbps 00:40:54.785 20170 kbps 00:40:54.785 85623 bytes 479832 bytes 00:41:10.718
6 0:44:48.519 0:07:40.501 15074 kbps 23135 kbps 00:49:06.109 20526 kbps 00:49:02.230 20204 kbps 00:48:57.100 78596 bytes 540777 bytes 00:46:47.596

STREAM DIAGNOSTICS:

File PID Type Codec Language Seconds Bitrate Bytes Packets
---- --- ---- ----- -------- -------------- -------------- ------------- -----
00010.M2TS 4113 (0x1011) 0x1B AVC 3148,937 15999 6297607477 34271279
00010.M2TS 4352 (0x1100) 0x86 DTS-HD MA eng (English) 3148,937 1767 695340884 4263016
00010.M2TS 4353 (0x1101) 0x86 DTS-HD MA eng (English) 3148,937 2299 904782720 5405040
<---- END DETAILS PASTE ---->

********************
PLAYLIST: 00011.MPLS
********************

<--- BEGIN SUMMARY PASTE --->
Total Video
Title Codec Length Movie Size Disc Size Bitrate Bitrate Main Audio Track Secondary Audio Track
----- ------ ------- -------------- -------------- ------- ------- ------------------ ---------------------
00011.MPLS AVC 0:52:29 8456607744 87423130050 21,48 16,00 DTS-HD Master 5.1 2299Kbps (48kHz/16-bit) DTS-HD Master 2.0 1766Kbps (48kHz/16-bit)
<---- END SUMMARY PASTE ---->

<--- BEGIN DETAILS PASTE --->
DISC INFO:

Disc Title: CONQUEST_OF_THE_SKIES
Disc Size: 87423130050 bytes
Protection: AACS
BD-Java: No
BDInfo: 0.5.1

PLAYLIST REPORT:

Name: 00011.MPLS
Size: 8456607744 bytes
Length: 0:52:29 (h:m:s)
Total Bitrate: 21,48 Mbps
Description:

VIDEO:

Codec Bitrate Description
----- ------- -----------
MPEG-4 AVC Video 15999 kbps 1080p / 23,976 fps / 16:9 / High Profile 4.1

AUDIO:

Codec Language Bitrate Description
----- -------- ------- -----------
DTS-HD Master Audio English 2299 kbps 5.1 / 48 kHz / 2299 kbps / 16-bit (DTS Core: 5.1 / 48 kHz / 1509 kbps / 16-bit)
DTS-HD Master Audio English 1766 kbps 2.0 / 48 kHz / 1766 kbps / 16-bit (DTS Core: 2.0 / 48 kHz / 1509 kbps / 16-bit)

FILES:

Name Time In Length Size Total Bitrate
---- ------- ------ ---- -------------
00010.M2TS 0:00:00.000 0:52:29.020 8456607744 21484

CHAPTERS:

Number Time In Length Avg Video Rate Max 1-Sec Rate Max 1-Sec Time Max 5-Sec Rate Max 5-Sec Time Max 10Sec Rate Max 10Sec Time Avg Frame Size Max Frame Size Max Frame Time
------ ------- ------ -------------- -------------- -------------- -------------- -------------- -------------- -------------- -------------- -------------- --------------
1 0:00:00.000 0:07:21.357 16762 kbps 23158 kbps 00:02:35.071 20573 kbps 00:02:31.067 20125 kbps 00:02:14.050 87382 bytes 492095 bytes 00:02:32.110
2 0:07:21.357 0:09:44.625 16602 kbps 22894 kbps 00:12:30.458 20598 kbps 00:11:45.830 20244 kbps 00:11:40.825 86556 bytes 514737 bytes 00:07:58.895
3 0:17:05.983 0:06:33.101 13326 kbps 23450 kbps 00:23:33.912 20302 kbps 00:20:10.709 20104 kbps 00:20:05.829 69476 bytes 472900 bytes 00:22:20.672
4 0:23:39.084 0:10:34.592 16815 kbps 23385 kbps 00:32:49.258 20551 kbps 00:23:50.428 20218 kbps 00:23:45.424 87664 bytes 514002 bytes 00:23:51.680
5 0:34:13.676 0:10:34.842 16423 kbps 22016 kbps 00:41:14.471 20362 kbps 00:40:54.785 20170 kbps 00:40:54.785 85623 bytes 479832 bytes 00:41:10.718
6 0:44:48.519 0:07:40.501 15074 kbps 23135 kbps 00:49:06.109 20526 kbps 00:49:02.230 20204 kbps 00:48:57.100 78596 bytes 540777 bytes 00:46:47.596

STREAM DIAGNOSTICS:

File PID Type Codec Language Seconds Bitrate Bytes Packets
---- --- ---- ----- -------- -------------- -------------- ------------- -----
00010.M2TS 4113 (0x1011) 0x1B AVC 3148,937 15999 6297607477 34271279
00010.M2TS 4352 (0x1100) 0x86 DTS-HD MA eng (English) 3148,937 1767 695340884 4263016
00010.M2TS 4353 (0x1101) 0x86 DTS-HD MA eng (English) 3148,937 2299 904782720 5405040
<---- END DETAILS PASTE ---->

 ·  , , FAQ-
:  [ 28--2016 21:00 ]

  

.torrent

.torrent 54 KB


: 42.79 GB
(hash) : 9392847e1ede69f8ce1d2e8d7313b6d429d1be2e
:
··
...

David Attenboroughs Conquest of the Skies . !

!