Скачать через торрент Пандора в малиновой оболочке Koukaku no Pandora бесплатно Аниме Все серии на русском torrent

Если у вас наблюдаются проблемы со скриншотами, переходом по ссылками, скачиванием торрентов - проблемы в блокировщике рекламы AdBlock. #хорошегоДня!


Статистика раздачи
Размер:  4.94 GB   |    Зарегистрирован:  1 год 2 месяца   |    .torrent скачан:  77 раз   |   
Раздают:  1  
   
Загрузка...
 
Автор Сообщение

Galfimbul

avatar Galfimbul


Koukaku no Pandora / Пандора в малиновой оболочке
Страна: Япония
Год выпуска: 2016 г.
Тип: TV
Жанр: Приключения, комедия, фантастика, этти
Продолжительность: 12 эп. по 25 мин
Русские субтитры: T_T subs
Переводчик/Оформление: alkopone
Редактор: Rhododendron
Режиссер: Нава Мунэнори

Студия: &

Описание: Будущее кажется нам необозримо великим и светлым. Но, что, если все прогнозы медиков и биологов сбудутся и про это снимут аниме? Сюжет его будет, наверное, таким. Шестнадцатилетняя Нэнэ Нанакороби участвует в программе по замене человеческих органов механическими частями . Ее тело успешно проходит адаптацию и вскоре практически все части тела Нэнэ оказываются заменены на стальные. Из-за этого, часто возникает впечатление, будто девушка уже сделана андроидом, а не была с рождения человеком.

Тем не менее, данные жертвы были вполне оправданы, так как вскоре произойдет страшная катастрофа, которая сметет с планеты все жизни родного городка Нэнэ — Ценанкаль. Чтобы подготовить усовершенствованных солдатов, предотвратящих эту напасть, доктор Дэлайла Юзар и ее помощница — Кларион, подыскивают кандидатов, сумеющих успешно прижиться в новом теле и оказать помощь. Но не так-то все просто, вскоре Нэнэ понимает, что одной из этой операции не выйти никак, поэтому доктор воссоединяет ее с Кларион телами.

Качество: HDTVRip | Равка: Leopard-Raws Формат: mp4 | Тип Видео: без хардсаба
Видео: х264, 8 bits, 1280x720, 2174 kbps, 23.976 fps, (16:9)
JP - AAC, 192 kbps, 48.0 KHz, 2 ch Язык Японский
01. Adepter
02. Geofront
03. Terrarium
04. Kitchen Drudge
05. System Down
06. Central Nervous Unit
07. Puppeteer
08. Inferno
09. Assault
10. Fear
11. Ghost Urn
12. Elpis
Общее
Полное имя : D:\[Leopard-Raws]\[Leopard-Raws] Koukaku no Pandora\[Leopard-Raws] Koukaku no Pandora - 01 RAW (ATX 1280x720 x264 AAC).mp4
Формат : MPEG-4
Профиль формата : Base Media
Идентификатор кодека : isom
Размер файла : 415 Мбайт
Продолжительность : 24 м.
Режим общего битрейта : Переменный
Общий поток : 2370 Кбит/сек
Дата кодирования : UTC 2016-01-08 19:34:27
Дата пометки : UTC 2016-01-08 19:34:27

Видео
Идентификатор : 1
Формат : AVC
Формат/Информация : Advanced Video Codec
Профиль формата : High@L4.1
Параметр CABAC формата : Да
Параметр ReFrames формата : 4 кадра
Идентификатор кодека : avc1
Идентификатор кодека/Информация : Advanced Video Coding
Продолжительность : 24 м.
Битрейт : 2174 Кбит/сек
Максимальный битрейт : 10,9 Мбит/сек
Ширина : 1280 пикселей
Высота : 720 пикселей
Соотношение сторон : 16:9
Режим частоты кадров : Постоянный
Частота кадров : 23,976 кадра/сек
Цветовое пространство : YUV
Субдискретизация насыщенности : 4:2:0
Битовая глубина : 8 бит
Тип развёртки : Прогрессивная
Бит/(Пиксели*Кадры) : 0.098
Размер потока : 381 Мбайт (92%)
Заголовок : 264:fps=23.976@GPAC0.5.1-DEV-rev4929
Библиотека кодирования : x264 core 129 r2245+729M 1a52e03
Настройки программы : cabac=1 / ref=4 / deblock=1:1:-1 / analyse=0x3:0x113 / me=umh / subme=9 / psy=1 / fade_compensate=0.00 / psy_rd=1.00:0.00 / mixed_ref=1 / me_range=24 / chroma_me=1 / trellis=2 / 8x8dct=1 / cqm=0 / deadzone=21,11 / fast_pskip=1 / chroma_qp_offset=-2 / threads=8 / lookahead_threads=1 / sliced_threads=0 / nr=0 / decimate=1 / interlaced=0 / bluray_compat=0 / constrained_intra=0 / fgo=0 / bframes=9 / b_pyramid=2 / b_adapt=2 / b_bias=0 / direct=1 / weightb=1 / open_gop=0 / weightp=2 / keyint=240 / keyint_min=24 / scenecut=40 / intra_refresh=0 / rc=crf / mbtree=0 / crf=18.5 / qcomp=0.72 / qpmin=0 / qpmax=69 / qpstep=4 / ip_ratio=1.40 / pb_ratio=1.30 / aq=1:0.85
Дата кодирования : UTC 2016-01-08 19:34:27
Дата пометки : UTC 2016-01-08 19:34:31
Основные цвета : BT.709
Характеристики трансфера : BT.709
Коэффициенты матрицы : BT.709

Аудио
Идентификатор : 2
Формат : AAC
Формат/Информация : Advanced Audio Codec
Профиль формата : LC
Идентификатор кодека : 40
Продолжительность : 24 м.
Вид битрейта : Переменный
Битрейт : 192 Кбит/сек
Максимальный битрейт : 232 Кбит/сек
Каналы : 2 канала
Расположение каналов : Front: L R
Частота : 48,0 КГц
Метод сжатия : С потерями
Размер потока : 33,5 Мбайт (8%)
Язык : Japanese
Дата кодирования : UTC 2016-01-08 16:02:16
Дата пометки : UTC 2016-01-08 19:34:31


Обновите торент файл, добавлены 6-12я серии

Трекер:  [ 28-Июн-2016 17:00 ]

  

Скачать .torrent

Размер .torrent файла 15 KB


Размер: 4.94 GB
Хэш (hash) релиза: c73adae511d68452f37c88e54f5e70a0a263d053
Подписка на обновления:

Торренты, похожие на Пандора в малиновой оболочке Koukaku no Pandora скачать торрент

Форум Название Автор Размер S L Добавлен
Аниме | HD Rips ·· Koukaku no Pandora / Пандора в малиновой оболочке (Нава Мунэнори) [TV] [1 из 12] [Без хардсаба] [JAP+SUB] [2016 г., приключения, комедия, фантастика, этти HDTVRip] [720p] Galfimbul 435467238415 MB 0 0 1452421993

13:33

10-Янв-16

Еще никто не оставлял запись к записи скачать торрент Пандора в малиновой оболочке Koukaku no Pandora . Будь первым!

!Обратная связь