Скачать через торрент музыку Обитель зла Resident Evil бесплатно без регистрации torrent

Если у вас наблюдаются проблемы со скриншотами, переходом по ссылками, скачиванием торрентов - проблемы в блокировщике рекламы AdBlock. #хорошегоДня!


Статистика раздачи
Размер:  695 MB   |    Зарегистрирован:  1 год 2 месяца   |    .torrent скачан:  62 раза   |   
Раздают:  1  
   
Загрузка...
 
Автор Сообщение

Galfimbul

avatar Galfimbul


Обитель зла / Resident Evil
[Expanded Original Motion Picture Score]

Композиторы: Marco Beltrami / Jeff Danna / Elia Cmiral / Charlie Clouser
Жанр: Score
Год выпуска диска: 2011
Страна: Австралия
Издатель: Addicted Artists Association
Номер по каталогу: ALICE-CD20022007

Формат: FLAC
Тип рипа: tracks

Продолжительность: 01:29:52

Источник: собственный рип
Наличие сканов в содержимом раздачи: да
01. Marco Beltrami - Prologue & Main Title (00:02:10)
02. Marco Beltrami - Alice Awakens (00:00:26)
03. Marco Beltrami - Special Squad Enters The Mansion (00:02:04)
04. Marco Beltrami - The Train (00:00:27)
05. Marco Beltrami - Underground Station (00:01:04)
06. Marco Beltrami - Revealing The Hive (00:01:42)
07. Marco Beltrami - Secret Lab Discovery (00:02:34)
08. Marco Beltrami - The Corridor - Hacking In (00:02:21)
09. Marco Beltrami - Defense Mechanism (00:01:45)
10. Marco Beltrami - Red Queen Hologram (00:02:29)
11. Marco Beltrami - Undead Shootout (00:04:32)
12. Marco Beltrami - Licker is Loose (00:00:41)
13. Marco Beltrami - Mutant Dogs (00:01:23)
14. Marco Beltrami - Alice Kicks Ass (00:01:58)
15. Marco Beltrami - Sister Lisa Attacks (00:00:45)
16. Marco Beltrami - Lisa Recall (00:00:20)
17. Marco Beltrami - Matt and Alice Talk (00:01:27)
18. Marco Beltrami - Closing The Door (00:00:21)
19. Marco Beltrami - Alice's Reboot Plan (00:01:34)
20. Marco Beltrami - Attacked in The Tunnels (00:02:44)
21. Marco Beltrami - Spence The Saboteur (00:01:06)
22. Marco Beltrami - Licker On The Train (00:01:54)
23. Marco Beltrami - Matt Taken Away (00:02:41)
24. Marco Beltrami - Raccoon City Hospital (00:04:26)
25. Marco Beltrami - Theme from Resident Evil (00:02:54)
26. Jeff Danna - My Name is Alice (00:02:14)
27. Jeff Danna - Alice Battles The Nemesis (00:03:05)
28. Elia Cmiral - Rescue (00:02:23)
29. Elia Cmiral - Deadly Combat (00:02:18)
30. Elia Cmiral - Leaving The City (00:02:20)
31. Elia Cmiral - No Way Out (00:03:25)
32. Elia Cmiral - Two Wheels Hero (00:01:22)
33. Elia Cmiral - Prey For Me (00:02:57)
34. Elia Cmiral - Run For Your Life (00:01:35)
35. Jeff Danna - Searching For Alice (00:02:44)
36. Jeff Danna - Beneath The City (00:02:18)
37. Charlie Clouser - Clone Awake (00:00:45)
38. Charlie Clouser - Alice Ride (00:00:56)
39. Charlie Clouser - To The Hive (00:00:39)
40. Charlie Clouser - Perimeter Fire (00:02:53)
41. Charlie Clouser - Telepathic Sense (00:00:36)
42. Charlie Clouser - For Alaska (00:02:46)
43. Charlie Clouser - Clone Bubble (00:01:22)
44. Charlie Clouser - Laser Tunnel (00:00:33)
45. Charlie Clouser - New Headquarters (00:00:50)
46. Charlie Clouser - Vegas Journal (00:00:41)
47. Charlie Clouser - Desert Walk (00:01:09)
48. Charlie Clouser - Flysolated (00:00:54)
49. Charlie Clouser - Geared Up (00:00:40)
50. Charlie Clouser - Quad Bike (00:00:38)
51. Charlie Clouser - Campfire (00:00:57)
52. Charlie Clouser - Carlos Plan (00:01:04)
Exact Audio Copy V1.0 beta 3 from 29. August 2011

Отчёт EAC об извлечении, выполненном 6. октября 2012, 18:37

Marco Beltrami & Elia Cmiral / Resident Evil

Дисковод: ASUS SBW-06C1S-U Adapter: 9 ID: 0

Режим чтения : ДостоверностьИспользование точного потока : ДаОтключение кэша аудио : НетИспользование указателей C2 : Да

Коррекция смещения при чтении : 48Способность читать области Lead-in и Lead-out : НетЗаполнение пропущенных сэмплов тишиной : ДаУдаление блоков с тишиной в начале и конце : НетПри вычислениях CRC использовались нулевые сэмплы : ДаИнтерфейс : Встроенный Win32-интерфейс для Win NT/2000Обработка зазоров : Не обнаружено, добавлено к предыдущему треку

Выходной формат : Пользовательский кодировщикВыбранный битрейт : 1024 kBit/sКачество : ВысокийДобавление ID3-тега : НетУтилита сжатия : C:\Program Files (x86)\FLAC\flac.exeДополнительные параметры : -6 -V %source% -o %dest%

TOC извлечённого CD

Трек | Старт | Длительность | Начальный сектор | Конечный сектор --------------------------------------------------------------------- 1 | 0:00.00 | 2:10.20 | 0 | 9769 2 | 2:10.20 | 0:26.26 | 9770 | 11745 3 | 2:36.46 | 2:03.72 | 11746 | 21042 4 | 4:40.43 | 0:27.16 | 21043 | 23083 5 | 5:07.59 | 1:03.70 | 23084 | 27878 6 | 6:11.54 | 1:42.20 | 27879 | 35548 7 | 7:53.74 | 2:34.20 | 35549 | 47118 8 | 10:28.19 | 2:21.16 | 47119 | 57709 9 | 12:49.35 | 1:45.16 | 57710 | 65600 10 | 14:34.51 | 2:29.10 | 65601 | 76785 11 | 17:03.61 | 4:32.22 | 76786 | 97207 12 | 21:36.08 | 0:40.67 | 97208 | 100274 13 | 22:17.00 | 1:23.11 | 100275 | 106510 14 | 23:40.11 | 1:57.63 | 106511 | 115348 15 | 25:37.74 | 0:44.56 | 115349 | 118704 16 | 26:22.55 | 0:19.53 | 118705 | 120182 17 | 26:42.33 | 1:26.39 | 120183 | 126671 18 | 28:08.72 | 0:21.24 | 126672 | 128270 19 | 28:30.21 | 1:34.24 | 128271 | 135344 20 | 30:04.45 | 2:44.25 | 135345 | 147669 21 | 32:48.70 | 1:05.60 | 147670 | 152604 22 | 33:54.55 | 1:53.62 | 152605 | 161141 23 | 35:48.42 | 2:40.53 | 161142 | 173194 24 | 38:29.20 | 4:26.04 | 173195 | 193148 25 | 42:55.24 | 2:54.26 | 193149 | 206224 26 | 45:49.50 | 2:13.52 | 206225 | 216251 27 | 48:03.27 | 3:05.21 | 216252 | 230147 28 | 51:08.48 | 2:22.56 | 230148 | 240853 29 | 53:31.29 | 2:18.29 | 240854 | 251232 30 | 55:49.58 | 2:20.24 | 251233 | 261756 31 | 58:10.07 | 3:24.52 | 261757 | 277108 32 | 61:34.59 | 1:22.34 | 277109 | 283292 33 | 62:57.18 | 2:57.27 | 283293 | 296594 34 | 65:54.45 | 1:34.44 | 296595 | 303688 35 | 67:29.14 | 2:43.42 | 303689 | 315955 36 | 70:12.56 | 2:18.14 | 315956 | 326319 37 | 72:30.70 | 0:45.16 | 326320 | 329710 38 | 73:16.11 | 0:55.63 | 329711 | 333898 39 | 74:11.74 | 0:39.04 | 333899 | 336827 40 | 74:51.03 | 2:53.10 | 336828 | 349812 41 | 77:44.13 | 0:36.10 | 349813 | 352522 42 | 78:20.23 | 2:46.26 | 352523 | 364998 43 | 81:06.49 | 1:21.59 | 364999 | 371132 44 | 82:28.33 | 0:32.60 | 371133 | 373592 45 | 83:01.18 | 0:50.33 | 373593 | 377375 46 | 83:51.51 | 0:41.09 | 377376 | 380459 47 | 84:32.60 | 1:08.62 | 380460 | 385621 48 | 85:41.47 | 0:54.00 | 385622 | 389671 49 | 86:35.47 | 0:40.26 | 389672 | 392697 50 | 87:15.73 | 0:37.46 | 392698 | 395518 51 | 87:53.44 | 0:56.39 | 395519 | 399757 52 | 88:50.08 | 1:04.12 | 399758 | 404569

Трек 1

Имя файла D:\Music\Scores & Soundtracks\Unofficial Film Scores & Soundtracks\Resident Evil [Expanded Original Motion Picture Score]\01. Prologue & Main Title.wav

Пиковый уровень 100.0 % Скорость извлечения 4.4 X Качество трека 100.0 % CRC копии BD7F1DF7 Точное извлечение (достоверность 1) [02C14C63] (AR v1) Копирование... OK

Трек 2

Имя файла D:\Music\Scores & Soundtracks\Unofficial Film Scores & Soundtracks\Resident Evil [Expanded Original Motion Picture Score]\02. Alice Awakens.wav

Пиковый уровень 60.6 % Скорость извлечения 4.6 X Качество трека 100.0 % CRC копии 725E4122 Точное извлечение (достоверность 1) [E29F656A] (AR v1) Копирование... OK

Трек 3

Имя файла D:\Music\Scores & Soundtracks\Unofficial Film Scores & Soundtracks\Resident Evil [Expanded Original Motion Picture Score]\03. Special Squad Enters The Mansion.wav

Пиковый уровень 70.7 % Скорость извлечения 4.7 X Качество трека 99.8 % CRC копии 7F58DAE4 Точное извлечение (достоверность 1) [87151705] (AR v1) Копирование... OK

Трек 4

Имя файла D:\Music\Scores & Soundtracks\Unofficial Film Scores & Soundtracks\Resident Evil [Expanded Original Motion Picture Score]\04. The Train.wav

Пиковый уровень 100.0 % Скорость извлечения 4.8 X Качество трека 100.0 % CRC копии 5E0BC4C4 Точное извлечение (достоверность 1) [97DB5645] (AR v1) Копирование... OK

Трек 5

Имя файла D:\Music\Scores & Soundtracks\Unofficial Film Scores & Soundtracks\Resident Evil [Expanded Original Motion Picture Score]\05. Underground Station.wav

Пиковый уровень 100.0 % Скорость извлечения 4.9 X Качество трека 100.0 % CRC копии A7E9FDA2 Точное извлечение (достоверность 1) [571C025A] (AR v1) Копирование... OK

Трек 6

Имя файла D:\Music\Scores & Soundtracks\Unofficial Film Scores & Soundtracks\Resident Evil [Expanded Original Motion Picture Score]\06. Revealing The Hive.wav

Пиковый уровень 98.9 % Скорость извлечения 5.0 X Качество трека 100.0 % CRC копии 3A887AA0 Точное извлечение (достоверность 1) [135E3B7E] (AR v1) Копирование... OK

Трек 7

Имя файла D:\Music\Scores & Soundtracks\Unofficial Film Scores & Soundtracks\Resident Evil [Expanded Original Motion Picture Score]\07. Secret Lab Discovery.wav

Пиковый уровень 100.0 % Скорость извлечения 5.2 X Качество трека 100.0 % CRC копии 32A8CAC7 Точное извлечение (достоверность 1) [C7A41452] (AR v1) Копирование... OK

Трек 8

Имя файла D:\Music\Scores & Soundtracks\Unofficial Film Scores & Soundtracks\Resident Evil [Expanded Original Motion Picture Score]\08. The Corridor - Hacking In.wav

Пиковый уровень 100.0 % Скорость извлечения 5.5 X Качество трека 100.0 % CRC копии B5DE4DA8 Точное извлечение (достоверность 1) [D4AE044C] (AR v1) Копирование... OK

Трек 9

Имя файла D:\Music\Scores & Soundtracks\Unofficial Film Scores & Soundtracks\Resident Evil [Expanded Original Motion Picture Score]\09. Defense Mechanism.wav

Пиковый уровень 71.5 % Скорость извлечения 5.6 X Качество трека 100.0 % CRC копии 0F0DFB9B Точное извлечение (достоверность 1) [7DCEB70A] (AR v1) Копирование... OK

Трек 10

Имя файла D:\Music\Scores & Soundtracks\Unofficial Film Scores & Soundtracks\Resident Evil [Expanded Original Motion Picture Score]\10. Red Queen Hologram.wav

Пиковый уровень 100.0 % Скорость извлечения 5.8 X Качество трека 99.8 % CRC копии 316DD177 Точное извлечение (достоверность 1) [5D292F4E] (AR v1) Копирование... OK

Трек 11

Имя файла D:\Music\Scores & Soundtracks\Unofficial Film Scores & Soundtracks\Resident Evil [Expanded Original Motion Picture Score]\11. Undead Shootout.wav

Пиковый уровень 70.9 % Скорость извлечения 6.1 X Качество трека 100.0 % CRC копии 66FCE388 Точное извлечение (достоверность 1) [818A540E] (AR v1) Копирование... OK

Трек 12

Имя файла D:\Music\Scores & Soundtracks\Unofficial Film Scores & Soundtracks\Resident Evil [Expanded Original Motion Picture Score]\12. Licker is Loose.wav

Пиковый уровень 100.0 % Скорость извлечения 6.3 X Качество трека 100.0 % CRC копии 9CFBE287 Точное извлечение (достоверность 1) [E02957E8] (AR v1) Копирование... OK

Трек 13

Имя файла D:\Music\Scores & Soundtracks\Unofficial Film Scores & Soundtracks\Resident Evil [Expanded Original Motion Picture Score]\13. Mutant Dogs.wav

Пиковый уровень 100.0 % Скорость извлечения 6.4 X Качество трека 100.0 % CRC копии 339C0A47 Точное извлечение (достоверность 1) [9AF24946] (AR v1) Копирование... OK

Трек 14

Имя файла D:\Music\Scores & Soundtracks\Unofficial Film Scores & Soundtracks\Resident Evil [Expanded Original Motion Picture Score]\14. Alice Kicks Ass.wav

Пиковый уровень 100.0 % Скорость извлечения 6.5 X Качество трека 100.0 % CRC копии 32FF577B Точное извлечение (достоверность 1) [AD2077D7] (AR v1) Копирование... OK

Трек 15

Имя файла D:\Music\Scores & Soundtracks\Unofficial Film Scores & Soundtracks\Resident Evil [Expanded Original Motion Picture Score]\15. Sister Lisa Attacks.wav

Пиковый уровень 98.8 % Скорость извлечения 6.6 X Качество трека 100.0 % CRC копии 7EB30A79 Точное извлечение (достоверность 1) [1A65A5C9] (AR v1) Копирование... OK

Трек 16

Имя файла D:\Music\Scores & Soundtracks\Unofficial Film Scores & Soundtracks\Resident Evil [Expanded Original Motion Picture Score]\16. Lisa Recall.wav

Пиковый уровень 42.3 % Скорость извлечения 6.6 X Качество трека 100.0 % CRC копии B19298F8 Точное извлечение (достоверность 1) [7D2E1F6D] (AR v1) Копирование... OK

Трек 17

Имя файла D:\Music\Scores & Soundtracks\Unofficial Film Scores & Soundtracks\Resident Evil [Expanded Original Motion Picture Score]\17. Matt and Alice Talk.wav

Пиковый уровень 17.1 % Скорость извлечения 6.7 X Качество трека 100.0 % CRC копии DA4FCBC8 Точное извлечение (достоверность 1) [E1BE7DEB] (AR v1) Копирование... OK

Трек 18

Имя файла D:\Music\Scores & Soundtracks\Unofficial Film Scores & Soundtracks\Resident Evil [Expanded Original Motion Picture Score]\18. Closing The Door.wav

Пиковый уровень 100.0 % Скорость извлечения 6.6 X Качество трека 99.0 % CRC копии 614188F5 Точное извлечение (достоверность 1) [11565623] (AR v1) Копирование... OK

Трек 19

Имя файла D:\Music\Scores & Soundtracks\Unofficial Film Scores & Soundtracks\Resident Evil [Expanded Original Motion Picture Score]\19. Alice's Reboot Plan.wav

Пиковый уровень 100.0 % Скорость извлечения 6.8 X Качество трека 99.7 % CRC копии 8443F156 Точное извлечение (достоверность 1) [E5764F87] (AR v1) Копирование... OK

Трек 20

Имя файла D:\Music\Scores & Soundtracks\Unofficial Film Scores & Soundtracks\Resident Evil [Expanded Original Motion Picture Score]\20. Attacked in The Tunnels.wav

Пиковый уровень 70.7 % Скорость извлечения 7.0 X Качество трека 100.0 % CRC копии 42829161 Точное извлечение (достоверность 1) [22E45E6C] (AR v1) Копирование... OK

Трек 21

Имя файла D:\Music\Scores & Soundtracks\Unofficial Film Scores & Soundtracks\Resident Evil [Expanded Original Motion Picture Score]\21. Spence The Saboteur.wav

Пиковый уровень 98.8 % Скорость извлечения 7.1 X Качество трека 100.0 % CRC копии 1FD7CAFE Точное извлечение (достоверность 1) [E0088EA2] (AR v1) Копирование... OK

Трек 22

Имя файла D:\Music\Scores & Soundtracks\Unofficial Film Scores & Soundtracks\Resident Evil [Expanded Original Motion Picture Score]\22. Licker On The Train.wav

Пиковый уровень 100.0 % Скорость извлечения 7.2 X Качество трека 100.0 % CRC копии DBF6D242 Точное извлечение (достоверность 1) [D0132DD5] (AR v1) Копирование... OK

Трек 23

Имя файла D:\Music\Scores & Soundtracks\Unofficial Film Scores & Soundtracks\Resident Evil [Expanded Original Motion Picture Score]\23. Matt Taken Away.wav

Пиковый уровень 98.9 % Скорость извлечения 7.4 X Качество трека 100.0 % CRC копии BB9E8075 Точное извлечение (достоверность 1) [61F9167A] (AR v1) Копирование... OK

Трек 24

Имя файла D:\Music\Scores & Soundtracks\Unofficial Film Scores & Soundtracks\Resident Evil [Expanded Original Motion Picture Score]\24. Raccoon City Hospital.wav

Пиковый уровень 98.8 % Скорость извлечения 7.6 X Качество трека 100.0 % CRC копии 97F4AED7 Точное извлечение (достоверность 1) [D8E1C6C5] (AR v1) Копирование... OK

Трек 25

Имя файла D:\Music\Scores & Soundtracks\Unofficial Film Scores & Soundtracks\Resident Evil [Expanded Original Motion Picture Score]\25. Theme from Resident Evil.wav

Пиковый уровень 100.0 % Скорость извлечения 7.8 X Качество трека 100.0 % CRC копии 3B2F53E5 Точное извлечение (достоверность 1) [BC8AE073] (AR v1) Копирование... OK

Трек 26

Имя файла D:\Music\Scores & Soundtracks\Unofficial Film Scores & Soundtracks\Resident Evil [Expanded Original Motion Picture Score]\26. My Name is Alice.wav

Пиковый уровень 98.8 % Скорость извлечения 8.0 X Качество трека 100.0 % CRC копии 9A6C7083 Точное извлечение (достоверность 1) [8C1B3351] (AR v1) Копирование... OK

Трек 27

Имя файла D:\Music\Scores & Soundtracks\Unofficial Film Scores & Soundtracks\Resident Evil [Expanded Original Motion Picture Score]\27. Alice Battles The Nemesis.wav

Пиковый уровень 98.8 % Скорость извлечения 8.1 X Качество трека 100.0 % CRC копии 6A9D3E6C Точное извлечение (достоверность 1) [F0944341] (AR v1) Копирование... OK

Трек 28

Имя файла D:\Music\Scores & Soundtracks\Unofficial Film Scores & Soundtracks\Resident Evil [Expanded Original Motion Picture Score]\28. Rescue.wav

Пиковый уровень 68.4 % Скорость извлечения 8.3 X Качество трека 99.8 % CRC копии 712A5B52 Точное извлечение (достоверность 1) [D4937F6B] (AR v1) Копирование... OK

Трек 29

Имя файла D:\Music\Scores & Soundtracks\Unofficial Film Scores & Soundtracks\Resident Evil [Expanded Original Motion Picture Score]\29. Deadly Combat.wav

Пиковый уровень 69.9 % Скорость извлечения 8.4 X Качество трека 100.0 % CRC копии 9D1557DD Точное извлечение (достоверность 1) [4492394A] (AR v1) Копирование... OK

Трек 30

Имя файла D:\Music\Scores & Soundtracks\Unofficial Film Scores & Soundtracks\Resident Evil [Expanded Original Motion Picture Score]\30. Leaving The City.wav

Пиковый уровень 70.9 % Скорость извлечения 8.5 X Качество трека 100.0 % CRC копии AA307446 Точное извлечение (достоверность 1) [9EDA32CE] (AR v1) Копирование... OK

Трек 31

Имя файла D:\Music\Scores & Soundtracks\Unofficial Film Scores & Soundtracks\Resident Evil [Expanded Original Motion Picture Score]\31. No Way Out.wav

Пиковый уровень 70.7 % Скорость извлечения 8.7 X Качество трека 100.0 % CRC копии E17F8878 Точное извлечение (достоверность 1) [543BD285] (AR v1) Копирование... OK

Трек 32

Имя файла D:\Music\Scores & Soundtracks\Unofficial Film Scores & Soundtracks\Resident Evil [Expanded Original Motion Picture Score]\32. Two Wheels Hero.wav

Пиковый уровень 66.8 % Скорость извлечения 8.8 X Качество трека 100.0 % CRC копии F3E84EF9 Точное извлечение (достоверность 1) [5C182644] (AR v1) Копирование... OK

Трек 33

Имя файла D:\Music\Scores & Soundtracks\Unofficial Film Scores & Soundtracks\Resident Evil [Expanded Original Motion Picture Score]\33. Prey For Me.wav

Пиковый уровень 70.7 % Скорость извлечения 8.9 X Качество трека 100.0 % CRC копии 107C2446 Точное извлечение (достоверность 1) [8A59B65C] (AR v1) Копирование... OK

Трек 34

Имя файла D:\Music\Scores & Soundtracks\Unofficial Film Scores & Soundtracks\Resident Evil [Expanded Original Motion Picture Score]\34. Run For Your Life.wav

Пиковый уровень 68.3 % Скорость извлечения 9.0 X Качество трека 100.0 % CRC копии A9F93D00 Точное извлечение (достоверность 1) [C6207419] (AR v1) Копирование... OK

Трек 35

Имя файла D:\Music\Scores & Soundtracks\Unofficial Film Scores & Soundtracks\Resident Evil [Expanded Original Motion Picture Score]\35. Searching For Alice.wav

Пиковый уровень 97.0 % Скорость извлечения 9.2 X Качество трека 100.0 % CRC копии 61ECA503 Точное извлечение (достоверность 1) [F920F43B] (AR v1) Копирование... OK

Трек 36

Имя файла D:\Music\Scores & Soundtracks\Unofficial Film Scores & Soundtracks\Resident Evil [Expanded Original Motion Picture Score]\36. Beneath The City.wav

Пиковый уровень 98.8 % Скорость извлечения 9.3 X Качество трека 100.0 % CRC копии 98955755 Точное извлечение (достоверность 1) [CBF9FE6A] (AR v1) Копирование... OK

Трек 37

Имя файла D:\Music\Scores & Soundtracks\Unofficial Film Scores & Soundtracks\Resident Evil [Expanded Original Motion Picture Score]\37. Clone Awake.wav

Пиковый уровень 98.6 % Скорость извлечения 9.2 X Качество трека 99.5 % CRC копии 0EC3AD88 Точное извлечение (достоверность 1) [900CB292] (AR v1) Копирование... OK

Трек 38

Имя файла D:\Music\Scores & Soundtracks\Unofficial Film Scores & Soundtracks\Resident Evil [Expanded Original Motion Picture Score]\38. Alice Ride.wav

Пиковый уровень 98.7 % Скорость извлечения 9.4 X Качество трека 100.0 % CRC копии 967E4A87 Точное извлечение (достоверность 1) [68302971] (AR v1) Копирование... OK

Трек 39

Имя файла D:\Music\Scores & Soundtracks\Unofficial Film Scores & Soundtracks\Resident Evil [Expanded Original Motion Picture Score]\39. To The Hive.wav

Пиковый уровень 84.9 % Скорость извлечения 9.4 X Качество трека 100.0 % CRC копии 64FA8297 Точное извлечение (достоверность 1) [05A387E6] (AR v1) Копирование... OK

Трек 40

Имя файла D:\Music\Scores & Soundtracks\Unofficial Film Scores & Soundtracks\Resident Evil [Expanded Original Motion Picture Score]\40. Perimeter Fire.wav

Пиковый уровень 97.1 % Скорость извлечения 9.6 X Качество трека 100.0 % CRC копии CA7AAD59 Точное извлечение (достоверность 1) [D1BF7AEB] (AR v1) Копирование... OK

Трек 41

Имя файла D:\Music\Scores & Soundtracks\Unofficial Film Scores & Soundtracks\Resident Evil [Expanded Original Motion Picture Score]\41. Telepathic Sense.wav

Пиковый уровень 92.7 % Скорость извлечения 9.5 X Качество трека 100.0 % CRC копии 661D9EBE Точное извлечение (достоверность 1) [12C849D8] (AR v1) Копирование... OK

Трек 42

Имя файла D:\Music\Scores & Soundtracks\Unofficial Film Scores & Soundtracks\Resident Evil [Expanded Original Motion Picture Score]\42. For Alaska.wav

Пиковый уровень 96.7 % Скорость извлечения 9.7 X Качество трека 99.8 % CRC копии F7A52E0C Точное извлечение (достоверность 1) [37B65003] (AR v1) Копирование... OK

Трек 43

Имя файла D:\Music\Scores & Soundtracks\Unofficial Film Scores & Soundtracks\Resident Evil [Expanded Original Motion Picture Score]\43. Clone Bubble.wav

Пиковый уровень 100.0 % Скорость извлечения 9.8 X Качество трека 100.0 % CRC копии D3DA7616 Точное извлечение (достоверность 1) [AA800490] (AR v1) Копирование... OK

Трек 44

Имя файла D:\Music\Scores & Soundtracks\Unofficial Film Scores & Soundtracks\Resident Evil [Expanded Original Motion Picture Score]\44. Laser Tunnel.wav

Пиковый уровень 100.0 % Скорость извлечения 9.6 X Качество трека 99.3 % CRC копии 1EA13E53 Точное извлечение (достоверность 1) [9C4A7CF0] (AR v1) Копирование... OK

Трек 45

Имя файла D:\Music\Scores & Soundtracks\Unofficial Film Scores & Soundtracks\Resident Evil [Expanded Original Motion Picture Score]\45. New Headquarters.wav

Пиковый уровень 96.6 % Скорость извлечения 9.8 X Качество трека 100.0 % CRC копии 7689188A Точное извлечение (достоверность 1) [24878BDF] (AR v1) Копирование... OK

Трек 46

Имя файла D:\Music\Scores & Soundtracks\Unofficial Film Scores & Soundtracks\Resident Evil [Expanded Original Motion Picture Score]\46. Vegas Journal.wav

Пиковый уровень 77.2 % Скорость извлечения 9.8 X Качество трека 99.4 % CRC копии FFAD4524 Точное извлечение (достоверность 1) [929D25A1] (AR v1) Копирование... OK

Трек 47

Имя файла D:\Music\Scores & Soundtracks\Unofficial Film Scores & Soundtracks\Resident Evil [Expanded Original Motion Picture Score]\47. Desert Walk.wav

Пиковый уровень 95.2 % Скорость извлечения 9.9 X Качество трека 99.6 % CRC копии 3562FBFD Точное извлечение (достоверность 1) [E363DC4C] (AR v1) Копирование... OK

Трек 48

Имя файла D:\Music\Scores & Soundtracks\Unofficial Film Scores & Soundtracks\Resident Evil [Expanded Original Motion Picture Score]\48. Flysolated.wav

Пиковый уровень 100.0 % Скорость извлечения 10.0 X Качество трека 100.0 % CRC копии 6A32E4AD Точное извлечение (достоверность 1) [B3101B2D] (AR v1) Копирование... OK

Трек 49

Имя файла D:\Music\Scores & Soundtracks\Unofficial Film Scores & Soundtracks\Resident Evil [Expanded Original Motion Picture Score]\49. Geared Up.wav

Пиковый уровень 99.4 % Скорость извлечения 10.0 X Качество трека 100.0 % CRC копии 59A0BE2C Точное извлечение (достоверность 1) [D4A15202] (AR v1) Копирование... OK

Трек 50

Имя файла D:\Music\Scores & Soundtracks\Unofficial Film Scores & Soundtracks\Resident Evil [Expanded Original Motion Picture Score]\50. Quad Bike.wav

Пиковый уровень 100.0 % Скорость извлечения 9.9 X Качество трека 99.4 % CRC копии 1965B548 Точное извлечение (достоверность 1) [F7E2C540] (AR v1) Копирование... OK

Трек 51

Имя файла D:\Music\Scores & Soundtracks\Unofficial Film Scores & Soundtracks\Resident Evil [Expanded Original Motion Picture Score]\51. Campfire.wav

Пиковый уровень 100.0 % Скорость извлечения 10.1 X Качество трека 100.0 % CRC копии 09D5D8CD Точное извлечение (достоверность 1) [75799E6A] (AR v1) Копирование... OK

Трек 52

Имя файла D:\Music\Scores & Soundtracks\Unofficial Film Scores & Soundtracks\Resident Evil [Expanded Original Motion Picture Score]\52. Carlos Plan.wav

Пиковый уровень 90.0 % Скорость извлечения 10.2 X Качество трека 100.0 % CRC копии 00360658 Точное извлечение (достоверность 1) [3FAA41D4] (AR v1) Копирование... OK

Все треки извлечены точно

Ошибок не произошло

Конец отчёта

---- CUETools DB Plugin V2.1.3

[CTDB TOCID: Sxm7YK939zRC9S.ixrfHCZI3TUY-] disk not present in database, Submit result: Sxm7YK939zRC9S.ixrfHCZI3TUY- has been uploaded
REM GENRE SoundtrackREM DATE 2009REM DISCID 1E151234REM COMMENT "ExactAudioCopy v1.0b3"PERFORMER "Marco Beltrami & Elia Cmiral"TITLE "Resident Evil"FILE "01. Prologue & Main Title.wav" WAVE TRACK 01 AUDIO TITLE "Prologue & Main Title" PERFORMER "Marco Beltrami & Elia Cmiral" FLAGS DCP INDEX 01 00:00:00FILE "02. Alice Awakens.wav" WAVE TRACK 02 AUDIO TITLE "Alice Awakens" PERFORMER "Marco Beltrami & Elia Cmiral" FLAGS DCP INDEX 01 00:00:00FILE "03. Special Squad Enters the Mansion.wav" WAVE TRACK 03 AUDIO TITLE "Special Squad Enters the Mansion" PERFORMER "Marco Beltrami & Elia Cmiral" FLAGS DCP INDEX 01 00:00:00FILE "04. The Train.wav" WAVE TRACK 04 AUDIO TITLE "The Train" PERFORMER "Marco Beltrami & Elia Cmiral" FLAGS DCP INDEX 01 00:00:00FILE "05. Underground Station.wav" WAVE TRACK 05 AUDIO TITLE "Underground Station" PERFORMER "Marco Beltrami & Elia Cmiral" FLAGS DCP INDEX 01 00:00:00FILE "06. Revealing the Hive.wav" WAVE TRACK 06 AUDIO TITLE "Revealing the Hive" PERFORMER "Marco Beltrami & Elia Cmiral" FLAGS DCP INDEX 01 00:00:00FILE "07. Secret Lab Discovery.wav" WAVE TRACK 07 AUDIO TITLE "Secret Lab Discovery" PERFORMER "Marco Beltrami & Elia Cmiral" FLAGS DCP INDEX 01 00:00:00 TRACK 08 AUDIO TITLE "The Corridor; Hacking In" PERFORMER "Marco Beltrami & Elia Cmiral" FLAGS DCP INDEX 00 02:34:09FILE "08. The Corridor; Hacking In.wav" WAVE INDEX 01 00:00:00FILE "09. Defense Mechanism.wav" WAVE TRACK 09 AUDIO TITLE "Defense Mechanism" PERFORMER "Marco Beltrami & Elia Cmiral" FLAGS DCP INDEX 01 00:00:00FILE "10. Red Queen Hologram.wav" WAVE TRACK 10 AUDIO TITLE "Red Queen Hologram" PERFORMER "Marco Beltrami & Elia Cmiral" FLAGS DCP INDEX 01 00:00:00 TRACK 11 AUDIO TITLE "Undead Shootout" PERFORMER "Marco Beltrami & Elia Cmiral" FLAGS DCP INDEX 00 02:28:74FILE "11. Undead Shootout.wav" WAVE INDEX 01 00:00:00FILE "12. Licker Is Loose.wav" WAVE TRACK 12 AUDIO TITLE "Licker Is Loose" PERFORMER "Marco Beltrami & Elia Cmiral" FLAGS DCP INDEX 01 00:00:00 TRACK 13 AUDIO TITLE "Mutant Dogs" PERFORMER "Marco Beltrami & Elia Cmiral" FLAGS DCP INDEX 00 00:40:63FILE "13. Mutant Dogs.wav" WAVE INDEX 01 00:00:00FILE "14. Alice Kicks Ass.wav" WAVE TRACK 14 AUDIO TITLE "Alice Kicks Ass" PERFORMER "Marco Beltrami & Elia Cmiral" FLAGS DCP INDEX 01 00:00:00FILE "15. Sister Lisa Attacks.wav" WAVE TRACK 15 AUDIO TITLE "Sister Lisa Attacks" PERFORMER "Marco Beltrami & Elia Cmiral" FLAGS DCP INDEX 01 00:00:00FILE "16. Lisa Recall.wav" WAVE TRACK 16 AUDIO TITLE "Lisa Recall" PERFORMER "Marco Beltrami & Elia Cmiral" FLAGS DCP INDEX 01 00:00:00 TRACK 17 AUDIO TITLE "Matt and Alice Talk" PERFORMER "Marco Beltrami & Elia Cmiral" FLAGS DCP INDEX 00 00:19:42FILE "17. Matt and Alice Talk.wav" WAVE INDEX 01 00:00:00 TRACK 18 AUDIO TITLE "Closing the Door" PERFORMER "Marco Beltrami & Elia Cmiral" FLAGS DCP INDEX 00 01:26:28FILE "18. Closing the Door.wav" WAVE INDEX 01 00:00:00 TRACK 19 AUDIO TITLE "Alice's Reboot Plan" PERFORMER "Marco Beltrami & Elia Cmiral" FLAGS DCP INDEX 00 00:21:13FILE "19. Alice's Reboot Plan.wav" WAVE INDEX 01 00:00:00FILE "20. Attacked in the Tunnels.wav" WAVE TRACK 20 AUDIO TITLE "Attacked in the Tunnels" PERFORMER "Marco Beltrami & Elia Cmiral" FLAGS DCP INDEX 01 00:00:00 TRACK 21 AUDIO TITLE "Spence the Saboteur" PERFORMER "Marco Beltrami & Elia Cmiral" FLAGS DCP INDEX 00 02:44:14FILE "21. Spence the Saboteur.wav" WAVE INDEX 01 00:00:00FILE "22. Licker on the Train.wav" WAVE TRACK 22 AUDIO TITLE "Licker on the Train" PERFORMER "Marco Beltrami & Elia Cmiral" FLAGS DCP INDEX 01 00:00:00 TRACK 23 AUDIO TITLE "Matt Taken Away" PERFORMER "Marco Beltrami & Elia Cmiral" FLAGS DCP INDEX 00 01:53:51FILE "23. Matt Taken Away.wav" WAVE INDEX 01 00:00:00FILE "24. Raccoon City Hospital.wav" WAVE TRACK 24 AUDIO TITLE "Raccoon City Hospital" PERFORMER "Marco Beltrami & Elia Cmiral" FLAGS DCP INDEX 01 00:00:00FILE "25. Theme from Resident Evil.wav" WAVE TRACK 25 AUDIO TITLE "Theme from Resident Evil" PERFORMER "Marco Beltrami & Elia Cmiral" FLAGS DCP INDEX 01 00:00:00 TRACK 26 AUDIO TITLE "Resident Evil: Apocalypse - My Name Is Alice" PERFORMER "Marco Beltrami & Elia Cmiral" FLAGS DCP INDEX 00 02:54:15FILE "26. Resident Evil- Apocalypse - My Name Is Alice.wav" WAVE INDEX 01 00:00:00FILE "27. Resident Evil- Apocalypse - Alice Battles the Nemesis.wav" WAVE TRACK 27 AUDIO TITLE "Resident Evil: Apocalypse - Alice Battles the Nemesis" PERFORMER "Marco Beltrami & Elia Cmiral" FLAGS DCP INDEX 01 00:00:00 TRACK 28 AUDIO TITLE "Elia Cmiral - Resident Evil: Apocalypse - Rescue" PERFORMER "Marco Beltrami & Elia Cmiral" FLAGS DCP INDEX 00 03:05:10FILE "28. Elia Cmiral - Resident Evil- Apocalypse - Rescue.wav" WAVE INDEX 01 00:00:00 TRACK 29 AUDIO TITLE "Elia Cmiral - Resident Evil: Apocalypse - Deadly Combat" PERFORMER "Marco Beltrami & Elia Cmiral" FLAGS DCP INDEX 00 02:22:45FILE "29. Elia Cmiral - Resident Evil- Apocalypse - Deadly Combat.wav" WAVE INDEX 01 00:00:00FILE "30. Elia Cmiral - Resident Evil- Apocalypse - Leaving the City.wav" WAVE TRACK 30 AUDIO TITLE "Elia Cmiral - Resident Evil: Apocalypse - Leaving the City" PERFORMER "Marco Beltrami & Elia Cmiral" FLAGS DCP INDEX 01 00:00:00FILE "31. Elia Cmiral - Resident Evil- Apocalypse - No Way Out.wav" WAVE TRACK 31 AUDIO TITLE "Elia Cmiral - Resident Evil: Apocalypse - No Way Out" PERFORMER "Marco Beltrami & Elia Cmiral" FLAGS DCP INDEX 01 00:00:00FILE "32. Elia Cmiral - Resident Evil- Apocalypse - Two Wheels Hero.wav" WAVE TRACK 32 AUDIO TITLE "Elia Cmiral - Resident Evil: Apocalypse - Two Wheels Hero" PERFORMER "Marco Beltrami & Elia Cmiral" FLAGS DCP INDEX 01 00:00:00 TRACK 33 AUDIO TITLE "Elia Cmiral - Resident Evil: Apocalypse - Prey for Me" PERFORMER "Marco Beltrami & Elia Cmiral" FLAGS DCP INDEX 00 01:22:23FILE "33. Elia Cmiral - Resident Evil- Apocalypse - Prey for Me.wav" WAVE INDEX 01 00:00:00 TRACK 34 AUDIO TITLE "Elia Cmiral - Resident Evil: Apocalypse - Run For Your Life" PERFORMER "Marco Beltrami & Elia Cmiral" FLAGS DCP INDEX 00 02:57:16FILE "34. Elia Cmiral - Resident Evil- Apocalypse - Run For Your Life.wav" WAVE INDEX 01 00:00:00FILE "35. Resident Evil- Apocalypse - Searching For Alice.wav" WAVE TRACK 35 AUDIO TITLE "Resident Evil: Apocalypse - Searching For Alice" PERFORMER "Marco Beltrami & Elia Cmiral" FLAGS DCP INDEX 01 00:00:00 TRACK 36 AUDIO TITLE "Resident Evil: Apocalypse - Beneath the City" PERFORMER "Marco Beltrami & Elia Cmiral" FLAGS DCP INDEX 00 02:43:32FILE "36. Resident Evil- Apocalypse - Beneath the City.wav" WAVE INDEX 01 00:00:00 TRACK 37 AUDIO TITLE "Resident Evil: Extinction - Clone Awake" PERFORMER "Marco Beltrami & Elia Cmiral" FLAGS DCP INDEX 00 02:18:08FILE "37. Resident Evil- Extinction - Clone Awake.wav" WAVE INDEX 01 00:00:00FILE "38. Resident Evil- Extinction - Alice Ride.wav" WAVE TRACK 38 AUDIO TITLE "Resident Evil: Extinction - Alice Ride" PERFORMER "Marco Beltrami & Elia Cmiral" FLAGS DCP INDEX 01 00:00:00FILE "39. Resident Evil- Extinction - To the Hive.wav" WAVE TRACK 39 AUDIO TITLE "Resident Evil: Extinction - To the Hive" PERFORMER "Marco Beltrami & Elia Cmiral" FLAGS DCP INDEX 01 00:00:00FILE "40. Resident Evil- Extinction - Perimeter Fire.wav" WAVE TRACK 40 AUDIO TITLE "Resident Evil: Extinction - Perimeter Fire" PERFORMER "Marco Beltrami & Elia Cmiral" FLAGS DCP INDEX 01 00:00:00 TRACK 41 AUDIO TITLE "Resident Evil: Extinction - Telepathic Sense" PERFORMER "Marco Beltrami & Elia Cmiral" FLAGS DCP INDEX 00 02:52:74FILE "41. Resident Evil- Extinction - Telepathic Sense.wav" WAVE INDEX 01 00:00:00FILE "42. Resident Evil- Extinction - For Alaska.wav" WAVE TRACK 42 AUDIO TITLE "Resident Evil: Extinction - For Alaska" PERFORMER "Marco Beltrami & Elia Cmiral" FLAGS DCP INDEX 01 00:00:00FILE "43. Resident Evil- Extinction - Clone Bubble.wav" WAVE TRACK 43 AUDIO TITLE "Resident Evil: Extinction - Clone Bubble" PERFORMER "Marco Beltrami & Elia Cmiral" FLAGS DCP INDEX 01 00:00:00 TRACK 44 AUDIO TITLE "Resident Evil: Extinction - Laser Tunnel" PERFORMER "Marco Beltrami & Elia Cmiral" FLAGS DCP INDEX 00 01:21:48FILE "44. Resident Evil- Extinction - Laser Tunnel.wav" WAVE INDEX 01 00:00:00 TRACK 45 AUDIO TITLE "Resident Evil: Extinction - New Headquarters" PERFORMER "Marco Beltrami & Elia Cmiral" FLAGS DCP INDEX 00 00:32:49FILE "45. Resident Evil- Extinction - New Headquarters.wav" WAVE INDEX 01 00:00:00 TRACK 46 AUDIO TITLE "Resident Evil: Extinction - Vegas Journal" PERFORMER "Marco Beltrami & Elia Cmiral" FLAGS DCP INDEX 00 00:50:22FILE "46. Resident Evil- Extinction - Vegas Journal.wav" WAVE INDEX 01 00:00:00 TRACK 47 AUDIO TITLE "Resident Evil: Extinction - Desert Walk" PERFORMER "Marco Beltrami & Elia Cmiral" FLAGS DCP INDEX 00 00:40:73FILE "47. Resident Evil- Extinction - Desert Walk.wav" WAVE INDEX 01 00:00:00 TRACK 48 AUDIO TITLE "Resident Evil: Extinction - Flysolated" PERFORMER "Marco Beltrami & Elia Cmiral" FLAGS DCP INDEX 00 01:08:51FILE "48. Resident Evil- Extinction - Flysolated.wav" WAVE INDEX 01 00:00:00FILE "49. Resident Evil- Extinction - Geared Up.wav" WAVE TRACK 49 AUDIO TITLE "Resident Evil: Extinction - Geared Up" PERFORMER "Marco Beltrami & Elia Cmiral" FLAGS DCP INDEX 01 00:00:00 TRACK 50 AUDIO TITLE "Resident Evil: Extinction - Quad Bike" PERFORMER "Marco Beltrami & Elia Cmiral" FLAGS DCP INDEX 00 00:40:15FILE "50. Resident Evil- Extinction - Quad Bike.wav" WAVE INDEX 01 00:00:00 TRACK 51 AUDIO TITLE "Resident Evil: Extinction - Campfire" PERFORMER "Marco Beltrami & Elia Cmiral" FLAGS DCP INDEX 00 00:37:35FILE "51. Resident Evil- Extinction - Campfire.wav" WAVE INDEX 01 00:00:00FILE "52. Resident Evil- Extinction - Carlos Plan.wav" WAVE TRACK 52 AUDIO TITLE "Resident Evil: Extinction - Carlos Plan" PERFORMER "Marco Beltrami & Elia Cmiral" FLAGS DCP INDEX 01 00:00:00
Неофициальный релиз (Бутлег)


Трекер:  [ 25-Июн-2016 22:00 ]

  

Скачать .torrent

Размер .torrent файла 17 KB


Размер: 695 MB
Хэш (hash) релиза: b93a40bfa39afd56391c447427f3649b1a7e12c0

Торренты, похожие на Обитель зла Resident Evil скачать торрент

Форум Название Автор Размер S L Добавлен
Саундтреки к фильмам и мультфильмам (lossless) ·· (Score) Обитель зла / Resident Evil [Expanded Original Motion Picture Score] (V/A) - Bootleg, 2011, FLAC (tracks), lossless Galfimbul 519505895495 MB 0 0 1466955167

18:32

26-Июн-16

Саундтреки к фильмам и мультфильмам (mp3) ·· (Score) Обитель зла / Resident Evil (Complete) (Marco Beltrami) - 2002, MP3 (tracks), 192 kbps Rosomaxa 123234945118 MB 0 0 1292268073

22:21

13-Дек-10

Саундтреки к фильмам и мультфильмам (mp3) ·· (Score) Обитель зла 2-6 / Resident Evil 2-6 (Jeff Danna, Charlie Clouser, Tomandandy, Paul Haslinger) (5 Albums) - 2004-2016, MP3, 320 kbps Galfimbul 613607417585 MB 0 0 1502505654

05:40

12-Авг-17

Саундтреки к фильмам и мультфильмам (lossless) ·· (Score) [WEB] Обитель зла: Последняя глава / Resident Evil: The Final Chapter (Paul Haslinger) - 2016, FLAC (tracks), lossless Galfimbul 229325314219 MB 0 0 1502503825

05:10

12-Авг-17

Саундтреки к фильмам и мультфильмам (mp3) ·· (Score) Обитель зла: Вендетта / Resident Evil: Vendetta (Kenji Kawai) - 2017, MP3, 320 kbps Galfimbul 180924935173 MB 0 0 1495811770

18:16

26-Май-17

Саундтреки к фильмам и мультфильмам (mp3) ·· (Score) Обитель зла: Последняя глава / Resident Evil: The Final Chapter (Paul Haslinger) - 2016, MP3, 320 kbps Galfimbul 109178066104 MB 2 0 1482487835

13:10

23-Дек-16

Саундтреки к фильмам и мультфильмам (lossless) ·· (Score) Charlie Clouser - Resident Evil: Extinction / Обитель Зла 3: Вымирание - 2007, FLAC (tracks+.cue), lossless AqvaGen 360009545343 MB 0 0 1292268646

22:30

13-Дек-10

Саундтреки к фильмам и мультфильмам (lossless) ·· (OST) Resident Evil: Apocalypse / Обитель зла 2: Апокалипсис - 2004, FLAC (tracks+.cue), lossless Galfimbul 570102664544 MB 0 0 1292268526

22:28

13-Дек-10

Саундтреки к фильмам и мультфильмам (lossless) ·· (Soundtrack) Charlie Clouser & VA - Resident Evil Extinction OST - / Обитель Зла 3 Вымирание - 2007, FLAC (tracks+.cue), lossless AqvaGen 584703264558 MB 0 0 1292268480

22:28

13-Дек-10

Саундтреки к фильмам и мультфильмам (lossless) ·· (Score) Обитель зла 4: Жизнь после смерти 3D / Resident Evil: Afterlife (by Tomandandy) - 2010, FLAC (tracks+.cue), lossless AqvaGen 233261619222 MB 0 0 1292268408

22:26

13-Дек-10

Саундтреки к фильмам и мультфильмам (mp3) ·· (Score) Обитель зла 3: Вымирание / Resident Evil: Extinction (Complete) (2CD) (by Charlie Clouser) - 2007, MP3, 320 kbps Galfimbul 227020725217 MB 0 0 1292265771

21:42

13-Дек-10

Саундтреки к фильмам и мультфильмам (mp3) ·· (Score) Resident Evil / Обитель зла [Complete] (Marco Beltrami) - 2002, MP3 (tracks), 320 kbps AqvaGen 132080159126 MB 0 0 1292265285

21:34

13-Дек-10

Саундтреки к фильмам и мультфильмам (mp3) ·· (Soundtrack/Score) Resident Evil 1-3 / Обитель зла 1-3 - 2002-2007, MP3 (tracks), 128-320 kbps Phoenix 372590036355 MB 0 0 1292265114

21:31

13-Дек-10

Саундтреки к фильмам и мультфильмам (mp3) ·· (Score) Обитель зла 4: Жизнь после смерти 3D / Resident Evil: Afterlife (by Tomandandy) - 2010, MP3 (tracks), 320 kbps Mos 109184902104 MB 0 0 1291091986

07:39

30-Ноя-10

Еще никто не оставлял запись к записи скачать торрент Обитель зла Resident Evil . Будь первым!

!Обратная связь