Скачать через торрент музыку Kano – Greatest Hits - 1990, FLAC бесплатно без регистрации torrent

Статистика раздачи
Размер:  455 MB   |    Зарегистрирован:  10 месяцев   |    .torrent скачан:  152 раза   |   
Раздают:  1  
   
 
Автор Сообщение

IGORYOK_SLOG


Kano – Greatest Hits

Жанр: Electronic, Funk , Soul
Происхождение исполнителя: America
Год издания данного носителя: 1990
Страна-производитель носителя: Canada
Тип релиза: tracks
Аудио кодек: FLAC
Битрейт аудио: lossless
Продолжительность: 01:17:19
Трэклист:
01 It's A War
02 Now Baby Now
03 Cosmic Voyager
04 Ahjia
05 Super Extra Sexy Sign
06 I'm Ready
07 I Need Love
08 Another Life
09 Ikeya Seki
10 Queen of Witches
11 Holly Dolly
12 Another Life (Remix)

Код:

Exact Audio Copy V1.0 beta 2 from 29. April 2011

Отчёт EAC об извлечении, выполненном 24. июня 2016, 21:12

Kano /  Greatest Hits

Дисковод: ASUS    DRW-24F1ST   a   Adapter: 2  ID: 0

Режим чтения                 : Достоверность
Использование точного потока : Да
Отключение кэша аудио        : Нет
Использование указателей C2  : Нет

Коррекция смещения при чтении                     : 6
Способность читать области Lead-in и Lead-out     : Нет
Заполнение пропущенных сэмплов тишиной            : Да
Удаление блоков с тишиной в начале и конце        : Нет
При вычислениях CRC использовались нулевые сэмплы : Да
Интерфейс                                         : Встроенный Win32-интерфейс для Win NT/2000

Выходной формат : Внутренние WAV-операции
Формат сэмплов  : 44.100 Гц; 16 бит; стерео

TOC извлечённого CD

     Трек |   Старт  | Длительность | Начальный сектор | Конечный сектор
    ---------------------------------------------------------------------
       1  |  0:00.00 |    6:53.12   |           0      |      30986     
       2  |  6:53.12 |    5:55.05   |       30987      |      57616     
       3  | 12:48.17 |    6:19.55   |       57617      |      86096     
       4  | 19:07.72 |    6:15.38   |       86097      |     114259     
       5  | 25:23.35 |    6:29.22   |      114260      |     143456     
       6  | 31:52.57 |    7:13.30   |      143457      |     175961     
       7  | 39:06.12 |    6:03.38   |      175962      |     203224     
       8  | 45:09.50 |    7:12.00   |      203225      |     235624     
       9  | 52:21.50 |    5:42.00   |      235625      |     261274     
      10  | 58:03.50 |    6:16.42   |      261275      |     289516     
      11  | 64:20.17 |    6:32.63   |      289517      |     318979     
      12  | 70:53.05 |    6:26.57   |      318980      |     347986     

Характеристики диапазона извлечения и сообщения об ошибках

Выбранный диапазон

     Имя файла C:\Users\Игорь\Desktop\Kano -  Greatest Hits.wav

     Пиковый уровень 100.0 %
     Скорость извлечения 5.2 X
     Качество диапазона 100.0 %
     CRC теста B334B412
     CRC копии B334B412
     Копирование... OK

Ошибок не произошло

 
AccurateRip: сводка
 
Трек  1  : извлечено точно (доверие 8)  [5E7DB8BB]  (AR v1)
Трек  2  : извлечено точно (доверие 2)  [FA0B252B]  (AR v2)
Трек  3  : извлечено точно (доверие 8)  [665E8D84]  (AR v1)
Трек  4  : извлечено точно (доверие 8)  [8B21CC65]  (AR v1)
Трек  5  : извлечено точно (доверие 8)  [63CC0BFD]  (AR v1)
Трек  6  : извлечено точно (доверие 8)  [9CBC2373]  (AR v1)
Трек  7  : извлечено точно (доверие 8)  [25963319]  (AR v1)
Трек  8  : извлечено точно (доверие 8)  [A243ED3D]  (AR v1)
Трек  9  : извлечено точно (доверие 8)  [F4D562EA]  (AR v1)
Трек 10  : извлечено точно (доверие 8)  [B7DCE577]  (AR v1)
Трек 11  : извлечено точно (доверие 8)  [42C9C201]  (AR v1)
Трек 12  : извлечено точно (доверие 6)  [62BE3089]  (AR v1)
 
Все треки извлечены точно

Конец отчёта

Код:

DON'T MODIFY THIS FILE

-----------------------

PERFORMER: auCDtect Task Manager, ver. 1.6.0 RC1 build 1.6.0.1
Copyright (c) 2008-2010 y-soft. All rights reserved
http://y-soft.org

ANALYZER: auCDtect: CD records authenticity detector, version 0.8.2
Copyright (c) 2004 Oleg Berngardt. All rights reserved.
Copyright (c) 2004 Alexander Djourik. All rights reserved.

FILE: 12. Another Life (Remix).flac
  Size: 45180829 Hash: 43AB52A264165CD958A6A9E3BDAE79EF Accuracy: -m0
  Conclusion: CDDA 100%
  Signature: 93FC5BC0C8159511A98A293035653116E74E371D
FILE: 11. Holly Dolly.flac
  Size: 37480024 Hash: 2FEAF7BFED1B67FD12C72B8EBA3EC3D4 Accuracy: -m0
  Conclusion: CDDA 100%
  Signature: A24C04610D26AE04C75AA8EEFC3C2EDD7FF36632
FILE: 10. Queen of Witches.flac
  Size: 39369743 Hash: 56B477D5ED237CFA05C7D7E13AFF59FA Accuracy: -m0
  Conclusion: CDDA 99%
  Signature: 674D7C28A3196BCB55E8F79A9FAB77E35914D33F
FILE: 09. Ikeya Seki.flac
  Size: 33636107 Hash: 3BE1E5CEB21C2F0621C79EB7141F90C1 Accuracy: -m0
  Conclusion: CDDA 100%
  Signature: EBBF92FF4301DB04243EE01EFE13B0920275E505
FILE: 08. Another Life.flac
  Size: 48144046 Hash: 7DE56728972656D572E6909D96C03920 Accuracy: -m0
  Conclusion: CDDA 100%
  Signature: 9A03A987B033D594AB4214DDF88A7F590E99ED3D
FILE: 07. I Need Love.flac
  Size: 38249618 Hash: 2C9B9F368A1D1C124F36E3D0D2C36FE5 Accuracy: -m0
  Conclusion: CDDA 100%
  Signature: F47CBD05C67047BFB763C4ED54347E14D6970BEC
FILE: 06. I'm Ready.flac
  Size: 40786346 Hash: C14FF462E7BA9E3B787B09AA8BA88628 Accuracy: -m0
  Conclusion: CDDA 100%
  Signature: 819559AB847CB52BC354AB319AD78D0D437BFAEB
FILE: 05. Super Extra Sexy Sign.flac
  Size: 38420505 Hash: 5F5A69814D9BEF8B7D9760267DB86587 Accuracy: -m0
  Conclusion: CDDA 100%
  Signature: 9DA7104B963A930A0F52DD931CB5505DC585C65E
FILE: 04. Ahjia.flac
  Size: 41793069 Hash: 9FA8E6766D28EC950A57A647EB99AB44 Accuracy: -m0
  Conclusion: CDDA 100%
  Signature: 008E1D6C21ADA2D1170FBF25CA3D692D4741C7D6
FILE: 03. Cosmic Voyager.flac
  Size: 37022840 Hash: 4043991CA8F844D674B05A0512BE1B1F Accuracy: -m0
  Conclusion: CDDA 100%
  Signature: 75F8288A21CBB66661E2336B2081D5BBAE5CC6A4
FILE: 02. Now Baby Now.flac
  Size: 38249706 Hash: F4E9DC2839B3D52D655C57E6AA58E919 Accuracy: -m0
  Conclusion: CDDA 100%
  Signature: FCFA9C70C616568BDCDCF73CFD774643F4FB02D7
FILE: 01. It's A War.flac
  Size: 39109992 Hash: 6847BBBAB346460392967087D2C574F0 Accuracy: -m0
  Conclusion: CDDA 100%
  Signature: 53EDEDA6D23CDEFB8295772CC59D7AE6EFDE9BF5
Год первого издания: 1981
Полиграфия: присутствует
Лейбл: Unidisc
Каталоговый номер: SPLK-8025
Тип рипа: tracks
Уровень сжатия аудио кодеком: 890

Трекер:  [ 24-Июн-2016 19:13 ]

  

Скачать .torrent

Размер .torrent файла 19 KB


Размер: 455 MB
Хэш (hash) релиза: 5bc7a0fc3863685154f5b515c16ea684f3013910

Еще никто не оставлял запись к записи скачать торрент Kano – Greatest Hits - 1990, FLAC . Будь первым!

!Обратная связь