Скачать через торрент музыку Secret Service – Oh Susie - 1997, FLAC бесплатно без регистрации torrent

Статистика раздачи
Размер:  201 MB   |    Зарегистрирован:  8 месяцев   |    .torrent скачан:  133 раза   |   
Раздают:  2  
   
 
Автор Сообщение

IGORYOK_SLOG


Secret Service – Oh Susie

Жанр: Disco
Происхождение исполнителя: Швеция
Год издания данного носителя: 1997
Страна-производитель носителя: US
Тип релиза: tracks
Аудио кодек: FLAC
Битрейт аудио: lossless
Продолжительность: 00:33:14
Трэклист:
01 Ten O'Clock Postman
02 Hey Johnny
03 Give Me Your Love
04 Oh Susie
05 Darling, You're My Girl
06 She Wants Me
07 Why Don't You Try To Phone
08 Angel On Wheels
09 Family Delight

Код:

Exact Audio Copy V1.0 beta 2 from 29. April 2011

Отчёт EAC об извлечении, выполненном 23. июня 2016, 22:45

Secret Service / Oh Susie

Дисковод: ASUS    DRW-24F1ST   a   Adapter: 2  ID: 0

Режим чтения                 : Достоверность
Использование точного потока : Да
Отключение кэша аудио        : Нет
Использование указателей C2  : Нет

Коррекция смещения при чтении                     : 6
Способность читать области Lead-in и Lead-out     : Нет
Заполнение пропущенных сэмплов тишиной            : Да
Удаление блоков с тишиной в начале и конце        : Нет
При вычислениях CRC использовались нулевые сэмплы : Да
Интерфейс                                         : Встроенный Win32-интерфейс для Win NT/2000

Выходной формат : Внутренние WAV-операции
Формат сэмплов  : 44.100 Гц; 16 бит; стерео

TOC извлечённого CD

     Трек |   Старт  | Длительность | Начальный сектор | Конечный сектор
    ---------------------------------------------------------------------
       1  |  0:00.00 |    3:41.64   |           0      |      16638     
       2  |  3:41.64 |    4:22.02   |       16639      |      36290     
       3  |  8:03.66 |    3:40.26   |       36291      |      52816     
       4  | 11:44.17 |    4:38.55   |       52817      |      73721     
       5  | 16:22.72 |    3:44.23   |       73722      |      90544     
       6  | 20:07.20 |    3:09.00   |       90545      |     104719     
       7  | 23:16.20 |    3:27.31   |      104720      |     120275     
       8  | 26:43.51 |    3:04.03   |      120276      |     134078     
       9  | 29:47.54 |    3:26.55   |      134079      |     149583     

Характеристики диапазона извлечения и сообщения об ошибках

Выбранный диапазон

     Имя файла C:\Users\Игорь\Desktop\Secret Service - Oh Susie.wav

     Пиковый уровень 90.3 %
     Скорость извлечения 4.0 X
     Качество диапазона 100.0 %
     CRC теста 07F48F65
     CRC копии 07F48F65
     Копирование... OK

Ошибок не произошло

 
AccurateRip: сводка
 
Трек  1  : извлечено точно (доверие 2)  [8DD57A9F]  (AR v2)
Трек  2  : извлечено точно (доверие 2)  [20EAF27C]  (AR v2)
Трек  3  : извлечено точно (доверие 2)  [582DCCB3]  (AR v2)
Трек  4  : извлечено точно (доверие 2)  [E9B65BBA]  (AR v2)
Трек  5  : извлечено точно (доверие 2)  [273687DA]  (AR v2)
Трек  6  : извлечено точно (доверие 2)  [5B323BDB]  (AR v2)
Трек  7  : извлечено точно (доверие 2)  [7A03CED2]  (AR v2)
Трек  8  : извлечено точно (доверие 2)  [E2E34826]  (AR v2)
Трек  9  : извлечено точно (доверие 2)  [03C3A8FF]  (AR v2)
 
Все треки извлечены точно

Конец отчёта

Код:

DON'T MODIFY THIS FILE

-----------------------

PERFORMER: auCDtect Task Manager, ver. 1.6.0 RC1 build 1.6.0.1
Copyright (c) 2008-2010 y-soft. All rights reserved
http://y-soft.org

ANALYZER: auCDtect: CD records authenticity detector, version 0.8.2
Copyright (c) 2004 Oleg Berngardt. All rights reserved.
Copyright (c) 2004 Alexander Djourik. All rights reserved.

FILE: 09. Family Delight.flac
  Size: 22069278 Hash: 848EE3C7D65613F1888BB17CCFBC9D50 Accuracy: -m0
  Conclusion: CDDA 58%
  Signature: C26A359AF512FDBBA4BCA70A823B039D35B9D543
FILE: 08. Angel On Wheels.flac
  Size: 18286400 Hash: 71AAA5F7A35FA9AA576E74B50AAAA917 Accuracy: -m0
  Conclusion: CDDA 100%
  Signature: D0441E248B202BEBFF3E242ED0DE559A3F2AF2B7
FILE: 07. Why Don't You Try To Phone.flac
  Size: 20374478 Hash: 94D94571E63C9DCB7485594480AB0DAF Accuracy: -m0
  Conclusion: CDDA 100%
  Signature: 002D5AAF544D390240E59034C23A9F02E286DD7C
FILE: 06. She Wants Me.flac
  Size: 21026693 Hash: DFB6D1AA2CA754B94416A87C4BC06AE7 Accuracy: -m0
  Conclusion: CDDA 100%
  Signature: 995ACDDE00B10BAAEEEB41A0F8F04B66984A5DC6
FILE: 05. Darling, You're My Girl.flac
  Size: 23965548 Hash: 66824B8635B9E0630928277696776CC5 Accuracy: -m0
  Conclusion: CDDA 100%
  Signature: EEB8F5ACA564768C08F0F5511386A1F659E3A4BA
FILE: 04. Oh Susie.flac
  Size: 30056536 Hash: 307C128AAA924EF6EEB62796E75D01A6 Accuracy: -m0
  Conclusion: CDDA 99%
  Signature: 087CBAFBB18CD54594C90B79B73BFDEB1D31F7B0
FILE: 03. Give Me Your Love.flac
  Size: 22114661 Hash: 2B0AB52F7EBF08ADFFF85A1B7363EF4E Accuracy: -m0
  Conclusion: CDDA 100%
  Signature: 81A1A0021F0BC2F8D917CA8385149D4B68BB73DB
FILE: 02. Hey Johnny.flac
  Size: 27900865 Hash: 9B6BE9B9CBCB229A97FFAEF10D322381 Accuracy: -m0
  Conclusion: CDDA 100%
  Signature: 2A0476DCF30693FF7CCDB0A2CF7DE303CCFEDC66
FILE: 01. Ten O'Clock Postman.flac
  Size: 25325734 Hash: 2071F7C9301059A51F14A3BB70C82BC6 Accuracy: -m0
  Conclusion: CDDA 100%
  Signature: 1EA4085F53D57110A1ADE7D9F2DF9A5B1E31F832
Год первого издания: 1979
Полиграфия: присутствует
Лейбл: IEC Records
Каталоговый номер: 57107-2
Тип рипа: tracks
Уровень сжатия аудио кодеком: 905

Трекер:  [ 23-Июн-2016 20:45 ]

  

Скачать .torrent

Размер .torrent файла 17 KB


Размер: 201 MB
Хэш (hash) релиза: 024b7a7937a7d17fbf8d81aca72a3653dc288fb2

Еще никто не оставлял запись к записи скачать торрент Secret Service – Oh Susie - 1997, FLAC . Будь первым!

!Обратная связь