Скачать через торрент музыку Secret Service – Jupiter Sign - 1997, FLAC бесплатно без регистрации torrent

Если у вас наблюдаются проблемы со скриншотами, переходом по ссылками, скачиванием торрентов - проблемы в блокировщике рекламы AdBlock. #хорошегоДня!


Статистика раздачи
Размер:  228 MB   |    Зарегистрирован:  1 год 3 месяца   |    .torrent скачан:  152 раза   |   
Раздают:  1  
   
Загрузка...
 
Автор Сообщение

IGORYOK_SLOG


Secret Service – Jupiter Sign

Жанр: Disco
Происхождение исполнителя: Швеция
Год издания данного носителя: 1997
Страна-производитель носителя: US
Тип релиза: tracks
Аудио кодек: FLAC
Битрейт аудио: lossless
Продолжительность: 00:36:17
Трэклист:
01 Jupiter Sign
02 Love Cannot Be Wrong
03 Visions Of You
04 Heart Companion
05 Jo-Anne Jo-Anne
06 Do It
07 Night Cafe
08 All I Want To Do
09 Will You Be Near Me
10 Mrs. Marple

Код:

Exact Audio Copy V1.0 beta 2 from 29. April 2011

Отчёт EAC об извлечении, выполненном 23. июня 2016, 21:40

Secret Service  /  Jupiter Sign

Дисковод: ASUS    DRW-24F1ST   a   Adapter: 2  ID: 0

Режим чтения                 : Достоверность
Использование точного потока : Да
Отключение кэша аудио        : Нет
Использование указателей C2  : Нет

Коррекция смещения при чтении                     : 6
Способность читать области Lead-in и Lead-out     : Нет
Заполнение пропущенных сэмплов тишиной            : Да
Удаление блоков с тишиной в начале и конце        : Нет
При вычислениях CRC использовались нулевые сэмплы : Да
Интерфейс                                         : Встроенный Win32-интерфейс для Win NT/2000

Выходной формат : Внутренние WAV-операции
Формат сэмплов  : 44.100 Гц; 16 бит; стерео

TOC извлечённого CD

     Трек |   Старт  | Длительность | Начальный сектор | Конечный сектор
    ---------------------------------------------------------------------
       1  |  0:00.00 |    4:57.38   |           0      |      22312     
       2  |  4:57.38 |    2:56.42   |       22313      |      35554     
       3  |  7:54.05 |    3:16.03   |       35555      |      50257     
       4  | 11:10.08 |    3:08.39   |       50258      |      64396     
       5  | 14:18.47 |    3:45.67   |       64397      |      81338     
       6  | 18:04.39 |    3:37.45   |       81339      |      97658     
       7  | 21:42.09 |    3:11.09   |       97659      |     111992     
       8  | 24:53.18 |    3:37.32   |      111993      |     128299     
       9  | 28:30.50 |    4:14.44   |      128300      |     147393     
      10  | 32:45.19 |    3:32.03   |      147394      |     163296     

Характеристики диапазона извлечения и сообщения об ошибках

Выбранный диапазон

     Имя файла C:\Users\Игорь\Desktop\Secret Service  -  Jupiter Sign.wav

     Пиковый уровень 98.8 %
     Скорость извлечения 3.9 X
     Качество диапазона 99.9 %
     CRC копии DD6F2D98
     Копирование... OK

Ошибок не произошло

 
AccurateRip: сводка
 
Трек  1  : извлечено точно (доверие 2)  [38B5926D]  (AR v1)
Трек  2  : извлечено точно (доверие 2)  [015096E9]  (AR v1)
Трек  3  : извлечено точно (доверие 2)  [39C605B9]  (AR v1)
Трек  4  : извлечено точно (доверие 2)  [D19AC33F]  (AR v1)
Трек  5  : извлечено точно (доверие 2)  [6B9319A7]  (AR v1)
Трек  6  точность не определена (достоверность 3)  [DD5A0CDE], AccurateRip вернул [5AF5E5D2]  (AR v2)
Трек  7  : извлечено точно (доверие 2)  [C7F23301]  (AR v1)
Трек  8  : извлечено точно (доверие 2)  [CD822939]  (AR v1)
Трек  9  : извлечено точно (доверие 2)  [3A0E2FCF]  (AR v1)
Трек 10  : извлечено точно (доверие 2)  [66DAE196]  (AR v1)
 
 9 трек(и) скопированы точно
 1 трек(и) не удалось проверить на точность

Некоторые треки не прошли проверку на точность

Конец отчёта

Код:

DON'T MODIFY THIS FILE

-----------------------

PERFORMER: auCDtect Task Manager, ver. 1.6.0 RC1 build 1.6.0.1
Copyright (c) 2008-2010 y-soft. All rights reserved
http://y-soft.org

ANALYZER: auCDtect: CD records authenticity detector, version 0.8.2
Copyright (c) 2004 Oleg Berngardt. All rights reserved.
Copyright (c) 2004 Alexander Djourik. All rights reserved.

FILE: 10. Mrs. Marple.flac
  Size: 21673998 Hash: 0247F1769FE449E0C26F3A15A437C6C9 Accuracy: -m0
  Conclusion: CDDA 100%
  Signature: 78EA5B875F7656669269A43A6C2560CF37DB9FAD
FILE: 09. Will You Be Near Me.flac
  Size: 26299355 Hash: D8D709605B4DC9CC4F23A218BEDB5BC6 Accuracy: -m0
  Conclusion: CDDA 100%
  Signature: 7420E134A4FD98EA62A7BFB96C7FE74D9869AF3D
FILE: 08. All I Want To Do.flac
  Size: 24880008 Hash: 94CA33C8113A25B7FDC575E4D47D494C Accuracy: -m0
  Conclusion: CDDA 100%
  Signature: 93FF2D4FC4F172FB689A72F32558DF8CD67DF4A2
FILE: 07. Night Cafe.flac
  Size: 19288618 Hash: 6942209C8578367632DBEC27AAA6BF35 Accuracy: -m0
  Conclusion: CDDA 100%
  Signature: 5093D1FEC597CD1E42D6CEFAEC904843C1CF5785
FILE: 06. Do It.flac
  Size: 24957869 Hash: 3927E37AD6D7539791C6A7534B9E3A2F Accuracy: -m0
  Conclusion: CDDA 100%
  Signature: B691C9BA17185C325C4C99D70E0EAB462B6592D1
FILE: 05. Jo-Anne Jo-Anne.flac
  Size: 25066098 Hash: 276FD37911ED9D602E9358567FED33E7 Accuracy: -m0
  Conclusion: CDDA 100%
  Signature: ACF54AA015CF46B3D0B5765C9285F008009E2AB8
FILE: 04. Heart Companion.flac
  Size: 20464230 Hash: 7599351A377E432068496BF862B379D1 Accuracy: -m0
  Conclusion: CDDA 100%
  Signature: F2D5D940A96115121A48170182F3F77D1D730865
FILE: 03. Visions Of You.flac
  Size: 21399757 Hash: 70B3DBA5923B300CD0B8E40EFB64BCFF Accuracy: -m0
  Conclusion: CDDA 99%
  Signature: 86114FDFD8B715AE8B969048CE0824CD1C4A20F5
FILE: 02. Love Cannot Be Wrong.flac
  Size: 21004395 Hash: A6B162E60CD20AF242806FD3AAC8D68C Accuracy: -m0
  Conclusion: CDDA 100%
  Signature: 25E1386D1B5CF578EDF78C5DF9A338DBEA8D8543
FILE: 01. Jupiter Sign.flac
  Size: 33797299 Hash: B6EE5C9749D0FAC3EC104EDC0ED48B65 Accuracy: -m0
  Conclusion: CDDA 100%
  Signature: 0FC591040734BA9562E47D65573BBBFA44B85534
Год первого издания: 1984
Полиграфия: присутствует
Лейбл: IEC Records
Каталоговый номер: CD 57110 2
Тип рипа: tracks
Уровень сжатия аудио кодеком: 905

Трекер:  [ 23-Июн-2016 19:47 ]

  

Скачать .torrent

Размер .torrent файла 19 KB


Размер: 228 MB
Хэш (hash) релиза: 7f5553b01561cc7d441a31635766b6f4f2995fda

Еще никто не оставлял запись к записи скачать торрент Secret Service – Jupiter Sign - 1997, FLAC . Будь первым!

!Обратная связь