Скачать через торрент музыку Secret Service – When The Night Closes In - 1997, FLAC бесплатно без регистрации torrent

Если у вас наблюдаются проблемы со скриншотами, переходом по ссылками, скачиванием торрентов - проблемы в блокировщике рекламы AdBlock. #хорошегоДня!


Статистика раздачи
Размер:  236 MB   |    Зарегистрирован:  1 год 5 месяцев   |    .torrent скачан:  130 раз   |   
Раздают:  1  
   
Загрузка...
 
Автор Сообщение

IGORYOK_SLOG


Secret Service – When The Night Closes In

Жанр: Disco
Происхождение исполнителя: Швеция
Год издания данного носителя: 1997
Страна-производитель носителя: US
Тип релиза: tracks
Аудио кодек: FLAC
Битрейт аудио: lossless
Продолжительность: 00:36:56
Трэклист:
01 Night City
02 Let Us Dance Just A Little Bit More
03 Special Songs
04 Do You Remember?
05 Walking
06 When The Night Closes In
07 How I Want You
08 Closer Every Day
09 Feel You Near Me
10 Just A Friend For The Night

Код:

Exact Audio Copy V1.0 beta 2 from 29. April 2011

Отчёт EAC об извлечении, выполненном 22. июня 2016, 22:29

Secret Service  /  When The Night Closes In

Дисковод: ASUS    DRW-24F1ST   a   Adapter: 2  ID: 0

Режим чтения                 : Достоверность
Использование точного потока : Да
Отключение кэша аудио        : Нет
Использование указателей C2  : Нет

Коррекция смещения при чтении                     : 6
Способность читать области Lead-in и Lead-out     : Нет
Заполнение пропущенных сэмплов тишиной            : Да
Удаление блоков с тишиной в начале и конце        : Нет
При вычислениях CRC использовались нулевые сэмплы : Да
Интерфейс                                         : Встроенный Win32-интерфейс для Win NT/2000

Выходной формат : Внутренние WAV-операции
Формат сэмплов  : 44.100 Гц; 16 бит; стерео

TOC извлечённого CD

     Трек |   Старт  | Длительность | Начальный сектор | Конечный сектор
    ---------------------------------------------------------------------
       1  |  0:00.00 |    3:40.44   |           0      |      16543     
       2  |  3:40.44 |    4:29.38   |       16544      |      36756     
       3  |  8:10.07 |    3:35.29   |       36757      |      52910     
       4  | 11:45.36 |    3:30.54   |       52911      |      68714     
       5  | 15:16.15 |    4:07.46   |       68715      |      87285     
       6  | 19:23.61 |    4:09.42   |       87286      |     106002     
       7  | 23:33.28 |    3:51.20   |      106003      |     123347     
       8  | 27:24.48 |    3:12.61   |      123348      |     137808     
       9  | 30:37.34 |    3:08.06   |      137809      |     151914     
      10  | 33:45.40 |    3:11.04   |      151915      |     166243     

Характеристики диапазона извлечения и сообщения об ошибках

Выбранный диапазон

     Имя файла C:\Users\Игорь\Desktop\Secret Service  -  When The Night Closes In.wav

     Пиковый уровень 79.1 %
     Скорость извлечения 10.7 X
     Качество диапазона 100.0 %
     CRC копии F5A5BCE5
     Копирование... OK

Ошибок не произошло

 
AccurateRip: сводка
 
Трек  1  отсутствует в базе данных
Трек  2  отсутствует в базе данных
Трек  3  отсутствует в базе данных
Трек  4  отсутствует в базе данных
Трек  5  отсутствует в базе данных
Трек  6  отсутствует в базе данных
Трек  7  отсутствует в базе данных
Трек  8  отсутствует в базе данных
Трек  9  отсутствует в базе данных
Трек 10  отсутствует в базе данных
 
Ни одного трека нет в базе AccurateRip

Конец отчёта

Код:

DON'T MODIFY THIS FILE

-----------------------

PERFORMER: auCDtect Task Manager, ver. 1.6.0 RC1 build 1.6.0.1
Copyright (c) 2008-2010 y-soft. All rights reserved
http://y-soft.org

ANALYZER: auCDtect: CD records authenticity detector, version 0.8.2
Copyright (c) 2004 Oleg Berngardt. All rights reserved.
Copyright (c) 2004 Alexander Djourik. All rights reserved.

FILE: 10. Just A Friend For The Night.flac
  Size: 18843891 Hash: F822DD5821C5018E7FD9F2DF4B38B3B4 Accuracy: -m0
  Conclusion: CDDA 100%
  Signature: C1747E2BC7EFF7D46B539D2C5FDEC27EC35601C4
FILE: 09. Feel You Near Me.flac
  Size: 21643190 Hash: 5E96D755696B4AB6B181DA07BFFD7F35 Accuracy: -m0
  Conclusion: CDDA 100%
  Signature: 16154E0A74BC2922EA53888508B4D9BEE2BA11F6
FILE: 08. Closer Every Day.flac
  Size: 22046196 Hash: 8F42EC3173D39CADE285552D6B58A3FF Accuracy: -m0
  Conclusion: CDDA 100%
  Signature: DBF599FBE46EEC58F84D7B3B0B7EC4478D38FC23
FILE: 07. How I Want You.flac
  Size: 25478706 Hash: 67DC67894D869033FA2154F0BC499A95 Accuracy: -m0
  Conclusion: CDDA 100%
  Signature: 52128591A92F2F4CAA6FD8DA925007AE84622AEC
FILE: 06. When The Night Closes In.flac
  Size: 27767611 Hash: 1B6F77C3F285E7A50ECC43AF72A4437E Accuracy: -m0
  Conclusion: CDDA 100%
  Signature: DEBEB9FC3076BD31B07420C783D4F36B196D1CB0
FILE: 05. Walking.flac
  Size: 28359934 Hash: 96FDA031E021FB1772F114DED4874C3B Accuracy: -m0
  Conclusion: CDDA 100%
  Signature: 498B12A23EC3ABAC38C39FCD458C6475F2E9FB45
FILE: 04. Do You Remember.flac
  Size: 25321857 Hash: 6E68478A4DB765DC61C5FCDE37771E96 Accuracy: -m0
  Conclusion: CDDA 100%
  Signature: C57208C96C1CFC6D24E93818A509BD723F8DDE5F
FILE: 03. Special Songs.flac
  Size: 23046796 Hash: C79F5F94B03E532600FD7ACFCD0BACC3 Accuracy: -m0
  Conclusion: CDDA 99%
  Signature: C1C345680B53A84959E8CB48C8F600B739452DE1
FILE: 02. Let Us Dance Just A Little Bit More.flac
  Size: 30015888 Hash: 95A971B2C2BCBC30E4635B6311EEA820 Accuracy: -m0
  Conclusion: CDDA 100%
  Signature: ABEF16174B41EEF8537B69668D54004C198D4F5E
FILE: 01. Night City.flac
  Size: 24653084 Hash: 8183F9768BDCE51FFA3E507963F645D6 Accuracy: -m0
  Conclusion: CDDA 100%
  Signature: 14F8D9EE111A49E69113F184DFDC5344EB0DD0D9
Год первого издания: 1985
Полиграфия: присутствует
Лейбл: IEC Records
Каталоговый номер: CD57111-2
Тип рипа: tracks
Уровень сжатия аудио кодеком: 961

Трекер:  [ 22-Июн-2016 20:36 ]

  

Скачать .torrent

Размер .torrent файла 19 KB


Размер: 236 MB
Хэш (hash) релиза: 6caced8cd8e68ab3b67be14ae88cb509410d94e7

Еще никто не оставлял запись к записи скачать торрент Secret Service – When The Night Closes In - 1997, FLAC . Будь первым!

!Обратная связь