Скачать через торрент музыку Secret Service – Cutting Corners - 2000, FLAC бесплатно без регистрации torrent

Статистика раздачи
Размер:  328 MB   |    Зарегистрирован:  8 месяцев   |    .torrent скачан:  100 раз   |   
Раздают:  1  
   
 
Автор Сообщение

IGORYOK_SLOG


Secret Service – Cutting Corners

Жанр: Disco
Происхождение исполнителя: Швеция
Год издания данного носителя: 2000
Страна-производитель носителя: Россия
Тип релиза: tracks
Аудио кодек: FLAC
Битрейт аудио: lossless
Продолжительность: 00:50:08
Трэклист:
01 Over Town
02 Fire Into Ice
03 Cutting Corners
04 Flash In The Night
05 Cry Softly (Time Is Mourning)
06 If I Try
07 Like A Morning Song
08 When The Dancer You Have Loved Walks Out The Door
09 Rainy Day Memories
10 Watching Julietta
11 Flash In The Night (Remix)
12 Medley

Код:

Exact Audio Copy V1.0 beta 2 from 29. April 2011

Отчёт EAC об извлечении, выполненном 22. июня 2016, 21:49

Secret Service  / Cutting Corners

Дисковод: ASUS    DRW-24F1ST   a   Adapter: 2  ID: 0

Режим чтения                 : Достоверность
Использование точного потока : Да
Отключение кэша аудио        : Нет
Использование указателей C2  : Нет

Коррекция смещения при чтении                     : 6
Способность читать области Lead-in и Lead-out     : Нет
Заполнение пропущенных сэмплов тишиной            : Да
Удаление блоков с тишиной в начале и конце        : Нет
При вычислениях CRC использовались нулевые сэмплы : Да
Интерфейс                                         : Встроенный Win32-интерфейс для Win NT/2000

Выходной формат : Внутренние WAV-операции
Формат сэмплов  : 44.100 Гц; 16 бит; стерео

TOC извлечённого CD

     Трек |   Старт  | Длительность | Начальный сектор | Конечный сектор
    ---------------------------------------------------------------------
       1  |  0:00.00 |    4:03.35   |           0      |      18259     
       2  |  4:03.35 |    3:56.70   |       18260      |      36029     
       3  |  8:00.30 |    3:30.23   |       36030      |      51802     
       4  | 11:30.53 |    5:17.68   |       51803      |      75645     
       5  | 16:48.46 |    3:38.37   |       75646      |      92032     
       6  | 20:27.08 |    4:12.33   |       92033      |     110965     
       7  | 24:39.41 |    3:27.26   |      110966      |     126516     
       8  | 28:06.67 |    3:54.46   |      126517      |     144112     
       9  | 32:01.38 |    3:13.54   |      144113      |     158641     
      10  | 35:15.17 |    3:31.06   |      158642      |     174472     
      11  | 38:46.23 |    3:49.73   |      174473      |     191720     
      12  | 42:36.21 |    7:31.61   |      191721      |     225606     

Характеристики диапазона извлечения и сообщения об ошибках

Выбранный диапазон

     Имя файла C:\Users\Игорь\Desktop\Secret Service  - Cutting Corners.wav

     Пиковый уровень 99.4 %
     Скорость извлечения 6.4 X
     Качество диапазона 100.0 %
     CRC копии 677E1FD5
     Копирование... OK

Ошибок не произошло

 
AccurateRip: сводка
 
Трек  1  : извлечено точно (доверие 2)  [A038BE05]  (AR v2)
Трек  2  : извлечено точно (доверие 2)  [1501CE36]  (AR v2)
Трек  3  : извлечено точно (доверие 2)  [3CD5C0D9]  (AR v2)
Трек  4  : извлечено точно (доверие 2)  [4F7E2B3D]  (AR v2)
Трек  5  : извлечено точно (доверие 2)  [A6751FD2]  (AR v2)
Трек  6  : извлечено точно (доверие 2)  [04093C13]  (AR v2)
Трек  7  : извлечено точно (доверие 2)  [FE6DAFAA]  (AR v2)
Трек  8  : извлечено точно (доверие 2)  [AEB55371]  (AR v2)
Трек  9  : извлечено точно (доверие 2)  [B4ADACA3]  (AR v2)
Трек 10  : извлечено точно (доверие 2)  [CF5E0DED]  (AR v2)
Трек 11  : извлечено точно (доверие 2)  [C02FF2EB]  (AR v2)
Трек 12  : извлечено точно (доверие 2)  [18E8B610]  (AR v2)
 
Все треки извлечены точно

Конец отчёта

Код:

DON'T MODIFY THIS FILE

-----------------------

PERFORMER: auCDtect Task Manager, ver. 1.6.0 RC1 build 1.6.0.1
Copyright (c) 2008-2010 y-soft. All rights reserved
http://y-soft.org

ANALYZER: auCDtect: CD records authenticity detector, version 0.8.2
Copyright (c) 2004 Oleg Berngardt. All rights reserved.
Copyright (c) 2004 Alexander Djourik. All rights reserved.

FILE: 12. Medley.flac
  Size: 57263095 Hash: 8DCB4850313A1EA793E4B28BC63FF68A Accuracy: -m0
  Conclusion: CDDA 100%
  Signature: 475A7D199121C2132AA019AB0C836412FF9C7956
FILE: 11. Flash In The Night (Remix).flac
  Size: 26857347 Hash: 9872975E00A272076669597FCD1D21BC Accuracy: -m0
  Conclusion: CDDA 100%
  Signature: 2A1121AF6693F0B4F6727847A9983977BD6DFE49
FILE: 10. Watching Julietta.flac
  Size: 24104805 Hash: 118B9E537EB90BD3F319B5F9D7D546E3 Accuracy: -m0
  Conclusion: CDDA 100%
  Signature: 812CCA7E5CEFC9EF2F0F05E6DC723D71FD6BD073
FILE: 09. Rainy Day Memories.flac
  Size: 18592909 Hash: A3281EC3B10B45FCA0D8EDA6477D45D4 Accuracy: -m0
  Conclusion: CDDA 100%
  Signature: 69670206927140477ADC53ED2909C29525A3732E
FILE: 08. When The Dancer You Have Loved Walks Out The Door.flac
  Size: 27846943 Hash: 400D0FCEB036F9796BD5AD8A730713AD Accuracy: -m0
  Conclusion: CDDA 100%
  Signature: 33E39E5FE6176270976ACE8F7F44EA2B0F3E7C0A
FILE: 07. Like A Morning Song.flac
  Size: 21912435 Hash: E7986A2A583CDF79B663E8AD6DE1C9F6 Accuracy: -m0
  Conclusion: CDDA 100%
  Signature: 83270E77B1AB106038EAEB95C5CB3B3256BE8EF9
FILE: 06. If I Try.flac
  Size: 30255214 Hash: 99FD4ED03F633277601EBBD6B0EC34E0 Accuracy: -m0
  Conclusion: CDDA 100%
  Signature: 204089F7ED64C680CB5DE95D8370056FC7001EE0
FILE: 05. Cry Softly (Time Is Mourning).flac
  Size: 22510309 Hash: 839242A55A259C9E8D885E8A0169C2A0 Accuracy: -m0
  Conclusion: CDDA 100%
  Signature: 67DB61F4168B99C4AAE1E2839DD4366CACB554B8
FILE: 04. Flash In The Night.flac
  Size: 35642066 Hash: E5D115D858ED93D70CB916FB76530027 Accuracy: -m0
  Conclusion: CDDA 100%
  Signature: 8FA515DB21415038DEA1100BD67501A8B3DA6A44
FILE: 03. Cutting Corners.flac
  Size: 25882683 Hash: 80AE6D0CD28A1146EF25214F4D760C15 Accuracy: -m0
  Conclusion: CDDA 100%
  Signature: BE1C81C4686CECDBEE3EDEC4EF9CFB90ED7B8544
FILE: 02. Fire Into Ice.flac
  Size: 24943169 Hash: 5AFE36F910A70EB6B87C53D87488BB1C Accuracy: -m0
  Conclusion: CDDA 99%
  Signature: 56E6B0DB484F48C2351C120A8F1BAE6995896F72
FILE: 01. Over Town.flac
  Size: 28382737 Hash: D27D28B8EE81BABF8B428D174394E2C4 Accuracy: -m0
  Conclusion: CDDA 99%
  Signature: E4F01EFF45A6AC4C3516AC616394F1CF87E35EBA
Год первого издания: 1982
Полиграфия: присутствует
Лейбл: Sonet (2)
Каталоговый номер: 551 492 2
Тип рипа: tracks
Уровень сжатия аудио кодеком: 1020

Трекер:  [ 22-Июн-2016 19:51 ]

  

Скачать .torrent

Размер .torrent файла 14 KB


Размер: 328 MB
Хэш (hash) релиза: e3a349922ab621829a3b95d9b17a6e69fc8fc0ad

Еще никто не оставлял запись к записи скачать торрент Secret Service – Cutting Corners - 2000, FLAC . Будь первым!

!Обратная связь