Скачать через торрент музыку Giorgio Moroder - From Here to Eternity - 1999, FLAC бесплатно без регистрации torrent

Статистика раздачи
Размер:  220 MB   |    Зарегистрирован:  8 месяцев   |    .torrent скачан:  144 раза   |   
Раздают:  2  
   
 
Автор Сообщение

IGORYOK_SLOG


Giorgio Moroder - From Here to Eternity

Жанр: Electronic,Disco
Происхождение исполнителя: Италия
Год издания данного носителя: 1999
Страна-производитель носителя: Germany
Тип релиза: tracks
Аудио кодек: FLAC
Битрейт аудио: lossless
Продолжительность: 00:00:30:47
Трэклист:
01 From Here to Eternity
02 Faster Than the Speed of Love
03 Lost Angeles
04 Utopia - Me Giorgio
05 From Here to Eternity (reprise)
06 First Hand Experience in Second Hand Love
07 I'm Left, You're Right, She's Gone
08 Too Hot to Handle

Код:

Exact Audio Copy V1.0 beta 2 from 29. April 2011

Отчёт EAC об извлечении, выполненном 22. июня 2016, 17:56

Giorgio Moroder / From Here To Eternity

Дисковод: ASUS    DRW-24F1ST   a   Adapter: 2  ID: 0

Режим чтения                 : Достоверность
Использование точного потока : Да
Отключение кэша аудио        : Нет
Использование указателей C2  : Нет

Коррекция смещения при чтении                     : 6
Способность читать области Lead-in и Lead-out     : Нет
Заполнение пропущенных сэмплов тишиной            : Да
Удаление блоков с тишиной в начале и конце        : Нет
При вычислениях CRC использовались нулевые сэмплы : Да
Интерфейс                                         : Встроенный Win32-интерфейс для Win NT/2000

Выходной формат : Внутренние WAV-операции
Формат сэмплов  : 44.100 Гц; 16 бит; стерео

TOC извлечённого CD

     Трек |   Старт  | Длительность | Начальный сектор | Конечный сектор
    ---------------------------------------------------------------------
       1  |  0:00.00 |    5:58.35   |           0      |      26884     
       2  |  5:58.35 |    1:54.02   |       26885      |      35436     
       3  |  7:52.37 |    2:44.00   |       35437      |      47736     
       4  | 10:36.37 |    3:23.70   |       47737      |      63031     
       5  | 14:00.32 |    1:45.30   |       63032      |      70936     
       6  | 15:45.62 |    5:02.20   |       70937      |      93606     
       7  | 20:48.07 |    5:07.70   |       93607      |     116701     
       8  | 25:56.02 |    4:51.10   |      116702      |     138536     

Характеристики диапазона извлечения и сообщения об ошибках

Выбранный диапазон

     Имя файла C:\Users\Игорь\Desktop\Giorgio Moroder - From Here To Eternity.wav

     Пиковый уровень 99.7 %
     Скорость извлечения 3.8 X
     Качество диапазона 100.0 %
     CRC копии BC82B004
     Копирование... OK

Ошибок не произошло

 
AccurateRip: сводка
 
Трек  1  : извлечено точно (доверие 18)  [DF269579]  (AR v2)
Трек  2  : извлечено точно (доверие 18)  [78385086]  (AR v2)
Трек  3  : извлечено точно (доверие 18)  [F1755C74]  (AR v2)
Трек  4  : извлечено точно (доверие 18)  [E4629471]  (AR v2)
Трек  5  : извлечено точно (доверие 18)  [93200FE7]  (AR v2)
Трек  6  : извлечено точно (доверие 18)  [FE385BCA]  (AR v2)
Трек  7  : извлечено точно (доверие 18)  [BCB7AB34]  (AR v2)
Трек  8  : извлечено точно (доверие 18)  [C9F3E26F]  (AR v2)
 
Все треки извлечены точно

Конец отчёта

Код:

DON'T MODIFY THIS FILE

-----------------------

PERFORMER: auCDtect Task Manager, ver. 1.6.0 RC1 build 1.6.0.1
Copyright (c) 2008-2010 y-soft. All rights reserved
http://y-soft.org

ANALYZER: auCDtect: CD records authenticity detector, version 0.8.2
Copyright (c) 2004 Oleg Berngardt. All rights reserved.
Copyright (c) 2004 Alexander Djourik. All rights reserved.

FILE: Giorgio Moroder - From Here To Eternity.wav
  Size: 325839068 Hash: 785E7D579B4E64BB6EC3E38E8EF0B44F Accuracy: -m0
  Conclusion: CDDA 100%
  Signature: 4082B5BF60E1F2DA99ADD26DC213FF131AD7505F
Год первого издания: 1977
Полиграфия: отсутствует
Лейбл: Repertoire Records
Каталоговый номер: REP 4759-WG
Тип рипа: tracks
Уровень сжатия аудио кодеком: 887

Трекер:  [ 22-Июн-2016 16:13 ]

  

Скачать .torrent

Размер .torrent файла 18 KB


Размер: 220 MB
Хэш (hash) релиза: 799647331a13f6b507d147fcac02b6bd6a744a97

Еще никто не оставлял запись к записи скачать торрент Giorgio Moroder - From Here to Eternity - 1999, FLAC . Будь первым!

!Обратная связь