Скачать через торрент музыку Криминальное Чтиво Pulp Fiction бесплатно без регистрации torrent

Если у вас наблюдаются проблемы со скриншотами, переходом по ссылками, скачиванием торрентов - проблемы в блокировщике рекламы AdBlock. #хорошегоДня!


Статистика раздачи
Размер:  223 MB   |    Зарегистрирован:  1 год 2 месяца   |    .torrent скачан:  99 раз   |   
Раздают:  1  
   
Загрузка...
 
Автор Сообщение

Galfimbul

avatar Galfimbul


Криминальное Чтиво / Pulp Fiction (Japan CD)

Жанр: Soundtrack
Год выпуска диска: 1994
Страна-производитель диска: Japan
Издатель (лейбл): MCA
Номер по каталогу: MVCM 492
Аудиокодек: FLAC (*.flac)
Тип рипа: image+.cue
Битрейт аудио: lossless
Продолжительность: 00:41:36
Источник: собственный рип
Наличие сканов в содержимом раздачи: нет
Треклист:
01. Misirlou - 2:30
02. Royale With Cheese - 1:45
03. Jungle Boogie - 3:07
04. Let's Stay Together - 3:17
05. Bustin' Surfboards - 2:29
06. Lonesome Town - 2:15
07. Son Of A Preacher Man - 2:28
08. Bullwinkle Part II - 2:31
09. You Never Can Tell - 3:14
10. Girl, You'll Be A Woman Soon - 3:10
11. If Love Is A Red Dress (Hang Me In Rags) - 4:57
12. Comanche - 2:12
13. Flowers On The Wall - 2:25
14. Personality Goes A Long Way - 1:03
15. Surf Rider - 3:20
16. Ezekiel 25:17 - 0:52
Exact Audio Copy V1.0 beta 6 from 9. April 2015

Отчёт EAC об извлечении, выполненном 19. июня 2016, 22:58

VA / Pulp Fiction

Дисковод: MATSHITADVD-RAM UJ8B1AS Adapter: 1 ID: 0

Режим чтения : ДостоверностьИспользование точного потока : ДаОтключение кэша аудио : ДаИспользование указателей C2 : Нет

Коррекция смещения при чтении : 6Способность читать области Lead-in и Lead-out : НетЗаполнение пропущенных сэмплов тишиной : ДаУдаление блоков с тишиной в начале и конце : НетПри вычислениях CRC использовались нулевые сэмплы : ДаИнтерфейс : Встроенный Win32-интерфейс для Win NT/2000

Выходной формат : Пользовательский кодировщикВыбранный битрейт : 128 kBit/sКачество : ВысокийДобавление ID3-тега : НетУтилита сжатия : C:\Program Files (x86)\Exact Audio Copy\Flac\flac.exeДополнительные параметры : -V -8 -T "Date=%year%" -T "Genre=%genre%" %source%

TOC извлечённого CD

Трек | Старт | Длительность | Начальный сектор | Конечный сектор --------------------------------------------------------------------- 1 | 0:00.37 | 2:30.02 | 37 | 11288 2 | 2:30.39 | 1:45.23 | 11289 | 19186 3 | 4:15.62 | 3:06.65 | 19187 | 33201 4 | 7:22.52 | 3:17.05 | 33202 | 47981 5 | 10:39.57 | 2:28.52 | 47982 | 59133 6 | 13:08.34 | 2:15.10 | 59134 | 69268 7 | 15:23.44 | 2:28.03 | 69269 | 80371 8 | 17:51.47 | 2:31.15 | 80372 | 91711 9 | 20:22.62 | 3:13.52 | 91712 | 106238 10 | 23:36.39 | 3:10.23 | 106239 | 120511 11 | 26:46.62 | 4:56.72 | 120512 | 142783 12 | 31:43.59 | 2:12.05 | 142784 | 152688 13 | 33:55.64 | 2:25.35 | 152689 | 163598 14 | 36:21.24 | 1:02.43 | 163599 | 168291 15 | 37:23.67 | 3:19.67 | 168292 | 183283 16 | 40:43.59 | 0:54.08 | 183284 | 187341

Характеристики диапазона извлечения и сообщения об ошибках

Выбранный диапазон

Имя файла C:\Users\Alex\Downloads\VA - Pulp Fiction\VA - Pulp Fiction Japan.wav

Пиковый уровень 97.7 % Скорость извлечения 2.6 X Качество диапазона 100.0 % CRC теста BEAE3021 CRC копии BEAE3021 Копирование... OK

Ошибок не произошло

AccurateRip: сводка

Трек 1 : извлечено точно (доверие 5) [B06BADBC] (AR v2)Трек 2 : извлечено точно (доверие 5) [F7691654] (AR v2)Трек 3 : извлечено точно (доверие 5) [A67C51FC] (AR v2)Трек 4 : извлечено точно (доверие 5) [EB842F7F] (AR v2)Трек 5 : извлечено точно (доверие 5) [777C74DB] (AR v2)Трек 6 : извлечено точно (доверие 5) [386941ED] (AR v2)Трек 7 : извлечено точно (доверие 5) [CFB4491D] (AR v2)Трек 8 : извлечено точно (доверие 5) [0C1FBBC7] (AR v2)Трек 9 : извлечено точно (доверие 5) [AB0AE903] (AR v2)Трек 10 : извлечено точно (доверие 5) [55269ECB] (AR v2)Трек 11 : извлечено точно (доверие 4) [A674E77D] (AR v2)Трек 12 : извлечено точно (доверие 5) [E28F3098] (AR v2)Трек 13 : извлечено точно (доверие 5) [DC51A57D] (AR v2)Трек 14 : извлечено точно (доверие 5) [3608ABD7] (AR v2)Трек 15 : извлечено точно (доверие 5) [78CE4CF4] (AR v2)Трек 16 : извлечено точно (доверие 5) [557F7631] (AR v2)

Все треки извлечены точно

Конец отчёта

==== Контрольная сумма отчёта 46AA482D8348B4F1B59DBDD64D52B426D1D436E50D7AD50312A8DFDED4000245 ====


Трекер:  [ 20-Июн-2016 20:30 ]

  

Скачать .torrent

Размер .torrent файла 18 KB


Размер: 223 MB
Хэш (hash) релиза: a2cbec6821bf004202b7b6bad9f57a588099a9e4

Торренты, похожие на Криминальное Чтиво Pulp Fiction скачать торрент

Форум Название Автор Размер S L Добавлен
Саундтреки к фильмам и мультфильмам (lossless) ·· (Soundtrack) Криминальное чтиво / Pulp Fiction - 1994, APE (image + .cue), lossless Galfimbul 263559231251 MB 0 0 1497044910

00:48

10-Июн-17

Собственные оцифровки ·· (Soundtrack) Криминальное чтиво / Pulp Fiction (180 Gram Vinyl Remastered) - 1994, APE (image+.cue), lossless Galfimbul 783752203747 MB 0 0 1292268490

22:28

13-Дек-10

Саундтреки к фильмам и мультфильмам (lossless) ·· (Soundtrack) Криминальное чтиво / Pulp Fiction - 1994, APE (image + .cue), lossless AqvaGen 263559231251 MB 0 0 1292268478

22:27

13-Дек-10

Саундтреки к фильмам и мультфильмам (mp3) ·· (Soundtrack) Криминальное чтиво / Pulp Fiction. Music From The Motion Picture. Collector's Edition - 2009, MP3 (tracks), 320 kbps Phoenix 167286784160 MB 0 0 1292264982

21:29

13-Дек-10

Собственные оцифровки ·· (Surf, Rock & Roll, Dialogue, Soul, Soundtrack, Funk) Pulp Fiction (Криминальное Чтиво) OST - 1994 [LP][24/96] FLAC Mos 772179343736 MB 0 0 1294848804

19:13

12-Янв-11

Саундтреки к фильмам и мультфильмам (lossless) ·· (Soundtrack) Pulp Fiction / Криминальное Чтиво (Collector's Edition) - 2002, FLAC (image+.cue), lossless AqvaGen 420109941401 MB 0 0 1292268429

22:27

13-Дек-10

Еще никто не оставлял запись к записи скачать торрент Криминальное Чтиво Pulp Fiction . Будь первым!

!Обратная связь