Скачать через торрент Деревенская глубинка бесплатно Аниме Все серии на русском torrent

Если у вас наблюдаются проблемы со скриншотами, переходом по ссылками, скачиванием торрентов - проблемы в блокировщике рекламы AdBlock. #хорошегоДня!


Статистика раздачи
Размер:  18.84 GB   |    Зарегистрирован:  1 год 6 месяцев   |    .torrent скачан:  58 раз   |   
Раздают:  1  
   
Загрузка...
 
Автор Сообщение

Galfimbul

avatar Galfimbul



Год выпуска: 2015 | Страна: Япония
Жанр: комедия, повседневность
Продолжительность: тв-сериал, 12 эп. по 25 мин.
Перевод:
▪ субтитры от Nachtwandler (Timecraft)
▪ субтитры от Усатый Ня
Озвучка:
▪ одноголосая жен от Eladiel (Onibaku)
▪ двухголосая муж/жен от Gomer & Aska (SHIZA)
Режиссер: Кавамо Синъя
Студия:
AniDB World Art MAL
Качество: BDRip | Рип: Kuramori
Тип релиза: без хардсаба, без линковки
Формат видео: MKV
Видео: x264, Hi10P, 1920x1080, 23.976fps, 8592 Kbps
Аудио JAP: FLAC, 48.0 kHz, 2ch, 736 Kbps
Аудио RUS 1-2 (ext): AAC, 48.0 kHz, 2ch, 192 Kbps
Описание: Время идет, а ученики маленькой школы Асахигаока, расположенной в одной из глубинок Японии, по-прежнему наслаждаются безмятежными буднями. Купаясь в лучах летнего солнца, скрываясь от жары среди тенистых аллей, ребята шумят и дурачатся. А на смену старым играм и занятиям приходят новые, будь то наблюдение за цветущей вишней, гонки наперегонки – непременно босиком – по обмелевшему руслу реки, выкапывание картофеля или строительство зимнего жилища эскимосов – иглу. Ведь нет ничего лучше приятной повседневности, где минуты складываются в часы незабываемого времяпрепровождения, плечом к плечу с искренними друзьями. И вот, когда кажется, будто история остановилась на месте, нужно просто внимательно приглядеться, и не заметишь, как уже нашел отдых для души. Души, умиротворенной приятной и трогательной обыденностью деревенской глубинки.
GeneralUnique ID : 182749648677514957078442659336617338006 (0x897C4D548D956D16A89A2C834A2E2496)Complete name : D:\Non Non Biyori Repeat [BDRip] [1080p] [km]\Non Non Biyori Repeat 04 [BD x264 1920x1080 FLAC] [km].mkvFormat : MatroskaFormat version : Version 4 / Version 2File size : 1.42 GiBDuration : 23mn 55sOverall bit rate mode : VariableOverall bit rate : 8 508 KbpsEncoded date : UTC 2016-06-10 21:35:10Writing application : mkvmerge v9.2.0 ('Photograph') 64bitWriting library : libebml v1.3.3 + libmatroska v1.4.4Attachments : Non Non Biyori Repeat 04 [BD x264 1920x1080 FLAC] [km].xml

VideoID : 1Format : AVCFormat/Info : Advanced Video CodecFormat profile : High 10@L4.1Format settings, CABAC : YesFormat settings, ReFrames : 4 framesCodec ID : V_MPEG4/ISO/AVCDuration : 23mn 55sBit rate : 7 771 KbpsWidth : 1 920 pixelsHeight : 1 080 pixelsDisplay aspect ratio : 16:9Frame rate mode : ConstantFrame rate : 23.976 (24000/1001) fpsColor space : YUVChroma subsampling : 4:2:0Bit depth : 10 bitsScan type : ProgressiveBits/(Pixel*Frame) : 0.156Stream size : 1.30 GiB (91%)Writing library : x264 core 148 r2665 a01e339Encoding settings : cabac=1 / ref=4 / deblock=1:-1:-1 / analyse=0x3:0x133 / me=umh / subme=10 / psy=1 / psy_rd=0.95:0.00 / mixed_ref=1 / me_range=24 / chroma_me=1 / trellis=2 / 8x8dct=1 / cqm=0 / deadzone=21,11 / fast_pskip=0 / chroma_qp_offset=-2 / threads=12 / lookahead_threads=2 / sliced_threads=0 / nr=0 / decimate=0 / interlaced=0 / bluray_compat=0 / constrained_intra=0 / bframes=8 / b_pyramid=2 / b_adapt=2 / b_bias=0 / direct=3 / weightb=1 / open_gop=0 / weightp=2 / keyint=240 / keyint_min=23 / scenecut=40 / intra_refresh=0 / rc=crf / mbtree=0 / crf=16.0 / qcomp=0.70 / qpmin=0 / qpmax=41 / qpstep=4 / ip_ratio=1.40 / pb_ratio=1.30 / aq=1:0.80Default : YesForced : NoColor range : LimitedMatrix coefficients : BT.709

AudioID : 2Format : FLACFormat/Info : Free Lossless Audio CodecCodec ID : A_FLACDuration : 23mn 55sBit rate mode : VariableBit rate : 736 KbpsChannel(s) : 2 channelsChannel positions : Front: L RSampling rate : 48.0 KHzFrame rate : 11.719 fps (4096 spf)Bit depth : 16 bitsStream size : 126 MiB (9%)Writing library : libFLAC 1.3.1 (UTC 2014-11-25)Language : JapaneseDefault : YesForced : No

Menu00:00:00.000 : en:Prologue00:00:45.045 : en:Intro00:02:15.135 : en:Episode00:22:05.198 : en:Ending00:23:39.918 : en:Preview
<a href="viewtopic.php?t=5207584" class="postLink">...5207584</a>
<a href="viewtopic.php?t=5038166" class="postLink">...5038166</a>
<a href="viewtopic.php?t=5211178" class="postLink">...5211178</a>
<a href="viewtopic.php?t=5040986" class="postLink">...5040986</a>
<a href="viewtopic.php?t=5088410" class="postLink">...5088410</a>
<a href="viewtopic.php?t=5038237" class="postLink">...5038237</a>
- BDRip 1080p
01. Теперь я первоклашка
02. Мы ходили смотреть на звёзды
03. А на каникулах мы захотели...
04. Я сделала талисман от дождя
05. Мы ели окономияки
06. Мы подружились со светлячками
07. Мы с головой нырнули...
08. Я готовила обед
09. Мы вместе смотрели на луну
10. Я очень старалась
11. Я стала балованной
12. Вот и год прошёл


Трекер:  [ 11-Июн-2016 01:30 ]

  

Скачать .torrent

Размер .torrent файла 33 KB


Размер: 18.84 GB
Хэш (hash) релиза: 178e1b99be7f9fba1f3de6c6baea3a6df3cccf81
Подписка на обновления:

Торренты, похожие на Деревенская глубинка скачать торрент

Форум Название Автор Размер S L Добавлен
Аниме | Rips ·· Деревенская глубинка (ОВА-2) / Non Non Biyori [OVA] [2 из 2] [Без хардсаба] [RUS(ext), JAP+SUB] [2016, комедия, повседневность, DVDRip] Galfimbul 283909996271 MB 0 0 1483112254

18:37

30-Дек-16

Аниме | Rips ·· Деревенская глубинка (ТВ-2) / Non Non Biyori Repeat [OVA] [1 из 1] [Без хардсаба] [JAP+SUB] [2016, комедия, повседневность, DVDRip] Galfimbul 212736186203 MB 0 0 1479150507

22:08

14-Ноя-16

Аниме | HD Rips ·· Деревенская глубинка (ТВ-2) / Non Non Biyori Repeat (Кавацура Синъя) [TV] [12 из 12] [без хардсаба] [RUS(ext), JAP+SUB] [2015 г., комедия, повседневность, BDRip] [720p] Galfimbul 72971739626.8 GB 0 0 1465730467

14:21

12-Июн-16

Аниме | HD Rips ·· Деревенская глубинка (ТВ-2) / Non Non Biyori Repeat [TV] [12 из 12] [без хардсаба] [RUS(ext), JAP+SUB] [2015 г., комедия, повседневность, BDRip] [1080p] Galfimbul 1676344114415.61 GB 0 0 1465416372

23:06

8-Июн-16

Аниме | HD Rips ·· Деревенская глубинка (ТВ-2) / Non Non Biyori Repeat [TV] [12 из 12] [Без хардсаба] [RUS(int), JAP+SUB] [2015 г., комедия, повседневность, BDRip] [720p] Galfimbul 47648609964.44 GB 0 0 1461093560

22:19

19-Апр-16

Аниме | HD Rips ·· Деревенская глубинка / Non Non Biyori Repeat [TV] [12 из 12] [Без хардсаба] [RUS(int), JAP+SUB] [2015 г., комедия, повседневность, BDRip] [720p] Galfimbul 47648609964.44 GB 0 0 1461069356

15:35

19-Апр-16

Аниме | HD Rips ·· Деревенская глубинка (ТВ-2) / Non Non Biyori Repeat (Кавацура Синъя) [TV] [12 из 12] [без хардсаба] [RUS(ext), JAP+SUB] [2015 г., комедия, повседневность, BDRemux] [1080p] Galfimbul 8947167483483.33 GB 0 0 1460497519

00:45

13-Апр-16

Аниме | Rips ·· Деревенская глубинка / Non Non Biyori [OVA] [1 из 1] [Без хардсаба] [RUS(int), JAP+SUB] [2014 г., комедия, повседневность, DVDRip] Galfimbul 219080033209 MB 0 0 1456670358

17:39

28-Фев-16

Аниме | Rips ·· Деревенская глубинка (ТВ-1) / Non Non Biyori [TV] [12 из 12] [без хардсаба] [RUS(int), JAP+SUB] [2013 г., комедия, повседневность, BDRip] Galfimbul 23750194372.21 GB 0 0 1450619814

16:56

20-Дек-15

Аниме | Rips ·· Деревенская глубинка (ТВ-2) / И вновь погожие деньки / Non Non Biyori Repeat [TV] [4 из 12] [Без хардсаба] [RUS(int), JAP + SUB] [2015 г., комедия, повседневность, HDTVRip] [HWP] Galfimbul 10689602161019 MB 0 0 1438628711

22:05

3-Авг-15

Аниме | HD Rips ·· Деревенская глубинка (ТВ-2) / И вновь погожие деньки / Non Non Biyori Repeat [TV] [2 из 12] [Без хардсаба] [JAP+SUB] [2015 г., комедия, повседневность, школа, WEBRip] [720p] Galfimbul 683998443652 MB 0 0 1437172374

01:32

18-Июл-15

Аниме | HD Rips ·· Деревенская глубинка (ТВ-2) / И вновь погожие деньки / Non Non Biyori Repeat [TV] [1 из 12] [Без хардсаба] [JAP+SUB] [2015 г., комедия, повседневность, школа, WEBRip] [1080p] Galfimbul 574500359548 MB 0 0 1436264347

13:19

7-Июл-15

Аниме | Rips ·· Деревенская глубинка / Non Non Biyori [OVA] [1 из 1] [Без хардсаба] [RUS(int)] [2014 г., комедия, DVDRip] Galfimbul 214418972204 MB 0 0 1410244257

09:30

9-Сен-14

Аниме | HD Rips ·· Прекрасные деньки / Деревенская глубинка / Глухомань / Non Non Biyori (Кавамо Синъя) [TV] [01-12 из 12] [Без хардсаба] [JAP+SUB] [2013 г., комедия, повседневность, WEBRip] [1080p] Polarnik 68976983596.42 GB 0 0 1385412172

23:42

25-Ноя-13

Аниме | HD Rips ·· Прекрасные деньки / Деревенская глубинка / Глухомань / Non Non Biyori (Кавамо Синъя) [TV] [01-06 из 12] [Без хардсаба] [RUS(int), JAP+SUB] [2013 г., комедия, повседневность, HDTVRip] [720p] Polarnik 20514841751.91 GB 0 0 1385390158

17:35

25-Ноя-13

Аниме | HD Rips ·· Деревенская глубинка / Non Non Biyori [TV] [1 из 12] [Без хардсаба] [JAP, SUB] [2013 г., комедия, повседневность, WEBRip] [720p] Polarnik 341903401326 MB 0 0 1381266868

00:14

9-Окт-13

Еще никто не оставлял запись к записи скачать торрент Деревенская глубинка . Будь первым!

!Обратная связь