The Wind Rises torrent

, , - AdBlock. #!


55.27 GB   |    :  1 3    |    .torrent :  74    |   
1  
   
...
 

Galfimbul

avatar Galfimbul


<a href="viewtopic.php?t=5201418" class="postLink"> </a><a href="viewtopic.php?t=5117796/" class="postLink"> </a><a href="viewtopic.php?t=4722800" class="postLink"> </a><a href="viewtopic.php?t=4612785" class="postLink"> </a><a href="viewtopic.php?t=4629918" class="postLink"> </a><a href="viewtopic.php?t=3690943" class="postLink"> </a><a href="viewtopic.php?t=5231678" class="postLink"> </a><a href="viewtopic.php?t=4766434" class="postLink"> </a><a href="viewtopic.php?t=4651642" class="postLink"> </a><a href="viewtopic.php?t=4901371" class="postLink"> </a><a href="viewtopic.php?t=4178733" class="postLink"> </a><a href="viewtopic.php?t=4936128/" class="postLink"> </a><a href="viewtopic.php?t=4978082" class="postLink"> </a><a href="viewtopic.php?t=4851914" class="postLink"> </a><a href="viewtopic.php?t=4119317" class="postLink"> </a><a href="viewtopic.php?t=5043266" class="postLink"> </a><a href="viewtopic.php?t=5006347" class="postLink"> </a><a href="viewtopic.php?t=3875703" class="postLink"> </a><a href="viewtopic.php?t=4465304" class="postLink"> </a><a href="viewtopic.php?t=5180830" class="postLink"> </a><a href="viewtopic.php?t=5071976/" class="postLink"> </a><a href="viewtopic.php?t=5135718/" class="postLink"> </a><a href="viewtopic.php?t=5231419" class="postLink"> </a><a href="viewtopic.php?t=4989310" class="postLink"> </a><a href="viewtopic.php?t=4979621" class="postLink"> </a>Kaze Tachinu / 風立ちぬ / The Wind Rises
:
: 2013 .
: , ,
: Movie
: 126 .
: Hayao Miyazaki
: Ghibli

: Blu-ray
:
: M2TS
: MPEG-4 AVC Video / 1920x1080 / 32514 kbps / 23,976 fps / 16:9 / High Profile 4.1
1: () LPCM Audio 2.0 / 48 kHz / 2304 kbps / 24-bit
2: DTS-HD Master Audio / 1.0 / 48 kHz / 1127 kbps / 24-bit (DTS Core: 1.0 / 48 kHz / 768 kbps / 24-bit)
3: Dolby Digital Audio / 1.0 / 48 kHz / 448 kbps
4: [ (, )] LPCM Audio 2.0 / 48 kHz / 2304 kbps / 24-bit
5: [. (, )] Dolby Digital Audio / 1.0 / 48 kHz / 448 kbps
1: ,
2: ,
3: , [Disney]
4: , []
5: , [YakuSub Studio] : " "
"" , . , .
(19121926) . , .
. , , " A6M1", " 0". 1940- "" .
, , , : 1923 , , , , , , . , , . .
, . , "". , , , - .
, . , . - . .
, . . .
" " . "Le vent se lève, il faut tenter de vivre" : "Kaze tachinu, iza ikimeyamo" (" ! "). "" , , . , 30- . , "", , . , , .
10 2011

. :
"" Caproni Ca.309 Ghibli, .
" " ( ) .
, .
, 1973 . Ÿ "<a href="viewtopic.php?t=4901371" class="postLink"> </a>".
"<a href="viewtopic.php?t=4989310" class="postLink"> </a>" .
. , 1:
<ol class="post-ul">
</ol>
, 2:
<ol class="post-ul">
, " "


( BurniN∙SnikerS, TFloater, Advokat).
</ol>


:
TFloater, ill Frog, E320 Sportline, crazy_gringo, Reigar., HARVESTjr
1 MGVC- " " " ". , .. . .
.

Sonic Scenarist 5.7.2. Sony PS3, PowerDVD 15 Toshiba BDX1200.
Disc Title: Kaze Tachinu Disc 1Disc Size: 43 390 744 381 bytesProtection: AACSBD-Java: NoBDInfo: 0.5.8

Notes:

BDINFO HOME: Cinema Squid http://www.cinemasquid.com/blu-ray/tools/bdinfo

INCLUDES FORUMS REPORT FOR: AVS Forum Blu-ray Audio and Video Specifications Thread http://www.avsforum.com/avs-vb/showthread.php?t=1155731

********************PLAYLIST: 00000.MPLS********************

<--- BEGIN FORUMS PASTE --->

Total Video
Title Codec Length Movie Size Disc Size Bitrate Bitrate Main Audio Track Secondary Audio Track
----- ------ ------- -------------- -------------- ------- ------- ------------------ ---------------------
00000.MPLS AVC 2:06:31 39207450624 43390744381 41.32 32.51 LPCM 2.0 2304Kbps (48kHz/24-bit) DTS-HD Master 1.0 1127Kbps (48kHz/24-bit)
DISC INFO:

Disc Title: Kaze Tachinu Disc 1
Disc Size: 43390744381 bytes
Protection: AACS
BD-Java: No
BDInfo: 0.5.8

PLAYLIST REPORT:

Name: 00000.MPLS
Length: 2:06:31.166 (h:m:s.ms)
Size: 39207450624 bytes
Total Bitrate: 41.32 Mbps

VIDEO:

Codec Bitrate Description
----- ------- -----------
MPEG-4 AVC Video 32514 kbps 1080p / 23.976 fps / 16:9 / High Profile 4.1

AUDIO:

Codec Language Bitrate Description
----- -------- ------- -----------
LPCM Audio Japanese 2304 kbps 2.0 / 48 kHz / 2304 kbps / 24-bit
DTS-HD Master Audio Japanese 1127 kbps 1.0 / 48 kHz / 1127 kbps / 24-bit (DTS Core: 1.0 / 48 kHz / 768 kbps / 24-bit)
Dolby Digital Audio English 448 kbps 1.0 / 48 kHz / 448 kbps / DN -4dB
LPCM Audio Russian 2304 kbps 2.0 / 48 kHz / 2304 kbps / 24-bit
Dolby Digital Audio Russian 448 kbps 1.0 / 48 kHz / 448 kbps / DN -4dB

SUBTITLES:

Codec Language Bitrate Description
----- -------- ------- -----------
Presentation Graphics Japanese 22.644 kbps
Presentation Graphics English 28.274 kbps
Presentation Graphics English 15.331 kbps
Presentation Graphics Russian 24.022 kbps
Presentation Graphics Russian 25.752 kbps

FILES:

Name Time In Length Size Total Bitrate
---- ------- ------ ---- -------------
00000.M2TS 0:00:00.000 0:03:45.141 1149075456 40830
00002.M2TS 0:03:45.141 1:59:11.602 36970358784 41356
00003.M2TS 2:02:56.744 0:03:34.422 1088016384 40593

CHAPTERS:

Number Time In Length Avg Video Rate Max 1-Sec Rate Max 1-Sec Time Max 5-Sec Rate Max 5-Sec Time Max 10Sec Rate Max 10Sec Time Avg Frame Size Max Frame Size Max Frame Time
------ ------- ------ -------------- -------------- -------------- -------------- -------------- -------------- -------------- -------------- -------------- --------------
1 0:00:00.000 0:07:09.220 30911 kbps 61245 kbps 00:00:34.075 43809 kbps 00:03:14.611 42052 kbps 00:02:16.970 161138 bytes 849570 bytes 00:05:33.541
2 0:07:09.220 0:05:43.468 35758 kbps 55645 kbps 00:10:59.742 45310 kbps 00:08:38.142 41775 kbps 00:08:22.877 186424 bytes 741986 bytes 00:10:08.316
3 0:12:52.688 0:09:01.290 37673 kbps 63559 kbps 00:15:39.980 44764 kbps 00:15:48.864 42021 kbps 00:14:12.309 196411 bytes 791966 bytes 00:19:06.979
4 0:21:53.979 0:08:12.492 30972 kbps 52291 kbps 00:23:28.323 45087 kbps 00:23:20.065 41931 kbps 00:23:28.323 161474 bytes 846432 bytes 00:24:05.694
5 0:30:06.471 0:07:42.962 35256 kbps 53094 kbps 00:33:10.780 44336 kbps 00:30:40.129 41352 kbps 00:30:34.707 183811 bytes 870259 bytes 00:35:22.119
6 0:37:49.433 0:07:08.094 32720 kbps 56905 kbps 00:40:06.946 44922 kbps 00:40:26.257 42187 kbps 00:40:26.423 170587 bytes 759293 bytes 00:38:01.362
7 0:44:57.528 0:08:02.106 30832 kbps 49914 kbps 00:46:08.265 43545 kbps 00:49:34.513 41407 kbps 00:45:41.822 160746 bytes 936455 bytes 00:46:08.682
8 0:52:59.634 0:07:34.120 34369 kbps 50594 kbps 00:55:41.629 44299 kbps 00:57:04.379 42053 kbps 00:57:03.294 179186 bytes 778920 bytes 00:55:23.987
9 1:00:33.755 0:07:32.535 36364 kbps 57041 kbps 01:01:52.834 44268 kbps 01:06:01.832 41685 kbps 01:04:11.180 189587 bytes 855372 bytes 01:04:11.222
10 1:08:06.290 0:09:06.629 33370 kbps 50002 kbps 01:08:34.902 44848 kbps 01:11:42.089 42476 kbps 01:11:43.090 173973 bytes 826046 bytes 01:10:16.629
11 1:17:12.919 0:11:31.107 28993 kbps 49564 kbps 01:28:18.167 43631 kbps 01:27:23.488 41053 kbps 01:24:56.007 151158 bytes 815854 bytes 01:28:18.418
12 1:28:44.027 0:06:36.521 29007 kbps 49380 kbps 01:31:46.375 43635 kbps 01:29:12.638 40508 kbps 01:31:52.465 151228 bytes 820986 bytes 01:31:51.756
13 1:35:20.548 0:11:18.511 30805 kbps 50419 kbps 01:39:19.870 44072 kbps 01:39:15.949 40234 kbps 01:36:06.427 160604 bytes 917301 bytes 01:36:14.560
14 1:46:39.059 0:06:06.824 31277 kbps 58409 kbps 01:52:16.438 42727 kbps 01:52:12.434 40867 kbps 01:46:41.978 163064 bytes 808099 bytes 01:46:59.871
15 1:52:45.884 0:06:21.756 31379 kbps 57889 kbps 01:59:05.513 43465 kbps 01:58:34.398 40343 kbps 01:55:59.452 163595 bytes 800011 bytes 01:53:02.567
16 1:59:07.640 0:03:49.103 32418 kbps 53442 kbps 02:02:53.699 43861 kbps 02:00:48.407 40740 kbps 02:00:42.109 169013 bytes 783708 bytes 01:59:41.173
17 2:02:56.744 0:03:33.421 31896 kbps 65215 kbps 02:03:02.875 44391 kbps 02:04:19.410 41123 kbps 02:04:17.533 166289 bytes 978162 bytes 02:03:12.676
18 2:06:30.165 0:00:01.001 78 kbps 0 kbps 00:00:00.000 0 kbps 00:00:00.000 0 kbps 00:00:00.000 426 bytes 535 bytes 02:06:31.125

STREAM DIAGNOSTICS:

File PID Type Codec Language Seconds Bitrate Bytes Packets
---- --- ---- ----- -------- -------------- -------------- ------------- -----
00000.M2TS 4113 (0x1011) 0x1B AVC 224.975 31896 896965391 4877915
00000.M2TS 4352 (0x1100) 0x80 LPCM jpn (Japanese) 224.975 2312 65021876 360232
00000.M2TS 4353 (0x1101) 0x86 DTS-HD MA jpn (Japanese) 224.975 1138 31998708 194621
00000.M2TS 4354 (0x1102) 0x81 AC3 eng (English) 224.975 448 12608512 70360
00000.M2TS 4355 (0x1103) 0x80 LPCM rus (Russian) 224.975 2312 65021876 360232
00000.M2TS 4356 (0x1104) 0x81 AC3 rus (Russian) 224.975 448 12608512 70360
00000.M2TS 4608 (0x1200) 0x90 PGS jpn (Japanese) 224.975 0 1442 15
00000.M2TS 4609 (0x1201) 0x90 PGS eng (English) 224.975 6 155268 867
00000.M2TS 4610 (0x1202) 0x90 PGS eng (English) 224.975 1 27001 159
00000.M2TS 4611 (0x1203) 0x90 PGS rus (Russian) 224.975 137 3864240 21545
00000.M2TS 4612 (0x1204) 0x90 PGS rus (Russian) 224.975 133 3748262 20885
00002.M2TS 4113 (0x1011) 0x1B AVC 7151.478 32558 29104776957 158278284
00002.M2TS 4352 (0x1100) 0x80 LPCM jpn (Japanese) 7151.478 2310 2065383524 11442568
00002.M2TS 4353 (0x1101) 0x86 DTS-HD MA jpn (Japanese) 7151.478 1128 1008225240 6123725
00002.M2TS 4354 (0x1102) 0x81 AC3 eng (English) 7151.478 448 400490496 2234880
00002.M2TS 4355 (0x1103) 0x80 LPCM rus (Russian) 7151.478 2310 2065383524 11442568
00002.M2TS 4356 (0x1104) 0x81 AC3 rus (Russian) 7151.478 448 400490496 2234880
00002.M2TS 4608 (0x1200) 0x90 PGS jpn (Japanese) 7151.478 24 21136706 124894
00002.M2TS 4609 (0x1201) 0x90 PGS eng (English) 7151.478 29 25843425 147560
00002.M2TS 4610 (0x1202) 0x90 PGS eng (English) 7151.478 16 14488890 85139
00002.M2TS 4611 (0x1203) 0x90 PGS rus (Russian) 7151.478 18 16193836 93736
00002.M2TS 4612 (0x1204) 0x90 PGS rus (Russian) 7151.478 20 18185105 106131
00003.M2TS 4113 (0x1011) 0x1B AVC 214.297 31766 850912766 4627491
00003.M2TS 4352 (0x1100) 0x80 LPCM jpn (Japanese) 214.297 2301 61650136 341552
00003.M2TS 4353 (0x1101) 0x86 DTS-HD MA jpn (Japanese) 214.297 1105 29609828 180631
00003.M2TS 4354 (0x1102) 0x81 AC3 eng (English) 214.297 435 11640832 64960
00003.M2TS 4355 (0x1103) 0x80 LPCM rus (Russian) 214.297 2302 61660244 341608
00003.M2TS 4356 (0x1104) 0x81 AC3 rus (Russian) 214.297 446 11956224 66720
00003.M2TS 4608 (0x1200) 0x90 PGS jpn (Japanese) 214.297 13 348603 2075
00003.M2TS 4609 (0x1201) 0x90 PGS eng (English) 214.297 31 830800 4764
00003.M2TS 4610 (0x1202) 0x90 PGS eng (English) 214.297 1 31229 190
00003.M2TS 4611 (0x1203) 0x90 PGS rus (Russian) 214.297 102 2735938 15425
00003.M2TS 4612 (0x1204) 0x90 PGS rus (Russian) 214.297 93 2502200 14151
<pre>
<---- END FORUMS PASTE ---->

QUICK SUMMARY:

Disc Title: Kaze Tachinu Disc 1Disc Size: 43 390 744 381 bytesProtection: AACSBD-Java: NoPlaylist: 00000.MPLSSize: 39 207 450 624 bytesLength: 2:06:31.166Total Bitrate: 41.32 MbpsVideo: MPEG-4 AVC Video / 32514 kbps / 1080p / 23.976 fps / 16:9 / High Profile 4.1Audio: Japanese / LPCM Audio / 2.0 / 48 kHz / 2304 kbps / 24-bitAudio: Japanese / DTS-HD Master Audio / 1.0 / 48 kHz / 1127 kbps / 24-bit (DTS Core: 1.0 / 48 kHz / 768 kbps / 24-bit)Audio: English / Dolby Digital Audio / 1.0 / 48 kHz / 448 kbps / DN -4dBAudio: Russian / LPCM Audio / 2.0 / 48 kHz / 2304 kbps / 24-bitAudio: Russian / Dolby Digital Audio / 1.0 / 48 kHz / 448 kbps / DN -4dBSubtitle: Japanese / 22.644 kbpsSubtitle: English / 28.274 kbpsSubtitle: English / 15.331 kbpsSubtitle: Russian / 24.022 kbpsSubtitle: Russian / 25.752 kbps

********************PLAYLIST: 00001.MPLS********************

<--- BEGIN FORUMS PASTE --->
</pre>
Total Video
Title Codec Length Movie Size Disc Size Bitrate Bitrate Main Audio Track Secondary Audio Track
----- ------ ------- -------------- -------------- ------- ------- ------------------ ---------------------
00001.MPLS AVC 2:06:31 39107008512 43390744381 41.21 32.42 LPCM 2.0 2304Kbps (48kHz/24-bit) DTS-HD Master 1.0 1127Kbps (48kHz/24-bit)
DISC INFO:

Disc Title: Kaze Tachinu Disc 1
Disc Size: 43390744381 bytes
Protection: AACS
BD-Java: No
BDInfo: 0.5.8

PLAYLIST REPORT:

Name: 00001.MPLS
Length: 2:06:31.166 (h:m:s.ms)
Size: 39107008512 bytes
Total Bitrate: 41.21 Mbps

VIDEO:

Codec Bitrate Description
----- ------- -----------
MPEG-4 AVC Video 32415 kbps 1080p / 23.976 fps / 16:9 / High Profile 4.1

AUDIO:

Codec Language Bitrate Description
----- -------- ------- -----------
LPCM Audio Japanese 2304 kbps 2.0 / 48 kHz / 2304 kbps / 24-bit
DTS-HD Master Audio Japanese 1127 kbps 1.0 / 48 kHz / 1127 kbps / 24-bit (DTS Core: 1.0 / 48 kHz / 768 kbps / 24-bit)
Dolby Digital Audio English 448 kbps 1.0 / 48 kHz / 448 kbps / DN -4dB
LPCM Audio Russian 2304 kbps 2.0 / 48 kHz / 2304 kbps / 24-bit
Dolby Digital Audio Russian 448 kbps 1.0 / 48 kHz / 448 kbps / DN -4dB

SUBTITLES:

Codec Language Bitrate Description
----- -------- ------- -----------
Presentation Graphics Japanese 22.644 kbps
Presentation Graphics English 27.238 kbps
Presentation Graphics English 15.272 kbps
Presentation Graphics Russian 22.706 kbps
Presentation Graphics Russian 25.621 kbps

FILES:

Name Time In Length Size Total Bitrate
---- ------- ------ ---- -------------
00001.M2TS 0:00:00.000 0:03:45.141 1100931072 39120
00002.M2TS 0:03:45.141 1:59:11.602 36970358784 41356
00004.M2TS 2:02:56.744 0:03:34.422 1035718656 38642

CHAPTERS:

Number Time In Length Avg Video Rate Max 1-Sec Rate Max 1-Sec Time Max 5-Sec Rate Max 5-Sec Time Max 10Sec Rate Max 10Sec Time Avg Frame Size Max Frame Size Max Frame Time
------ ------- ------ -------------- -------------- -------------- -------------- -------------- -------------- -------------- -------------- -------------- --------------
1 0:00:00.000 0:07:09.220 30056 kbps 60296 kbps 00:03:32.962 43781 kbps 00:02:17.679 41853 kbps 00:02:16.970 156681 bytes 849570 bytes 00:05:33.541
2 0:07:09.220 0:05:43.468 35758 kbps 55645 kbps 00:10:59.742 45310 kbps 00:08:38.142 41775 kbps 00:08:22.877 186424 bytes 741986 bytes 00:10:08.316
3 0:12:52.688 0:09:01.290 37673 kbps 63559 kbps 00:15:39.980 44764 kbps 00:15:48.864 42021 kbps 00:14:12.309 196411 bytes 791966 bytes 00:19:06.979
4 0:21:53.979 0:08:12.492 30972 kbps 52291 kbps 00:23:28.323 45087 kbps 00:23:20.065 41931 kbps 00:23:28.323 161474 bytes 846432 bytes 00:24:05.694
5 0:30:06.471 0:07:42.962 35256 kbps 53094 kbps 00:33:10.780 44336 kbps 00:30:40.129 41352 kbps 00:30:34.707 183811 bytes 870259 bytes 00:35:22.119
6 0:37:49.433 0:07:08.094 32720 kbps 56905 kbps 00:40:06.946 44922 kbps 00:40:26.257 42187 kbps 00:40:26.423 170587 bytes 759293 bytes 00:38:01.362
7 0:44:57.528 0:08:02.106 30832 kbps 49914 kbps 00:46:08.265 43545 kbps 00:49:34.513 41407 kbps 00:45:41.822 160746 bytes 936455 bytes 00:46:08.682
8 0:52:59.634 0:07:34.120 34369 kbps 50594 kbps 00:55:41.629 44299 kbps 00:57:04.379 42053 kbps 00:57:03.294 179186 bytes 778920 bytes 00:55:23.987
9 1:00:33.755 0:07:32.535 36364 kbps 57041 kbps 01:01:52.834 44268 kbps 01:06:01.832 41685 kbps 01:04:11.180 189587 bytes 855372 bytes 01:04:11.222
10 1:08:06.290 0:09:06.629 33370 kbps 50002 kbps 01:08:34.902 44848 kbps 01:11:42.089 42476 kbps 01:11:43.090 173973 bytes 826046 bytes 01:10:16.629
11 1:17:12.919 0:11:31.107 28993 kbps 49564 kbps 01:28:18.167 43631 kbps 01:27:23.488 41053 kbps 01:24:56.007 151158 bytes 815854 bytes 01:28:18.418
12 1:28:44.027 0:06:36.521 29007 kbps 49380 kbps 01:31:46.375 43635 kbps 01:29:12.638 40508 kbps 01:31:52.465 151228 bytes 820986 bytes 01:31:51.756
13 1:35:20.548 0:11:18.511 30805 kbps 50419 kbps 01:39:19.870 44072 kbps 01:39:15.949 40234 kbps 01:36:06.427 160604 bytes 917301 bytes 01:36:14.560
14 1:46:39.059 0:06:06.824 31277 kbps 58409 kbps 01:52:16.438 42727 kbps 01:52:12.434 40867 kbps 01:46:41.978 163064 bytes 808099 bytes 01:46:59.871
15 1:52:45.884 0:06:21.756 31379 kbps 57889 kbps 01:59:05.513 43465 kbps 01:58:34.398 40343 kbps 01:55:59.452 163595 bytes 800011 bytes 01:53:02.567
16 1:59:07.640 0:03:49.103 32418 kbps 53442 kbps 02:02:53.699 43861 kbps 02:00:48.407 40740 kbps 02:00:42.109 169013 bytes 783708 bytes 01:59:41.173
17 2:02:56.744 0:03:33.421 30098 kbps 64812 kbps 02:03:02.917 43019 kbps 02:04:08.941 40970 kbps 02:04:08.232 156919 bytes 878184 bytes 02:04:13.571
18 2:06:30.165 0:00:01.001 78 kbps 0 kbps 00:00:00.000 0 kbps 00:00:00.000 0 kbps 00:00:00.000 426 bytes 535 bytes 02:06:31.125

STREAM DIAGNOSTICS:

File PID Type Codec Language Seconds Bitrate Bytes Packets
---- --- ---- ----- -------- -------------- -------------- ------------- -----
00001.M2TS 4113 (0x1011) 0x1B AVC 224.975 30265 851099854 4628641
00001.M2TS 4352 (0x1100) 0x80 LPCM jpn (Japanese) 224.975 2312 65021876 360232
00001.M2TS 4353 (0x1101) 0x86 DTS-HD MA jpn (Japanese) 224.975 1138 31998708 194621
00001.M2TS 4354 (0x1102) 0x81 AC3 eng (English) 224.975 448 12608512 70360
00001.M2TS 4355 (0x1103) 0x80 LPCM rus (Russian) 224.975 2312 65021876 360232
00001.M2TS 4356 (0x1104) 0x81 AC3 rus (Russian) 224.975 448 12608512 70360
00001.M2TS 4608 (0x1200) 0x90 PGS jpn (Japanese) 224.975 0 1442 15
00001.M2TS 4609 (0x1201) 0x90 PGS eng (English) 224.975 0 1370 15
00001.M2TS 4610 (0x1202) 0x90 PGS eng (English) 224.975 0 1370 15
00001.M2TS 4611 (0x1203) 0x90 PGS rus (Russian) 224.975 135 3805573 21216
00001.M2TS 4612 (0x1204) 0x90 PGS rus (Russian) 224.975 132 3715628 20725
00002.M2TS 4113 (0x1011) 0x1B AVC 7151.478 32558 29104776957 158278284
00002.M2TS 4352 (0x1100) 0x80 LPCM jpn (Japanese) 7151.478 2310 2065383524 11442568
00002.M2TS 4353 (0x1101) 0x86 DTS-HD MA jpn (Japanese) 7151.478 1128 1008225240 6123725
00002.M2TS 4354 (0x1102) 0x81 AC3 eng (English) 7151.478 448 400490496 2234880
00002.M2TS 4355 (0x1103) 0x80 LPCM rus (Russian) 7151.478 2310 2065383524 11442568
00002.M2TS 4356 (0x1104) 0x81 AC3 rus (Russian) 7151.478 448 400490496 2234880
00002.M2TS 4608 (0x1200) 0x90 PGS jpn (Japanese) 7151.478 24 21136706 124894
00002.M2TS 4609 (0x1201) 0x90 PGS eng (English) 7151.478 29 25843425 147560
00002.M2TS 4610 (0x1202) 0x90 PGS eng (English) 7151.478 16 14488890 85139
00002.M2TS 4611 (0x1203) 0x90 PGS rus (Russian) 7151.478 18 16193836 93736
00002.M2TS 4612 (0x1204) 0x90 PGS rus (Russian) 7151.478 20 18185105 106131
00004.M2TS 4113 (0x1011) 0x1B AVC 214.297 29976 802966799 4366911
00004.M2TS 4352 (0x1100) 0x80 LPCM jpn (Japanese) 214.297 2301 61650136 341552
00004.M2TS 4353 (0x1101) 0x86 DTS-HD MA jpn (Japanese) 214.297 1105 29609828 180631
00004.M2TS 4354 (0x1102) 0x81 AC3 eng (English) 214.297 435 11640832 64960
00004.M2TS 4355 (0x1103) 0x80 LPCM rus (Russian) 214.297 2302 61660244 341608
00004.M2TS 4356 (0x1104) 0x81 AC3 rus (Russian) 214.297 446 11956224 66720
00004.M2TS 4608 (0x1200) 0x90 PGS jpn (Japanese) 214.297 13 348603 2075
00004.M2TS 4609 (0x1201) 0x90 PGS eng (English) 214.297 0 1370 15
00004.M2TS 4610 (0x1202) 0x90 PGS eng (English) 214.297 0 1370 15
00004.M2TS 4611 (0x1203) 0x90 PGS rus (Russian) 214.297 58 1546385 8921
00004.M2TS 4612 (0x1204) 0x90 PGS rus (Russian) 214.297 90 2411240 13794
<pre>
<---- END FORUMS PASTE ---->

QUICK SUMMARY:

Disc Title: Kaze Tachinu Disc 1Disc Size: 43 390 744 381 bytesProtection: AACSBD-Java: NoPlaylist: 00001.MPLSSize: 39 107 008 512 bytesLength: 2:06:31.166Total Bitrate: 41.21 MbpsVideo: MPEG-4 AVC Video / 32415 kbps / 1080p / 23.976 fps / 16:9 / High Profile 4.1Audio: Japanese / LPCM Audio / 2.0 / 48 kHz / 2304 kbps / 24-bitAudio: Japanese / DTS-HD Master Audio / 1.0 / 48 kHz / 1127 kbps / 24-bit (DTS Core: 1.0 / 48 kHz / 768 kbps / 24-bit)Audio: English / Dolby Digital Audio / 1.0 / 48 kHz / 448 kbps / DN -4dBAudio: Russian / LPCM Audio / 2.0 / 48 kHz / 2304 kbps / 24-bitAudio: Russian / Dolby Digital Audio / 1.0 / 48 kHz / 448 kbps / DN -4dBSubtitle: Japanese / 22.644 kbpsSubtitle: English / 27.238 kbpsSubtitle: English / 15.272 kbpsSubtitle: Russian / 22.706 kbpsSubtitle: Russian / 25.621 kbps

********************PLAYLIST: 00005.MPLS********************

<--- BEGIN FORUMS PASTE --->
</pre>
Total Video
Title Codec Length Movie Size Disc Size Bitrate Bitrate Main Audio Track Secondary Audio Track
----- ------ ------- -------------- -------------- ------- ------- ------------------ ---------------------
00005.MPLS AVC 0:10:46 1819453440 43390744381 22.52 20.99 DD AC3 2.0 320Kbps
DISC INFO:

Disc Title: Kaze Tachinu Disc 1
Disc Size: 43390744381 bytes
Protection: AACS
BD-Java: No
BDInfo: 0.5.8

PLAYLIST REPORT:

Name: 00005.MPLS
Length: 0:10:46.228 (h:m:s.ms)
Size: 1819453440 bytes
Total Bitrate: 22.52 Mbps

VIDEO:

Codec Bitrate Description
----- ------- -----------
MPEG-4 AVC Video 20995 kbps 1080p / 23.976 fps / 16:9 / High Profile 4.1

AUDIO:

Codec Language Bitrate Description
----- -------- ------- -----------
Dolby Digital Audio English 320 kbps 2.0 / 48 kHz / 320 kbps

SUBTITLES:

Codec Language Bitrate Description
----- -------- ------- -----------
Presentation Graphics English 76.489 kbps
Presentation Graphics Russian 69.158 kbps

FILES:

Name Time In Length Size Total Bitrate
---- ------- ------ ---- -------------
00006.M2TS 0:00:00.000 0:10:46.228 1819453440 22524

CHAPTERS:

Number Time In Length Avg Video Rate Max 1-Sec Rate Max 1-Sec Time Max 5-Sec Rate Max 5-Sec Time Max 10Sec Rate Max 10Sec Time Avg Frame Size Max Frame Size Max Frame Time
------ ------- ------ -------------- -------------- -------------- -------------- -------------- -------------- -------------- -------------- -------------- --------------
1 0:00:00.000 0:10:46.228 20995 kbps 36734 kbps 00:02:15.718 30190 kbps 00:06:23.758 29073 kbps 00:05:12.020 109457 bytes 460275 bytes 00:00:21.688

STREAM DIAGNOSTICS:

File PID Type Codec Language Seconds Bitrate Bytes Packets
---- --- ---- ----- -------- -------------- -------------- ------------- -----
00006.M2TS 4113 (0x1011) 0x1B AVC 646.062 21000 1695933658 9226167
00006.M2TS 4352 (0x1100) 0x81 AC3 eng (English) 646.062 320 25849600 161560
00006.M2TS 4608 (0x1200) 0x90 PGS eng (English) 646.062 77 6178687 35083
00006.M2TS 4609 (0x1201) 0x90 PGS rus (Russian) 646.062 69 5586455 31833
<pre>
<---- END FORUMS PASTE ---->

QUICK SUMMARY:

Disc Title: Kaze Tachinu Disc 1Disc Size: 43 390 744 381 bytesProtection: AACSBD-Java: NoPlaylist: 00005.MPLSSize: 1 819 453 440 bytesLength: 0:10:46.228Total Bitrate: 22.52 MbpsVideo: MPEG-4 AVC Video / 20995 kbps / 1080p / 23.976 fps / 16:9 / High Profile 4.1Audio: English / Dolby Digital Audio / 2.0 / 48 kHz / 320 kbpsSubtitle: English / 76.489 kbpsSubtitle: Russian / 69.158 kbps

********************PLAYLIST: 00006.MPLS********************

<--- BEGIN FORUMS PASTE --->
</pre>
Total Video
Title Codec Length Movie Size Disc Size Bitrate Bitrate Main Audio Track Secondary Audio Track
----- ------ ------- -------------- -------------- ------- ------- ------------------ ---------------------
00006.MPLS MPEG-2 0:02:41 60371520 43390744381 3.00 1.44
DISC INFO:

Disc Title: Kaze Tachinu Disc 1
Disc Size: 43390744381 bytes
Protection: AACS
BD-Java: No
BDInfo: 0.5.8

PLAYLIST REPORT:

Name: 00006.MPLS
Length: 0:02:41.160 (h:m:s.ms)
Size: 60371520 bytes
Total Bitrate: 3.00 Mbps

VIDEO:

Codec Bitrate Description
----- ------- -----------
MPEG-2 Video 1441 kbps 1080p / 23.976 fps / 16:9

FILES:

Name Time In Length Size Total Bitrate
---- ------- ------ ---- -------------
00005.M2TS 0:00:00.000 0:00:01.000 360960 1473
00005.M2TS 0:00:01.000 0:00:01.000 290304 1185
00005.M2TS 0:00:02.001 0:00:01.001 383232 1564
00005.M2TS 0:00:03.003 0:00:01.000 292032 1192
00005.M2TS 0:00:04.004 0:00:01.000 109248 446
00005.M2TS 0:00:05.004 0:00:01.000 216576 884
00005.M2TS 0:00:06.005 0:00:01.000 338496 1381
00005.M2TS 0:00:07.006 0:00:01.001 341376 1393
00005.M2TS 0:00:08.008 0:00:01.000 328128 1339
00005.M2TS 0:00:09.009 0:00:01.000 317376 1295
00005.M2TS 0:00:10.009 0:00:01.000 326016 1330
00005.M2TS 0:00:11.010 0:00:01.000 365760 1493
00005.M2TS 0:00:12.011 0:00:01.001 381696 1558
00005.M2TS 0:00:13.013 0:00:01.000 418752 1709
00005.M2TS 0:00:14.014 0:00:01.000 380544 1553
00005.M2TS 0:00:15.014 0:00:01.000 403008 1645
00005.M2TS 0:00:16.015 0:00:01.001 391488 1598
00005.M2TS 0:00:17.017 0:00:01.000 414720 1692
00005.M2TS 0:00:18.018 0:00:01.000 356352 1454
00005.M2TS 0:00:19.019 0:00:01.000 389184 1588
00005.M2TS 0:00:20.019 0:00:01.000 403392 1646
00005.M2TS 0:00:21.020 0:00:01.001 363072 1482
00005.M2TS 0:00:22.022 0:00:01.000 380928 1555
00005.M2TS 0:00:23.023 0:00:01.000 350976 1432
00005.M2TS 0:00:24.024 0:00:01.000 332352 1356
00005.M2TS 0:00:25.024 0:00:01.000 110784 452
00005.M2TS 0:00:26.025 0:00:01.001 228864 934
00005.M2TS 0:00:27.027 0:00:01.000 422400 1724
00005.M2TS 0:00:28.028 0:00:01.000 373824 1526
00005.M2TS 0:00:29.028 0:00:01.000 361152 1474
00005.M2TS 0:00:30.029 0:00:01.000 394368 1609
00005.M2TS 0:00:31.030 0:00:01.001 346176 1413
00005.M2TS 0:00:32.032 0:00:01.000 358272 1462
00005.M2TS 0:00:33.033 0:00:01.000 389760 1591
00005.M2TS 0:00:34.033 0:00:01.000 328512 1341
00005.M2TS 0:00:35.034 0:00:01.000 348480 1422
00005.M2TS 0:00:36.035 0:00:01.001 369792 1509
00005.M2TS 0:00:37.037 0:00:01.000 413184 1686
00005.M2TS 0:00:38.038 0:00:01.000 435072 1776
00005.M2TS 0:00:39.038 0:00:01.000 379200 1548
00005.M2TS 0:00:40.039 0:00:01.001 433536 1769
00005.M2TS 0:00:41.041 0:00:01.000 400704 1635
00005.M2TS 0:00:42.042 0:00:01.000 383808 1566
00005.M2TS 0:00:43.043 0:00:01.000 321600 1312
00005.M2TS 0:00:44.043 0:00:01.000 409728 1672
00005.M2TS 0:00:45.044 0:00:01.001 416064 1698
00005.M2TS 0:00:46.046 0:00:01.000 415296 1695
00005.M2TS 0:00:47.047 0:00:01.000 354432 1446
00005.M2TS 0:00:48.048 0:00:01.000 373440 1524
00005.M2TS 0:00:49.048 0:00:01.000 445056 1816
00005.M2TS 0:00:50.049 0:00:01.001 154176 629
00005.M2TS 0:00:51.051 0:00:01.000 217152 886
00005.M2TS 0:00:52.052 0:00:01.000 465024 1898
00005.M2TS 0:00:53.053 0:00:01.000 359616 1468
00005.M2TS 0:00:54.053 0:00:01.000 349440 1426
00005.M2TS 0:00:55.054 0:00:01.001 339648 1386
00005.M2TS 0:00:56.056 0:00:01.000 398400 1626
00005.M2TS 0:00:57.057 0:00:01.000 372480 1520
00005.M2TS 0:00:58.057 0:00:01.000 431808 1762
00005.M2TS 0:00:59.058 0:00:01.000 405312 1654
00005.M2TS 0:01:00.059 0:00:01.001 359232 1466
00005.M2TS 0:01:01.061 0:00:01.000 451584 1843
00005.M2TS 0:01:02.062 0:00:01.000 393792 1607
00005.M2TS 0:01:03.062 0:00:01.000 446016 1820
00005.M2TS 0:01:04.063 0:00:01.001 457728 1868
00005.M2TS 0:01:05.065 0:00:01.000 396096 1616
00005.M2TS 0:01:06.066 0:00:01.000 437568 1786
00005.M2TS 0:01:07.067 0:00:01.000 404544 1651
00005.M2TS 0:01:08.067 0:00:01.000 339648 1386
00005.M2TS 0:01:09.068 0:00:01.001 105600 431
00005.M2TS 0:01:10.070 0:00:01.000 269952 1102
00005.M2TS 0:01:11.071 0:00:01.000 423360 1728
00005.M2TS 0:01:12.072 0:00:01.000 361536 1475
00005.M2TS 0:01:13.072 0:00:01.000 404352 1650
00005.M2TS 0:01:14.073 0:00:01.001 372480 1520
00005.M2TS 0:01:15.075 0:00:01.000 423552 1729
00005.M2TS 0:01:16.076 0:00:01.000 443328 1809
00005.M2TS 0:01:17.077 0:00:01.000 438336 1789
00005.M2TS 0:01:18.077 0:00:01.000 413568 1688
00005.M2TS 0:01:19.078 0:00:01.001 398784 1627
00005.M2TS 0:01:20.080 0:00:01.000 394560 1610
00005.M2TS 0:01:21.081 0:00:01.000 401280 1638
00005.M2TS 0:01:22.081 0:00:01.000 407424 1663
00005.M2TS 0:01:23.082 0:00:01.000 349056 1425
00005.M2TS 0:01:24.083 0:00:01.001 400128 1633
00005.M2TS 0:01:25.085 0:00:01.000 359808 1468
00005.M2TS 0:01:26.086 0:00:01.000 372480 1520
00005.M2TS 0:01:27.086 0:00:01.000 401856 1640
00005.M2TS 0:01:28.087 0:00:01.001 409344 1671
00005.M2TS 0:01:29.089 0:00:01.000 359232 1466
00005.M2TS 0:01:30.090 0:00:01.000 350784 1432
00005.M2TS 0:01:31.091 0:00:01.000 256896 1048
00005.M2TS 0:01:32.091 0:00:01.000 219648 896
00005.M2TS 0:01:33.092 0:00:01.001 349248 1425
00005.M2TS 0:01:34.094 0:00:01.000 427584 1745
00005.M2TS 0:01:35.095 0:00:01.000 404352 1650
00005.M2TS 0:01:36.096 0:00:01.000 449472 1834
00005.M2TS 0:01:37.096 0:00:01.000 404352 1650
00005.M2TS 0:01:38.097 0:00:01.001 429504 1753
00005.M2TS 0:01:39.099 0:00:01.000 420864 1718
00005.M2TS 0:01:40.100 0:00:01.000 378624 1545
00005.M2TS 0:01:41.101 0:00:01.000 382656 1562
00005.M2TS 0:01:42.101 0:00:01.000 340608 1390
00005.M2TS 0:01:43.102 0:00:01.001 365568 1492
00005.M2TS 0:01:44.104 0:00:01.000 340032 1388
00005.M2TS 0:01:45.105 0:00:01.000 365760 1493
00005.M2TS 0:01:46.106 0:00:01.000 358848 1464
00005.M2TS 0:01:47.106 0:00:01.000 408384 1667
00005.M2TS 0:01:48.107 0:00:01.001 419328 1711
00005.M2TS 0:01:49.109 0:00:01.000 420096 1714
00005.M2TS 0:01:50.110 0:00:01.000 378240 1544
00005.M2TS 0:01:51.111 0:00:01.000 422976 1726
00005.M2TS 0:01:52.111 0:00:01.001 433728 1770
00005.M2TS 0:01:53.113 0:00:01.000 439296 1793
00005.M2TS 0:01:54.114 0:00:01.000 357312 1458
00005.M2TS 0:01:55.115 0:00:01.000 116160 474
00005.M2TS 0:01:56.115 0:00:01.000 245952 1004
00005.M2TS 0:01:57.116 0:00:01.001 441984 1804
00005.M2TS 0:01:58.118 0:00:01.000 428544 1749
00005.M2TS 0:01:59.119 0:00:01.000 417600 1704
00005.M2TS 0:02:00.120 0:00:01.000 372288 1519
00005.M2TS 0:02:01.120 0:00:01.000 366336 1495
00005.M2TS 0:02:02.121 0:00:01.001 353088 1441
00005.M2TS 0:02:03.123 0:00:01.000 426624 1741
00005.M2TS 0:02:04.124 0:00:01.000 463872 1893
00005.M2TS 0:02:05.125 0:00:01.000 483840 1975
00005.M2TS 0:02:06.125 0:00:01.000 408768 1668
00005.M2TS 0:02:07.126 0:00:01.001 445440 1818
00005.M2TS 0:02:08.128 0:00:01.000 398592 1627
00005.M2TS 0:02:09.129 0:00:01.000 380352 1552
00005.M2TS 0:02:10.130 0:00:01.000 383040 1563
00005.M2TS 0:02:11.130 0:00:01.000 408768 1668
00005.M2TS 0:02:12.131 0:00:01.001 471552 1924
00005.M2TS 0:02:13.133 0:00:01.000 393216 1605
00005.M2TS 0:02:14.134 0:00:01.000 392640 1602
00005.M2TS 0:02:15.135 0:00:01.000 401280 1638
00005.M2TS 0:02:16.135 0:00:01.000 371520 1516
00005.M2TS 0:02:17.136 0:00:01.001 103872 424
00005.M2TS 0:02:18.138 0:00:01.000 227136 927
00005.M2TS 0:02:19.139 0:00:01.000 415104 1694
00005.M2TS 0:02:20.139 0:00:01.000 461184 1882
00005.M2TS 0:02:21.140 0:00:01.001 437760 1787
00005.M2TS 0:02:22.142 0:00:01.000 442368 1805
00005.M2TS 0:02:23.143 0:00:01.000 398976 1628
00005.M2TS 0:02:24.144 0:00:01.000 415296 1695
00005.M2TS 0:02:25.144 0:00:01.000 412416 1683
00005.M2TS 0:02:26.145 0:00:01.001 348864 1424
00005.M2TS 0:02:27.147 0:00:01.000 437376 1785
00005.M2TS 0:02:28.148 0:00:01.000 398400 1626
00005.M2TS 0:02:29.149 0:00:01.000 390912 1595
00005.M2TS 0:02:30.149 0:00:01.000 404352 1650
00005.M2TS 0:02:31.150 0:00:01.001 354240 1446
00005.M2TS 0:02:32.152 0:00:01.000 385536 1573
00005.M2TS 0:02:33.153 0:00:01.000 146112 596
00005.M2TS 0:02:34.154 0:00:01.000 296448 1210
00005.M2TS 0:02:35.154 0:00:01.000 283008 1155
00005.M2TS 0:02:36.155 0:00:01.001 307008 1253
00005.M2TS 0:02:37.157 0:00:01.000 336192 1372
00005.M2TS 0:02:38.158 0:00:01.000 166656 680
00005.M2TS 0:02:39.159 0:00:01.000 70272 287
00005.M2TS 0:02:40.159 0:00:00.959 1131840 4824
00005.M2TS 0:02:41.119 0:00:00.041 565824 108522

CHAPTERS:

Number Time In Length Avg Video Rate Max 1-Sec Rate Max 1-Sec Time Max 5-Sec Rate Max 5-Sec Time Max 10Sec Rate Max 10Sec Time Avg Frame Size Max Frame Size Max Frame Time
------ ------- ------ -------------- -------------- -------------- -------------- -------------- -------------- -------------- -------------- -------------- --------------
1 0:00:00.000 0:00:01.000 4882 kbps 2173 kbps 00:00:00.959 0 kbps 00:00:00.000 0 kbps 00:00:00.000 305414 bytes 338914 bytes 00:00:00.959
2 0:00:01.000 0:00:01.000 2887 kbps 2887 kbps 00:00:01.960 0 kbps 00:00:00.000 0 kbps 00:00:00.000 361238 bytes 361238 bytes 00:00:02.961
3 0:00:02.001 0:00:01.001 2187 kbps 2187 kbps 00:00:02.961 0 kbps 00:00:00.000 0 kbps 00:00:00.000 273588 bytes 273588 bytes 00:00:03.962
4 0:00:03.003 0:00:01.000 786 kbps 786 kbps 00:00:03.962 0 kbps 00:00:00.000 0 kbps 00:00:00.000 98379 bytes 98379 bytes 00:00:04.963
5 0:00:04.004 0:00:01.000 1610 kbps 1610 kbps 00:00:04.963 0 kbps 00:00:00.000 0 kbps 00:00:00.000 201477 bytes 201477 bytes 00:00:05.964
6 0:00:05.004 0:00:01.000 2541 kbps 2541 kbps 00:00:05.964 0 kbps 00:00:00.000 0 kbps 00:00:00.000 317959 bytes 317959 bytes 00:00:06.965
7 0:00:06.005 0:00:01.000 2564 kbps 2564 kbps 00:00:06.965 0 kbps 00:00:00.000 0 kbps 00:00:00.000 320813 bytes 320813 bytes 00:00:07.966
8 0:00:07.006 0:00:01.001 2462 kbps 2462 kbps 00:00:07.966 0 kbps 00:00:00.000 0 kbps 00:00:00.000 308066 bytes 308066 bytes 00:00:08.967
9 0:00:08.008 0:00:01.000 2380 kbps 2380 kbps 00:00:08.967 0 kbps 00:00:00.000 0 kbps 00:00:00.000 297744 bytes 297744 bytes 00:00:09.968
10 0:00:09.009 0:00:01.000 2446 kbps 2446 kbps 00:00:09.968 0 kbps 00:00:00.000 0 kbps 00:00:00.000 306014 bytes 306014 bytes 00:00:10.969
11 0:00:10.009 0:00:01.000 2753 kbps 2753 kbps 00:00:10.969 0 kbps 00:00:00.000 0 kbps 00:00:00.000 344463 bytes 344463 bytes 00:00:11.970
12 0:00:11.010 0:00:01.000 2873 kbps 2873 kbps 00:00:11.970 0 kbps 00:00:00.000 0 kbps 00:00:00.000 359490 bytes 359490 bytes 00:00:12.971
13 0:00:12.011 0:00:01.001 3156 kbps 3156 kbps 00:00:12.971 0 kbps 00:00:00.000 0 kbps 00:00:00.000 394894 bytes 394894 bytes 00:00:13.972
14 0:00:13.013 0:00:01.000 2867 kbps 2867 kbps 00:00:13.972 0 kbps 00:00:00.000 0 kbps 00:00:00.000 358746 bytes 358746 bytes 00:00:14.973
15 0:00:14.014 0:00:01.000 3036 kbps 3036 kbps 00:00:14.973 0 kbps 00:00:00.000 0 kbps 00:00:00.000 379848 bytes 379848 bytes 00:00:15.974
16 0:00:15.014 0:00:01.000 2948 kbps 2948 kbps 00:00:15.974 0 kbps 00:00:00.000 0 kbps 00:00:00.000 368924 bytes 368924 bytes 00:00:16.975
17 0:00:16.015 0:00:01.001 3124 kbps 3124 kbps 00:00:16.975 0 kbps 00:00:00.000 0 kbps 00:00:00.000 390937 bytes 390937 bytes 00:00:17.976
18 0:00:17.017 0:00:01.000 2679 kbps 2679 kbps 00:00:17.976 0 kbps 00:00:00.000 0 kbps 00:00:00.000 335225 bytes 335225 bytes 00:00:18.977
19 0:00:18.018 0:00:01.000 2933 kbps 2933 kbps 00:00:18.977 0 kbps 00:00:00.000 0 kbps 00:00:00.000 367006 bytes 367006 bytes 00:00:19.978
20 0:00:19.019 0:00:01.000 3039 kbps 3039 kbps 00:00:19.978 0 kbps 00:00:00.000 0 kbps 00:00:00.000 380201 bytes 380201 bytes 00:00:20.979
21 0:00:20.019 0:00:01.000 2730 kbps 2730 kbps 00:00:20.979 0 kbps 00:00:00.000 0 kbps 00:00:00.000 341600 bytes 341600 bytes 00:00:21.980
22 0:00:21.020 0:00:01.001 2869 kbps 2869 kbps 00:00:21.980 0 kbps 00:00:00.000 0 kbps 00:00:00.000 359044 bytes 359044 bytes 00:00:22.981
23 0:00:22.022 0:00:01.000 2637 kbps 2637 kbps 00:00:22.981 0 kbps 00:00:00.000 0 kbps 00:00:00.000 329939 bytes 329939 bytes 00:00:23.982
24 0:00:23.023 0:00:01.000 2494 kbps 2494 kbps 00:00:23.982 0 kbps 00:00:00.000 0 kbps 00:00:00.000 312066 bytes 312066 bytes 00:00:24.983
25 0:00:24.024 0:00:01.000 799 kbps 799 kbps 00:00:24.983 0 kbps 00:00:00.000 0 kbps 00:00:00.000 100008 bytes 100008 bytes 00:00:25.984
26 0:00:25.024 0:00:01.000 1701 kbps 1701 kbps 00:00:25.984 0 kbps 00:00:00.000 0 kbps 00:00:00.000 212815 bytes 212815 bytes 00:00:26.985
27 0:00:26.025 0:00:01.001 3184 kbps 3184 kbps 00:00:26.985 0 kbps 00:00:00.000 0 kbps 00:00:00.000 398417 bytes 398417 bytes 00:00:27.986
28 0:00:27.027 0:00:01.000 2816 kbps 2816 kbps 00:00:27.986 0 kbps 00:00:00.000 0 kbps 00:00:00.000 352327 bytes 352327 bytes 00:00:28.987
29 0:00:28.028 0:00:01.000 2716 kbps 2716 kbps 00:00:28.987 0 kbps 00:00:00.000 0 kbps 00:00:00.000 339791 bytes 339791 bytes 00:00:29.988
30 0:00:29.028 0:00:01.000 2969 kbps 2969 kbps 00:00:29.988 0 kbps 00:00:00.000 0 kbps 00:00:00.000 371518 bytes 371518 bytes 00:00:30.989
31 0:00:30.029 0:00:01.000 2603 kbps 2603 kbps 00:00:30.989 0 kbps 00:00:00.000 0 kbps 00:00:00.000 325686 bytes 325686 bytes 00:00:31.990
32 0:00:31.030 0:00:01.001 2693 kbps 2693 kbps 00:00:31.990 0 kbps 00:00:00.000 0 kbps 00:00:00.000 337006 bytes 337006 bytes 00:00:32.991
33 0:00:32.032 0:00:01.000 2935 kbps 2935 kbps 00:00:32.991 0 kbps 00:00:00.000 0 kbps 00:00:00.000 367286 bytes 367286 bytes 00:00:33.992
34 0:00:33.033 0:00:01.000 2466 kbps 2466 kbps 00:00:33.992 0 kbps 00:00:00.000 0 kbps 00:00:00.000 308543 bytes 308543 bytes 00:00:34.993
35 0:00:34.033 0:00:01.000 2617 kbps 2617 kbps 00:00:34.993 0 kbps 00:00:00.000 0 kbps 00:00:00.000 327468 bytes 327468 bytes 00:00:35.994
36 0:00:35.034 0:00:01.000 2784 kbps 2784 kbps 00:00:35.994 0 kbps 00:00:00.000 0 kbps 00:00:00.000 348378 bytes 348378 bytes 00:00:36.995
37 0:00:36.035 0:00:01.001 3113 kbps 3113 kbps 00:00:36.995 0 kbps 00:00:00.000 0 kbps 00:00:00.000 389536 bytes 389536 bytes 00:00:37.996
38 0:00:37.037 0:00:01.000 3281 kbps 3281 kbps 00:00:37.996 0 kbps 00:00:00.000 0 kbps 00:00:00.000 410521 bytes 410521 bytes 00:00:38.997
39 0:00:38.038 0:00:01.000 2857 kbps 2857 kbps 00:00:38.997 0 kbps 00:00:00.000 0 kbps 00:00:00.000 357475 bytes 357475 bytes 00:00:39.998
40 0:00:39.038 0:00:01.000 3270 kbps 3270 kbps 00:00:39.998 0 kbps 00:00:00.000 0 kbps 00:00:00.000 409131 bytes 409131 bytes 00:00:40.999
41 0:00:40.039 0:00:01.001 3018 kbps 3018 kbps 00:00:40.999 0 kbps 00:00:00.000 0 kbps 00:00:00.000 377612 bytes 377612 bytes 00:00:42.000
42 0:00:41.041 0:00:01.000 2890 kbps 2890 kbps 00:00:42.000 0 kbps 00:00:00.000 0 kbps 00:00:00.000 361636 bytes 361636 bytes 00:00:43.001
43 0:00:42.042 0:00:01.000 2412 kbps 2412 kbps 00:00:43.001 0 kbps 00:00:00.000 0 kbps 00:00:00.000 301821 bytes 301821 bytes 00:00:44.002
44 0:00:43.043 0:00:01.000 3086 kbps 3086 kbps 00:00:44.002 0 kbps 00:00:00.000 0 kbps 00:00:00.000 386175 bytes 386175 bytes 00:00:45.003
45 0:00:44.043 0:00:01.000 3139 kbps 3139 kbps 00:00:45.003 0 kbps 00:00:00.000 0 kbps 00:00:00.000 392754 bytes 392754 bytes 00:00:46.004
46 0:00:45.044 0:00:01.001 3130 kbps 3130 kbps 00:00:46.004 0 kbps 00:00:00.000 0 kbps 00:00:00.000 391695 bytes 391695 bytes 00:00:47.005
47 0:00:46.046 0:00:01.000 2667 kbps 2667 kbps 00:00:47.005 0 kbps 00:00:00.000 0 kbps 00:00:00.000 333704 bytes 333704 bytes 00:00:48.006
48 0:00:47.047 0:00:01.000 2809 kbps 2809 kbps 00:00:48.006 0 kbps 00:00:00.000 0 kbps 00:00:00.000 351432 bytes 351432 bytes 00:00:49.007
49 0:00:48.048 0:00:01.000 3358 kbps 3358 kbps 00:00:49.007 0 kbps 00:00:00.000 0 kbps 00:00:00.000 420185 bytes 420185 bytes 00:00:50.008
50 0:00:49.048 0:00:01.000 1132 kbps 1132 kbps 00:00:50.008 0 kbps 00:00:00.000 0 kbps 00:00:00.000 141642 bytes 141642 bytes 00:00:51.009
51 0:00:50.049 0:00:01.001 1612 kbps 1612 kbps 00:00:51.009 0 kbps 00:00:00.000 0 kbps 00:00:00.000 201740 bytes 201740 bytes 00:00:52.010
52 0:00:51.051 0:00:01.000 3510 kbps 3510 kbps 00:00:52.010 0 kbps 00:00:00.000 0 kbps 00:00:00.000 439211 bytes 439211 bytes 00:00:53.011
53 0:00:52.052 0:00:01.000 2705 kbps 2705 kbps 00:00:53.011 0 kbps 00:00:00.000 0 kbps 00:00:00.000 338517 bytes 338517 bytes 00:00:54.012
54 0:00:53.053 0:00:01.000 2625 kbps 2625 kbps 00:00:54.012 0 kbps 00:00:00.000 0 kbps 00:00:00.000 328491 bytes 328491 bytes 00:00:55.013
55 0:00:54.053 0:00:01.000 2551 kbps 2551 kbps 00:00:55.013 0 kbps 00:00:00.000 0 kbps 00:00:00.000 319197 bytes 319197 bytes 00:00:56.014
56 0:00:55.054 0:00:01.001 3004 kbps 3004 kbps 00:00:56.014 0 kbps 00:00:00.000 0 kbps 00:00:00.000 375876 bytes 375876 bytes 00:00:57.015
57 0:00:56.056 0:00:01.000 2801 kbps 2801 kbps 00:00:57.015 0 kbps 00:00:00.000 0 kbps 00:00:00.000 350537 bytes 350537 bytes 00:00:58.016
58 0:00:57.057 0:00:01.000 3255 kbps 3255 kbps 00:00:58.016 0 kbps 00:00:00.000 0 kbps 00:00:00.000 407240 bytes 407240 bytes 00:00:59.017
59 0:00:58.057 0:00:01.000 3056 kbps 3056 kbps 00:00:59.017 0 kbps 00:00:00.000 0 kbps 00:00:00.000 382438 bytes 382438 bytes 00:01:00.018
60 0:00:59.058 0:00:01.000 2700 kbps 2700 kbps 00:01:00.018 0 kbps 00:00:00.000 0 kbps 00:00:00.000 337882 bytes 337882 bytes 00:01:01.019
61 0:01:00.059 0:00:01.001 3408 kbps 3408 kbps 00:01:01.019 0 kbps 00:00:00.000 0 kbps 00:00:00.000 426425 bytes 426425 bytes 00:01:02.020
62 0:01:01.061 0:00:01.000 2967 kbps 2967 kbps 00:01:02.020 0 kbps 00:00:00.000 0 kbps 00:00:00.000 371267 bytes 371267 bytes 00:01:03.021
63 0:01:02.062 0:00:01.000 3365 kbps 3365 kbps 00:01:03.021 0 kbps 00:00:00.000 0 kbps 00:00:00.000 421002 bytes 421002 bytes 00:01:04.022
64 0:01:03.062 0:00:01.000 3458 kbps 3458 kbps 00:01:04.022 0 kbps 00:00:00.000 0 kbps 00:00:00.000 432716 bytes 432716 bytes 00:01:05.023
65 0:01:04.063 0:00:01.001 2982 kbps 2982 kbps 00:01:05.023 0 kbps 00:00:00.000 0 kbps 00:00:00.000 373136 bytes 373136 bytes 00:01:06.024
66 0:01:05.065 0:00:01.000 3300 kbps 3300 kbps 00:01:06.024 0 kbps 00:00:00.000 0 kbps 00:00:00.000 412888 bytes 412888 bytes 00:01:07.025
67 0:01:06.066 0:00:01.000 3049 kbps 3049 kbps 00:01:07.025 0 kbps 00:00:00.000 0 kbps 00:00:00.000 381475 bytes 381475 bytes 00:01:08.026
68 0:01:07.067 0:00:01.000 2551 kbps 2551 kbps 00:01:08.026 0 kbps 00:00:00.000 0 kbps 00:00:00.000 319214 bytes 319214 bytes 00:01:09.027
69 0:01:08.067 0:00:01.000 758 kbps 758 kbps 00:01:09.027 0 kbps 00:00:00.000 0 kbps 00:00:00.000 94855 bytes 94855 bytes 00:01:10.028
70 0:01:09.068 0:00:01.001 2020 kbps 2020 kbps 00:01:10.028 0 kbps 00:00:00.000 0 kbps 00:00:00.000 252694 bytes 252694 bytes 00:01:11.029
71 0:01:10.070 0:00:01.000 3190 kbps 3190 kbps 00:01:11.029 0 kbps 00:00:00.000 0 kbps 00:00:00.000 399186 bytes 399186 bytes 00:01:12.030
72 0:01:11.071 0:00:01.000 2718 kbps 2718 kbps 00:01:12.030 0 kbps 00:00:00.000 0 kbps 00:00:00.000 340089 bytes 340089 bytes 00:01:13.031
73 0:01:12.072 0:00:01.000 3050 kbps 3050 kbps 00:01:13.031 0 kbps 00:00:00.000 0 kbps 00:00:00.000 381573 bytes 381573 bytes 00:01:14.032
74 0:01:13.072 0:00:01.000 2802 kbps 2802 kbps 00:01:14.032 0 kbps 00:00:00.000 0 kbps 00:00:00.000 350648 bytes 350648 bytes 00:01:15.033
75 0:01:14.073 0:00:01.001 3192 kbps 3192 kbps 00:01:15.033 0 kbps 00:00:00.000 0 kbps 00:00:00.000 399370 bytes 399370 bytes 00:01:16.034
76 0:01:15.075 0:00:01.000 3348 kbps 3348 kbps 00:01:16.034 0 kbps 00:00:00.000 0 kbps 00:00:00.000 418892 bytes 418892 bytes 00:01:17.035
77 0:01:16.076 0:00:01.000 3307 kbps 3307 kbps 00:01:17.035 0 kbps 00:00:00.000 0 kbps 00:00:00.000 413760 bytes 413760 bytes 00:01:18.036
78 0:01:17.077 0:00:01.000 3116 kbps 3116 kbps 00:01:18.036 0 kbps 00:00:00.000 0 kbps 00:00:00.000 389892 bytes 389892 bytes 00:01:19.037
79 0:01:18.077 0:00:01.000 3006 kbps 3006 kbps 00:01:19.037 0 kbps 00:00:00.000 0 kbps 00:00:00.000 376103 bytes 376103 bytes 00:01:20.038
80 0:01:19.078 0:00:01.001 2970 kbps 2970 kbps 00:01:20.038 0 kbps 00:00:00.000 0 kbps 00:00:00.000 371582 bytes 371582 bytes 00:01:21.039
81 0:01:20.080 0:00:01.000 3025 kbps 3025 kbps 00:01:21.039 0 kbps 00:00:00.000 0 kbps 00:00:00.000 378482 bytes 378482 bytes 00:01:22.040
82 0:01:21.081 0:00:01.000 3070 kbps 3070 kbps 00:01:22.040 0 kbps 00:00:00.000 0 kbps 00:00:00.000 384103 bytes 384103 bytes 00:01:23.041
83 0:01:22.081 0:00:01.000 2623 kbps 2623 kbps 00:01:23.041 0 kbps 00:00:00.000 0 kbps 00:00:00.000 328143 bytes 328143 bytes 00:01:24.042
84 0:01:23.082 0:00:01.000 3015 kbps 3015 kbps 00:01:24.042 0 kbps 00:00:00.000 0 kbps 00:00:00.000 377198 bytes 377198 bytes 00:01:25.043
85 0:01:24.083 0:00:01.001 2704 kbps 2704 kbps 00:01:25.043 0 kbps 00:00:00.000 0 kbps 00:00:00.000 338382 bytes 338382 bytes 00:01:26.044
86 0:01:25.085 0:00:01.000 2802 kbps 2802 kbps 00:01:26.044 0 kbps 00:00:00.000 0 kbps 00:00:00.000 350627 bytes 350627 bytes 00:01:27.045
87 0:01:26.086 0:00:01.000 3030 kbps 3030 kbps 00:01:27.045 0 kbps 00:00:00.000 0 kbps 00:00:00.000 379117 bytes 379117 bytes 00:01:28.046
88 0:01:27.086 0:00:01.000 3084 kbps 3084 kbps 00:01:28.046 0 kbps 00:00:00.000 0 kbps 00:00:00.000 385940 bytes 385940 bytes 00:01:29.047
89 0:01:28.087 0:00:01.001 2699 kbps 2699 kbps 00:01:29.047 0 kbps 00:00:00.000 0 kbps 00:00:00.000 337719 bytes 337719 bytes 00:01:30.048
90 0:01:29.089 0:00:01.000 2639 kbps 2639 kbps 00:01:30.048 0 kbps 00:00:00.000 0 kbps 00:00:00.000 330143 bytes 330143 bytes 00:01:31.049
91 0:01:30.090 0:00:01.000 1917 kbps 1917 kbps 00:01:31.049 0 kbps 00:00:00.000 0 kbps 00:00:00.000 239831 bytes 239831 bytes 00:01:32.050
92 0:01:31.091 0:00:01.000 1630 kbps 1630 kbps 00:01:32.050 0 kbps 00:00:00.000 0 kbps 00:00:00.000 203925 bytes 203925 bytes 00:01:33.051
93 0:01:32.091 0:00:01.000 2627 kbps 2627 kbps 00:01:33.051 0 kbps 00:00:00.000 0 kbps 00:00:00.000 328669 bytes 328669 bytes 00:01:34.052
94 0:01:33.092 0:00:01.001 3224 kbps 3224 kbps 00:01:34.052 0 kbps 00:00:00.000 0 kbps 00:00:00.000 403442 bytes 403442 bytes 00:01:35.053
95 0:01:34.094 0:00:01.000 3048 kbps 3048 kbps 00:01:35.053 0 kbps 00:00:00.000 0 kbps 00:00:00.000 381431 bytes 381431 bytes 00:01:36.054
96 0:01:35.095 0:00:01.000 3392 kbps 3392 kbps 00:01:36.054 0 kbps 00:00:00.000 0 kbps 00:00:00.000 424429 bytes 424429 bytes 00:01:37.055
97 0:01:36.096 0:00:01.000 3047 kbps 3047 kbps 00:01:37.055 0 kbps 00:00:00.000 0 kbps 00:00:00.000 381214 bytes 381214 bytes 00:01:38.056
98 0:01:37.096 0:00:01.000 3241 kbps 3241 kbps 00:01:38.056 0 kbps 00:00:00.000 0 kbps 00:00:00.000 405510 bytes 405510 bytes 00:01:39.057
99 0:01:38.097 0:00:01.001 3173 kbps 3173 kbps 00:01:39.057 0 kbps 00:00:00.000 0 kbps 00:00:00.000 396977 bytes 396977 bytes 00:01:40.058
100 0:01:39.099 0:00:01.000 2848 kbps 2848 kbps 00:01:40.058 0 kbps 00:00:00.000 0 kbps 00:00:00.000 356389 bytes 356389 bytes 00:01:41.059
101 0:01:40.100 0:00:01.000 2884 kbps 2884 kbps 00:01:41.059 0 kbps 00:00:00.000 0 kbps 00:00:00.000 360801 bytes 360801 bytes 00:01:42.060
102 0:01:41.101 0:00:01.000 2558 kbps 2558 kbps 00:01:42.060 0 kbps 00:00:00.000 0 kbps 00:00:00.000 320018 bytes 320018 bytes 00:01:43.061
103 0:01:42.101 0:00:01.000 2748 kbps 2748 kbps 00:01:43.061 0 kbps 00:00:00.000 0 kbps 00:00:00.000 343895 bytes 343895 bytes 00:01:44.062
104 0:01:43.102 0:00:01.001 2556 kbps 2556 kbps 00:01:44.062 0 kbps 00:00:00.000 0 kbps 00:00:00.000 319876 bytes 319876 bytes 00:01:45.063
105 0:01:44.104 0:00:01.000 2750 kbps 2750 kbps 00:01:45.063 0 kbps 00:00:00.000 0 kbps 00:00:00.000 344062 bytes 344062 bytes 00:01:46.064
106 0:01:45.105 0:00:01.000 2697 kbps 2697 kbps 00:01:46.064 0 kbps 00:00:00.000 0 kbps 00:00:00.000 337516 bytes 337516 bytes 00:01:47.065
107 0:01:46.106 0:00:01.000 3078 kbps 3078 kbps 00:01:47.065 0 kbps 00:00:00.000 0 kbps 00:00:00.000 385142 bytes 385142 bytes 00:01:48.066
108 0:01:47.106 0:00:01.000 3160 kbps 3160 kbps 00:01:48.066 0 kbps 00:00:00.000 0 kbps 00:00:00.000 395444 bytes 395444 bytes 00:01:49.067
109 0:01:48.107 0:00:01.001 3165 kbps 3165 kbps 00:01:49.067 0 kbps 00:00:00.000 0 kbps 00:00:00.000 396048 bytes 396048 bytes 00:01:50.068
110 0:01:49.109 0:00:01.000 2849 kbps 2849 kbps 00:01:50.068 0 kbps 00:00:00.000 0 kbps 00:00:00.000 356496 bytes 356496 bytes 00:01:51.069
111 0:01:50.110 0:00:01.000 3189 kbps 3189 kbps 00:01:51.069 0 kbps 00:00:00.000 0 kbps 00:00:00.000 399060 bytes 399060 bytes 00:01:52.070
112 0:01:51.111 0:00:01.000 3274 kbps 3274 kbps 00:01:52.070 0 kbps 00:00:00.000 0 kbps 00:00:00.000 409662 bytes 409662 bytes 00:01:53.071
113 0:01:52.111 0:00:01.001 3313 kbps 3313 kbps 00:01:53.071 0 kbps 00:00:00.000 0 kbps 00:00:00.000 414570 bytes 414570 bytes 00:01:54.072
114 0:01:53.113 0:00:01.000 2686 kbps 2686 kbps 00:01:54.072 0 kbps 00:00:00.000 0 kbps 00:00:00.000 336049 bytes 336049 bytes 00:01:55.073
115 0:01:54.114 0:00:01.000 841 kbps 841 kbps 00:01:55.073 0 kbps 00:00:00.000 0 kbps 00:00:00.000 105257 bytes 105257 bytes 00:01:56.074
116 0:01:55.115 0:00:01.000 1832 kbps 1832 kbps 00:01:56.074 0 kbps 00:00:00.000 0 kbps 00:00:00.000 229237 bytes 229237 bytes 00:01:57.075
117 0:01:56.115 0:00:01.000 3332 kbps 3332 kbps 00:01:57.075 0 kbps 00:00:00.000 0 kbps 00:00:00.000 416949 bytes 416949 bytes 00:01:58.076
118 0:01:57.116 0:00:01.001 3234 kbps 3234 kbps 00:01:58.076 0 kbps 00:00:00.000 0 kbps 00:00:00.000 404685 bytes 404685 bytes 00:01:59.077
119 0:01:58.118 0:00:01.000 3147 kbps 3147 kbps 00:01:59.077 0 kbps 00:00:00.000 0 kbps 00:00:00.000 393765 bytes 393765 bytes 00:02:00.078
120 0:01:59.119 0:00:01.000 2801 kbps 2801 kbps 00:02:00.078 0 kbps 00:00:00.000 0 kbps 00:00:00.000 350465 bytes 350465 bytes 00:02:01.079
121 0:02:00.120 0:00:01.000 2757 kbps 2757 kbps 00:02:01.079 0 kbps 00:00:00.000 0 kbps 00:00:00.000 345028 bytes 345028 bytes 00:02:02.080
122 0:02:01.120 0:00:01.000 2654 kbps 2654 kbps 00:02:02.080 0 kbps 00:00:00.000 0 kbps 00:00:00.000 332033 bytes 332033 bytes 00:02:03.081
123 0:02:02.121 0:00:01.001 3217 kbps 3217 kbps 00:02:03.081 0 kbps 00:00:00.000 0 kbps 00:00:00.000 402563 bytes 402563 bytes 00:02:04.082
124 0:02:03.123 0:00:01.000 3505 kbps 3505 kbps 00:02:04.082 0 kbps 00:00:00.000 0 kbps 00:00:00.000 438607 bytes 438607 bytes 00:02:05.083
125 0:02:04.124 0:00:01.000 3654 kbps 3654 kbps 00:02:05.083 0 kbps 00:00:00.000 0 kbps 00:00:00.000 457167 bytes 457167 bytes 00:02:06.084
126 0:02:05.125 0:00:01.000 3079 kbps 3079 kbps 00:02:06.084 0 kbps 00:00:00.000 0 kbps 00:00:00.000 385274 bytes 385274 bytes 00:02:07.085
127 0:02:06.125 0:00:01.000 3363 kbps 3363 kbps 00:02:07.085 0 kbps 00:00:00.000 0 kbps 00:00:00.000 420816 bytes 420816 bytes 00:02:08.086
128 0:02:07.126 0:00:01.001 3002 kbps 3002 kbps 00:02:08.086 0 kbps 00:00:00.000 0 kbps 00:00:00.000 375604 bytes 375604 bytes 00:02:09.087
129 0:02:08.128 0:00:01.000 2866 kbps 2866 kbps 00:02:09.087 0 kbps 00:00:00.000 0 kbps 00:00:00.000 358590 bytes 358590 bytes 00:02:10.088
130 0:02:09.129 0:00:01.000 2883 kbps 2883 kbps 00:02:10.088 0 kbps 00:00:00.000 0 kbps 00:00:00.000 360766 bytes 360766 bytes 00:02:11.089
131 0:02:10.130 0:00:01.000 3080 kbps 3080 kbps 00:02:11.089 0 kbps 00:00:00.000 0 kbps 00:00:00.000 385387 bytes 385387 bytes 00:02:12.090
132 0:02:11.130 0:00:01.000 3564 kbps 3564 kbps 00:02:12.090 0 kbps 00:00:00.000 0 kbps 00:00:00.000 445956 bytes 445956 bytes 00:02:13.091
133 0:02:12.131 0:00:01.001 2961 kbps 2961 kbps 00:02:13.091 0 kbps 00:00:00.000 0 kbps 00:00:00.000 370472 bytes 370472 bytes 00:02:14.092
134 0:02:13.133 0:00:01.000 2953 kbps 2953 kbps 00:02:14.092 0 kbps 00:00:00.000 0 kbps 00:00:00.000 369493 bytes 369493 bytes 00:02:15.093
135 0:02:14.134 0:00:01.000 3025 kbps 3025 kbps 00:02:15.093 0 kbps 00:00:00.000 0 kbps 00:00:00.000 378494 bytes 378494 bytes 00:02:16.094
136 0:02:15.135 0:00:01.000 2795 kbps 2795 kbps 00:02:16.094 0 kbps 00:00:00.000 0 kbps 00:00:00.000 349696 bytes 349696 bytes 00:02:17.095
137 0:02:16.135 0:00:01.000 744 kbps 744 kbps 00:02:17.095 0 kbps 00:00:00.000 0 kbps 00:00:00.000 93107 bytes 93107 bytes 00:02:18.096
138 0:02:17.136 0:00:01.001 1692 kbps 1692 kbps 00:02:18.096 0 kbps 00:00:00.000 0 kbps 00:00:00.000 211756 bytes 211756 bytes 00:02:19.097
139 0:02:18.138 0:00:01.000 3129 kbps 3129 kbps 00:02:19.097 0 kbps 00:00:00.000 0 kbps 00:00:00.000 391507 bytes 391507 bytes 00:02:20.098
140 0:02:19.139 0:00:01.000 3482 kbps 3482 kbps 00:02:20.098 0 kbps 00:00:00.000 0 kbps 00:00:00.000 435624 bytes 435624 bytes 00:02:21.099
141 0:02:20.139 0:00:01.000 3304 kbps 3304 kbps 00:02:21.099 0 kbps 00:00:00.000 0 kbps 00:00:00.000 413446 bytes 413446 bytes 00:02:22.100
142 0:02:21.140 0:00:01.001 3335 kbps 3335 kbps 00:02:22.100 0 kbps 00:00:00.000 0 kbps 00:00:00.000 417280 bytes 417280 bytes 00:02:23.101
143 0:02:22.142 0:00:01.000 3008 kbps 3008 kbps 00:02:23.101 0 kbps 00:00:00.000 0 kbps 00:00:00.000 376344 bytes 376344 bytes 00:02:24.102
144 0:02:23.143 0:00:01.000 3130 kbps 3130 kbps 00:02:24.102 0 kbps 00:00:00.000 0 kbps 00:00:00.000 391607 bytes 391607 bytes 00:02:25.103
145 0:02:24.144 0:00:01.000 3107 kbps 3107 kbps 00:02:25.103 0 kbps 00:00:00.000 0 kbps 00:00:00.000 388815 bytes 388815 bytes 00:02:26.104
146 0:02:25.144 0:00:01.000 2624 kbps 2624 kbps 00:02:26.104 0 kbps 00:00:00.000 0 kbps 00:00:00.000 328273 bytes 328273 bytes 00:02:27.105
147 0:02:26.145 0:00:01.001 3299 kbps 3299 kbps 00:02:27.105 0 kbps 00:00:00.000 0 kbps 00:00:00.000 412788 bytes 412788 bytes 00:02:28.106
148 0:02:27.147 0:00:01.000 3000 kbps 3000 kbps 00:02:28.106 0 kbps 00:00:00.000 0 kbps 00:00:00.000 375435 bytes 375435 bytes 00:02:29.107
149 0:02:28.148 0:00:01.000 2946 kbps 2946 kbps 00:02:29.107 0 kbps 00:00:00.000 0 kbps 00:00:00.000 368586 bytes 368586 bytes 00:02:30.108
150 0:02:29.149 0:00:01.000 3047 kbps 3047 kbps 00:02:30.108 0 kbps 00:00:00.000 0 kbps 00:00:00.000 381202 bytes 381202 bytes 00:02:31.109
151 0:02:30.149 0:00:01.000 2659 kbps 2659 kbps 00:02:31.109 0 kbps 00:00:00.000 0 kbps 00:00:00.000 332673 bytes 332673 bytes 00:02:32.110
152 0:02:31.150 0:00:01.001 2905 kbps 2905 kbps 00:02:32.110 0 kbps 00:00:00.000 0 kbps 00:00:00.000 363435 bytes 363435 bytes 00:02:33.111
153 0:02:32.152 0:00:01.000 1069 kbps 1069 kbps 00:02:33.111 0 kbps 00:00:00.000 0 kbps 00:00:00.000 133705 bytes 133705 bytes 00:02:34.112
154 0:02:33.153 0:00:01.000 2219 kbps 2219 kbps 00:02:34.112 0 kbps 00:00:00.000 0 kbps 00:00:00.000 277655 bytes 277655 bytes 00:02:35.113
155 0:02:34.154 0:00:01.000 2119 kbps 2119 kbps 00:02:35.113 0 kbps 00:00:00.000 0 kbps 00:00:00.000 265145 bytes 265145 bytes 00:02:36.114
156 0:02:35.154 0:00:01.000 2301 kbps 2301 kbps 00:02:36.114 0 kbps 00:00:00.000 0 kbps 00:00:00.000 287898 bytes 287898 bytes 00:02:37.115
157 0:02:36.155 0:00:01.001 2524 kbps 2524 kbps 00:02:37.115 0 kbps 00:00:00.000 0 kbps 00:00:00.000 315766 bytes 315766 bytes 00:02:38.116
158 0:02:37.157 0:00:01.000 1228 kbps 1228 kbps 00:02:38.116 0 kbps 00:00:00.000 0 kbps 00:00:00.000 153710 bytes 153710 bytes 00:02:39.117
159 0:02:38.158 0:00:01.000 485 kbps 485 kbps 00:02:39.117 0 kbps 00:00:00.000 0 kbps 00:00:00.000 60730 bytes 60730 bytes 00:02:40.118
160 0:02:39.159 0:00:01.000 4289 kbps 0 kbps 00:00:00.000 0 kbps 00:00:00.000 0 kbps 00:00:00.000 536614 bytes 536614 bytes 00:02:41.077
161 0:02:40.159 0:00:01.000 36676079 kbps 8577 kbps 00:02:40.118 5340 kbps 00:02:36.114 4075 kbps 00:02:31.109 351870 bytes 536614 bytes 00:02:41.119

STREAM DIAGNOSTICS:

File PID Type Codec Language Seconds Bitrate Bytes Packets
---- --- ---- ----- -------- -------------- -------------- ------------- -----
00005.M2TS 4113 (0x1011) 0x02 MPEG-2 160.118 2813 56297275 306060
<pre>
<---- END FORUMS PASTE ---->

QUICK SUMMARY:

Disc Title: Kaze Tachinu Disc 1Disc Size: 43 390 744 381 bytesProtection: AACSBD-Java: NoPlaylist: 00006.MPLSSize: 60 371 520 bytesLength: 0:02:41.160Total Bitrate: 3.00 MbpsVideo: MPEG-2 Video / 1441 kbps / 1080p / 23.976 fps / 16:9

********************PLAYLIST: 00002.MPLS********************

<--- BEGIN FORUMS PASTE --->
</pre>
Total Video
Title Codec Length Movie Size Disc Size Bitrate Bitrate Main Audio Track Secondary Audio Track
----- ------ ------- -------------- -------------- ------- ------- ------------------ ---------------------
00002.MPLS AVC 0:01:03 72172608 43390744381 9.05 8.38 DD AC3 2.0 192Kbps
DISC INFO:

Disc Title: Kaze Tachinu Disc 1
Disc Size: 43390744381 bytes
Protection: AACS
BD-Java: No
BDInfo: 0.5.8

PLAYLIST REPORT:

Name: 00002.MPLS
Length: 0:01:03.771 (h:m:s.ms)
Size: 72172608 bytes
Total Bitrate: 9.05 Mbps

VIDEO:

Codec Bitrate Description
----- ------- -----------
MPEG-4 AVC Video 8384 kbps 1080p / 23.976 fps / 16:9 / High Profile 4.1

AUDIO:

Codec Language Bitrate Description
----- -------- ------- -----------
Dolby Digital Audio Japanese 192 kbps 2.0 / 48 kHz / 192 kbps / DN -4dB

FILES:

Name Time In Length Size Total Bitrate
---- ------- ------ ---- -------------
00007.M2TS 0:00:00.000 0:00:12.137 2964864 1948
00008.M2TS 0:00:12.137 0:00:10.009 52506624 41963
00009.M2TS 0:00:22.147 0:00:18.518 10371072 4480
00010.M2TS 0:00:40.665 0:00:10.051 2768256 2194
00014.M2TS 0:00:50.717 0:00:13.054 3561792 2176

CHAPTERS:

Number Time In Length Avg Video Rate Max 1-Sec Rate Max 1-Sec Time Max 5-Sec Rate Max 5-Sec Time Max 10Sec Rate Max 10Sec Time Avg Frame Size Max Frame Size Max Frame Time
------ ------- ------ -------------- -------------- -------------- -------------- -------------- -------------- -------------- -------------- -------------- --------------
1 0:00:00.000 0:00:12.137 1712 kbps 5273 kbps 00:00:01.000 2039 kbps 00:00:00.792 1870 kbps 00:00:01.000 8959 bytes 208559 bytes 00:00:12.137
2 0:00:12.137 0:00:10.009 39834 kbps 40000 kbps 00:00:21.104 39999 kbps 00:00:17.100 39834 kbps 00:00:12.137 207676 bytes 208544 bytes 00:00:22.105
3 0:00:22.147 0:00:18.518 3999 kbps 13518 kbps 00:00:38.538 5101 kbps 00:00:22.605 4394 kbps 00:00:22.605 20848 bytes 243057 bytes 00:00:36.244
4 0:00:40.665 0:00:10.051 1867 kbps 4959 kbps 00:00:40.707 1906 kbps 00:00:40.665 1875 kbps 00:00:40.665 9777 bytes 138909 bytes 00:00:43.334
5 0:00:50.717 0:00:13.054 1791 kbps 3983 kbps 00:00:51.634 2084 kbps 00:00:51.176 1769 kbps 00:00:51.217 9429 bytes 116709 bytes 00:00:59.309

STREAM DIAGNOSTICS:

File PID Type Codec Language Seconds Bitrate Bytes Packets
---- --- ---- ----- -------- -------------- -------------- ------------- -----
00007.M2TS 4113 (0x1011) 0x1B AVC 12.012 1592 2391001 13133
00007.M2TS 4352 (0x1100) 0x81 AC3 jpn (Japanese) 12.012 194 291072 1895
00008.M2TS 4113 (0x1011) 0x1B AVC 9.885 40506 50049385 272160
00008.M2TS 4352 (0x1100) 0x81 AC3 jpn (Japanese) 9.885 117 144384 940
00009.M2TS 4113 (0x1011) 0x1B AVC 18.393 4019 9239512 50473
00009.M2TS 4352 (0x1100) 0x81 AC3 jpn (Japanese) 18.393 193 444672 2895
00010.M2TS 4113 (0x1011) 0x1B AVC 9.968 1899 2366153 12974
00010.M2TS 4352 (0x1100) 0x81 AC3 jpn (Japanese) 9.968 135 168192 1095
00014.M2TS 4113 (0x1011) 0x1B AVC 12.971 1803 2923933 16070
00014.M2TS 4352 (0x1100) 0x81 AC3 jpn (Japanese) 12.971 193 313344 2040
<pre>
<---- END FORUMS PASTE ---->

QUICK SUMMARY:

Disc Title: Kaze Tachinu Disc 1Disc Size: 43 390 744 381 bytesProtection: AACSBD-Java: NoPlaylist: 00002.MPLSSize: 72 172 608 bytesLength: 0:01:03.771Total Bitrate: 9.05 MbpsVideo: MPEG-4 AVC Video / 8384 kbps / 1080p / 23.976 fps / 16:9 / High Profile 4.1Audio: Japanese / Dolby Digital Audio / 2.0 / 48 kHz / 192 kbps / DN -4dB

********************PLAYLIST: 00003.MPLS********************

<--- BEGIN FORUMS PASTE --->
</pre>
Total Video
Title Codec Length Movie Size Disc Size Bitrate Bitrate Main Audio Track Secondary Audio Track
----- ------ ------- -------------- -------------- ------- ------- ------------------ ---------------------
00003.MPLS AVC 0:00:50 67351296 43390744381 10.62 9.89 DD AC3 2.0 192Kbps
DISC INFO:

Disc Title: Kaze Tachinu Disc 1
Disc Size: 43390744381 bytes
Protection: AACS
BD-Java: No
BDInfo: 0.5.8

PLAYLIST REPORT:

Name: 00003.MPLS
Length: 0:00:50.717 (h:m:s.ms)
Size: 67351296 bytes
Total Bitrate: 10.62 Mbps

VIDEO:

Codec Bitrate Description
----- ------- -----------
MPEG-4 AVC Video 9895 kbps 1080p / 23.976 fps / 16:9 / High Profile 4.1

AUDIO:

Codec Language Bitrate Description
----- -------- ------- -----------
Dolby Digital Audio Japanese 192 kbps 2.0 / 48 kHz / 192 kbps / DN -4dB

FILES:

Name Time In Length Size Total Bitrate
---- ------- ------ ---- -------------
00011.M2TS 0:00:00.000 0:00:12.137 2688384 1766
00012.M2TS 0:00:12.137 0:00:10.009 52506624 41963
00009.M2TS 0:00:22.147 0:00:18.518 10371072 4480
00013.M2TS 0:00:40.665 0:00:10.051 1785216 1415

CHAPTERS:

Number Time In Length Avg Video Rate Max 1-Sec Rate Max 1-Sec Time Max 5-Sec Rate Max 5-Sec Time Max 10Sec Rate Max 10Sec Time Avg Frame Size Max Frame Size Max Frame Time
------ ------- ------ -------------- -------------- -------------- -------------- -------------- -------------- -------------- -------------- -------------- --------------
1 0:00:00.000 0:00:12.137 1536 kbps 4684 kbps 00:00:01.000 1811 kbps 00:00:00.792 1660 kbps 00:00:01.000 8035 bytes 208559 bytes 00:00:12.137
2 0:00:12.137 0:00:10.009 39834 kbps 40000 kbps 00:00:21.104 39999 kbps 00:00:17.100 39834 kbps 00:00:12.137 207676 bytes 208544 bytes 00:00:22.105
3 0:00:22.147 0:00:18.518 3996 kbps 13518 kbps 00:00:38.538 5101 kbps 00:00:22.605 4394 kbps 00:00:22.605 20831 bytes 243057 bytes 00:00:36.244
4 0:00:40.665 0:00:10.051 1124 kbps 2972 kbps 00:00:40.707 1148 kbps 00:00:40.665 1129 kbps 00:00:40.665 5909 bytes 82689 bytes 00:00:43.334

STREAM DIAGNOSTICS:

File PID Type Codec Language Seconds Bitrate Bytes Packets
---- --- ---- ----- -------- -------------- -------------- ------------- -----
00011.M2TS 4113 (0x1011) 0x1B AVC 12.012 1414 2123027 11674
00011.M2TS 4352 (0x1100) 0x81 AC3 jpn (Japanese) 12.012 194 291072 1895
00012.M2TS 4113 (0x1011) 0x1B AVC 9.885 40506 50049385 272160
00012.M2TS 4352 (0x1100) 0x81 AC3 jpn (Japanese) 9.885 117 144384 940
00009.M2TS 4113 (0x1011) 0x1B AVC 18.393 4019 9239512 50473
00009.M2TS 4352 (0x1100) 0x81 AC3 jpn (Japanese) 18.393 193 444672 2895
00013.M2TS 4113 (0x1011) 0x1B AVC 9.968 1143 1424534 7850
00013.M2TS 4352 (0x1100) 0x81 AC3 jpn (Japanese) 9.968 135 168192 1095
<pre>
<---- END FORUMS PASTE ---->

QUICK SUMMARY:

Disc Title: Kaze Tachinu Disc 1Disc Size: 43 390 744 381 bytesProtection: AACSBD-Java: NoPlaylist: 00003.MPLSSize: 67 351 296 bytesLength: 0:00:50.717Total Bitrate: 10.62 MbpsVideo: MPEG-4 AVC Video / 9895 kbps / 1080p / 23.976 fps / 16:9 / High Profile 4.1Audio: Japanese / Dolby Digital Audio / 2.0 / 48 kHz / 192 kbps / DN -4dB
</pre>
<a href="viewtopic.php?t=4849543" class="postLink">...4849543</a>
<a href="viewtopic.php?t=4767802" class="postLink">...4767802</a>
<a href="viewtopic.php?t=4766650" class="postLink">...4766650</a>
Blu-ray
"Ѩ Ȼ"

14.07.2010 <a href="viewtopic.php?t=4629918" class="postLink"> </a> (1984)
22.12.2010 <a href="viewtopic.php?t=3690943" class="postLink"> </a> (1986)
22.12.2010 <a href="viewtopic.php?t=4119317" class="postLink"> </a> (1999)
17.06.2011 <a href="viewtopic.php?t=5071976" class="postLink"> </a> (2010)
20.07.2011 <a href="viewtopic.php?t=4178733" class="postLink">ظ </a> (1995)
16.11.2011 <a href="viewtopic.php?t=3875703" class="postLink"> </a> (2004)
16.11.2011 <a href="viewtopic.php?t=4465304" class="postLink"> </a> (2006)
16.11.2011 <a href="viewtopic.php?t=5180830" class="postLink"> </a> (2008)
20.06.2012 <a href="viewtopic.php?t=5135718" class="postLink"> </a> (2011)
18.07.2012 <a href="viewtopic.php?t=4766434" class="postLink"> </a> (1988)
18.07.2012 <a href="viewtopic.php?t=4651642" class="postLink"> </a> (1988)
04.12.2012 <a href="viewtopic.php?t=4901371" class="postLink"> </a> (1989)
04.12.2012 (1991)
17.07.2013 (1992)
06.11.2013 <a href="viewtopic.php?t=4936128" class="postLink"> </a> (1994)
04.12.2013 <a href="viewtopic.php?t=4851914" class="postLink"> </a> (1997)
04.12.2013 <a href="viewtopic.php?t=5006347" class="postLink"> + </a> (2002)
18.06.2014 <a href="viewtopic.php?t=5231419" class="postLink"> </a> (2013)
16.07.2014 <a href="viewtopic.php?t=5043266" class="postLink"> </a> (2001)
06.08.2014 <a href="viewtopic.php?t=5117796" class="postLink"> III: </a> (1979)
03.12.2014 <a href="viewtopic.php?t=4989310" class="postLink"> </a> (2013)
18.03.2015 (2014)
17.07.2015 (1993)



04.07.2007 <a href="viewtopic.php?t=2249223" class="postLink"> </a> (2007)
19.12.2007 <a href="viewtopic.php?t=4818346" class="postLink"> : ""</a> (2007)
03.07.2009 <a href="viewtopic.php?t=3692012" class="postLink"> "": 25 </a> (2008)
17.11.2010 (2010)
21.05.2014 <a href="viewtopic.php?t=4929876" class="postLink"> </a> (2014)
02.07.2014 + (1972)
02.07.2014 <a href="viewtopic.php?t=4979621" class="postLink"> - </a> (2013)
27.10.2014 <a href="viewtopic.php?t=4978082" class="postLink">On Your Mark</a> (1995)
21.01.2015 <a href="viewtopic.php?t=5231678" class="postLink"> </a> (1987)
17.07.2015 <a href="viewtopic.php?t=5201418" class="postLink"> + </a> (1972, 1973)
17.07.2015 (1982)



25.07.2008 <a href="viewtopic.php?t=4722800" class="postLink"> </a> (1981)
25.07.2008 <a href="viewtopic.php?t=4612785" class="postLink"> </a> (1984)


 ·  , , FAQ-
:  [ 07--2016 19:00 ]

  

.torrent

.torrent 157 KB


: 55.27 GB
(hash) : f8dceae09edd33a6f186201d99e5b715a941cc95
:
··
...

The Wind Rises . !

!