Скачать через торрент музыку RWBY бесплатно без регистрации torrent

Если у вас наблюдаются проблемы со скриншотами, переходом по ссылками, скачиванием торрентов - проблемы в блокировщике рекламы AdBlock. #хорошегоДня!


Статистика раздачи
Размер:  1.43 GB   |    Зарегистрирован:  1 год 3 месяца   |    .torrent скачан:  63 раза   |   
Раздают:  1  
   
Загрузка...
 
Автор Сообщение

Galfimbul

avatar Galfimbul


RWBY

Жанр: Score
Композитор: Jeff Williams
Год выпуска диска: 2013-2014
Страна-производитель диска: США
Издатель (лейбл): Rooster Teeth Productions
Аудиокодек: FLAC (*.flac)
Тип рипа: tracks+.cue
Битрейт аудио: lossless
Источник: собственный рип
Наличие сканов в содержимом раздачи: нет
01. This Will Be the Day (3:10)
02. Red Like Roses (Red Trailer) (3:14)
03. Mirror Mirror (White Trailer) (2:57)
04. From Shadows (Black Trailer) (4:51)
05. I Burn (Yellow Trailer) (5:33)
06. Gold (4:04)
07. I Burn (3:12)
08. I May Fall (4:05)
09. Red Like Roses - Part II (4:04)
10. I Burn Remix (3:07)
11. From Shadows (5:23)
12. Wings (5:11)
Exact Audio Copy V1.1 from 23. June 2015

EAC extraction logfile from 7. June 2016, 11:44

Jeff Williams / RWBY Volume 1 Soundtrack

Used drive : PIONEER BD-ROM BDCTD03RT Adapter: 1 ID: 0

Read mode : SecureUtilize accurate stream : YesDefeat audio cache : YesMake use of C2 pointers : No

Read offset correction : 667Overread into Lead-In and Lead-Out : NoFill up missing offset samples with silence : YesDelete leading and trailing silent blocks : NoNull samples used in CRC calculations : YesUsed interface : Native Win32 interface for Win NT & 2000Gap handling : Appended to previous track

Used output format : User Defined EncoderSelected bitrate : 768 kBit/sQuality : HighAdd ID3 tag : NoCommand line compressor : Flac/flac.exeAdditional command line options : -V -8 -T "Genre=%genre%" -T "Artist=%artist%" -T "Title=%title%" -T "Album=%albumtitle%" -T "Date=%year%" -T "Tracknumber=%tracknr%" %source%

TOC of the extracted CD

Track | Start | Length | Start sector | End sector --------------------------------------------------------- 1 | 0:00.00 | 3:10.19 | 0 | 14268 2 | 3:10.19 | 3:14.15 | 14269 | 28833 3 | 6:24.34 | 2:56.62 | 28834 | 42095 4 | 9:21.21 | 4:50.43 | 42096 | 63888 5 | 14:11.64 | 5:32.53 | 63889 | 88841 6 | 19:44.42 | 4:04.23 | 88842 | 107164 7 | 23:48.65 | 3:12.24 | 107165 | 121588 8 | 27:01.14 | 4:05.29 | 121589 | 139992 9 | 31:06.43 | 4:04.34 | 139993 | 158326 10 | 35:11.02 | 3:06.43 | 158327 | 172319 11 | 38:17.45 | 5:23.06 | 172320 | 196550 12 | 43:40.51 | 5:11.18 | 196551 | 219893

Track 1

Filename D:\dev\Jeff Williams - RWBY\RWBY Volume 1 (2013)\CD1 - Soundtrack\01. This Will Be the Day.wav

Pre-gap length 0:00:02.00

Peak level 97.7 % Extraction speed 2.4 X Track quality 99.9 % Test CRC F7D8031B Copy CRC F7D8031B Accurately ripped (confidence 2) [4113B869] (AR v2) Copy OK

Track 2

Filename D:\dev\Jeff Williams - RWBY\RWBY Volume 1 (2013)\CD1 - Soundtrack\02. Red Like Roses (Red Trailer).wav

Peak level 96.6 % Extraction speed 2.6 X Track quality 99.9 % Test CRC D7ACBD0A Copy CRC D7ACBD0A Accurately ripped (confidence 2) [D2B1FCAE] (AR v2) Copy OK

Track 3

Filename D:\dev\Jeff Williams - RWBY\RWBY Volume 1 (2013)\CD1 - Soundtrack\03. Mirror Mirror (White Trailer).wav

Peak level 98.8 % Extraction speed 3.1 X Track quality 100.0 % Test CRC A0541CF0 Copy CRC A0541CF0 Accurately ripped (confidence 2) [D995C8DA] (AR v2) Copy OK

Track 4

Filename D:\dev\Jeff Williams - RWBY\RWBY Volume 1 (2013)\CD1 - Soundtrack\04. From Shadows (Black Trailer).wav

Peak level 100.0 % Extraction speed 3.6 X Track quality 100.0 % Test CRC DC202897 Copy CRC DC202897 Accurately ripped (confidence 2) [E94125E0] (AR v2) Copy OK

Track 5

Filename D:\dev\Jeff Williams - RWBY\RWBY Volume 1 (2013)\CD1 - Soundtrack\05. I Burn (Yellow Trailer).wav

Peak level 99.0 % Extraction speed 4.0 X Track quality 100.0 % Test CRC 305D586A Copy CRC 305D586A Accurately ripped (confidence 2) [93A72823] (AR v2) Copy OK

Track 6

Filename D:\dev\Jeff Williams - RWBY\RWBY Volume 1 (2013)\CD1 - Soundtrack\06. Gold.wav

Peak level 99.9 % Extraction speed 4.1 X Track quality 100.0 % Test CRC 2BD4B14E Copy CRC 2BD4B14E Accurately ripped (confidence 2) [D641494B] (AR v2) Copy OK

Track 7

Filename D:\dev\Jeff Williams - RWBY\RWBY Volume 1 (2013)\CD1 - Soundtrack\07. I Burn.wav

Peak level 100.0 % Extraction speed 4.1 X Track quality 100.0 % Test CRC ADAD9771 Copy CRC ADAD9771 Accurately ripped (confidence 2) [87203663] (AR v2) Copy OK

Track 8

Filename D:\dev\Jeff Williams - RWBY\RWBY Volume 1 (2013)\CD1 - Soundtrack\08. I May Fall.wav

Peak level 99.0 % Extraction speed 4.4 X Track quality 100.0 % Test CRC 555804D8 Copy CRC 555804D8 Accurately ripped (confidence 2) [259C134C] (AR v2) Copy OK

Track 9

Filename D:\dev\Jeff Williams - RWBY\RWBY Volume 1 (2013)\CD1 - Soundtrack\09. Red Like Roses - Part II.wav

Peak level 97.7 % Extraction speed 4.6 X Track quality 100.0 % Test CRC 958C87A4 Copy CRC 958C87A4 Accurately ripped (confidence 2) [BBE7DD9C] (AR v2) Copy OK

Track 10

Filename D:\dev\Jeff Williams - RWBY\RWBY Volume 1 (2013)\CD1 - Soundtrack\10. I Burn Remix.wav

Peak level 97.9 % Extraction speed 3.9 X Track quality 99.9 % Test CRC 8F909190 Copy CRC 8F909190 Accurately ripped (confidence 2) [3429CF3C] (AR v2) Copy OK

Track 11

Filename D:\dev\Jeff Williams - RWBY\RWBY Volume 1 (2013)\CD1 - Soundtrack\11. From Shadows.wav

Peak level 99.9 % Extraction speed 5.0 X Track quality 100.0 % Test CRC 5A457C1E Copy CRC 5A457C1E Accurately ripped (confidence 2) [99E8385D] (AR v2) Copy OK

Track 12

Filename D:\dev\Jeff Williams - RWBY\RWBY Volume 1 (2013)\CD1 - Soundtrack\12. Wings.wav

Peak level 100.0 % Extraction speed 5.2 X Track quality 100.0 % Test CRC 7F2E3455 Copy CRC 7F2E3455 Accurately ripped (confidence 2) [E223B8CB] (AR v2) Copy OK

All tracks accurately ripped

No errors occurred

End of status report

==== Log checksum 8F8A662E91D63BC6D70D0CB07711B5B0896BD3B359A98372770750420118F2B2 ====
REM GENRE SoundtrackREM DATE 2013REM DISCID A10B730CREM COMMENT "ExactAudioCopy v1.1"PERFORMER "Jeff Williams"TITLE "RWBY Volume 1 Soundtrack"FILE "01. This Will Be the Day.wav" WAVE TRACK 01 AUDIO TITLE "This Will Be the Day " PERFORMER "Jeff Williams feat. Casey Lee Williams" INDEX 01 00:00:00FILE "02. Red Like Roses (Red Trailer).wav" WAVE TRACK 02 AUDIO TITLE "Red Like Roses (Red Trailer) " PERFORMER "Jeff Williams feat. Casey Lee Williams" INDEX 01 00:00:00FILE "03. Mirror Mirror (White Trailer).wav" WAVE TRACK 03 AUDIO TITLE "Mirror Mirror (White Trailer)" PERFORMER "Jeff Williams feat. Casey Lee Williams" INDEX 01 00:00:00FILE "04. From Shadows (Black Trailer).wav" WAVE TRACK 04 AUDIO TITLE "From Shadows (Black Trailer)" PERFORMER "Jeff Williams feat. Casey Lee Williams" INDEX 01 00:00:00FILE "05. I Burn (Yellow Trailer).wav" WAVE TRACK 05 AUDIO TITLE "I Burn (Yellow Trailer)" PERFORMER "Jeff Williams feat. Casey Lee Williams" INDEX 01 00:00:00FILE "06. Gold.wav" WAVE TRACK 06 AUDIO TITLE "Gold" PERFORMER "Jeff Williams feat. Casey Lee Williams" INDEX 01 00:00:00FILE "07. I Burn.wav" WAVE TRACK 07 AUDIO TITLE "I Burn" PERFORMER "Jeff Williams feat. Casey Lee Williams & Lamar Hall" INDEX 01 00:00:00FILE "08. I May Fall.wav" WAVE TRACK 08 AUDIO TITLE "I May Fall" PERFORMER "Jeff Williams feat. Casey Lee Williams" INDEX 01 00:00:00FILE "09. Red Like Roses - Part II.wav" WAVE TRACK 09 AUDIO TITLE "Red Like Roses - Part II" PERFORMER "Jeff Williams feat. Casey Lee Williams & Sandy Casey" INDEX 01 00:00:00FILE "10. I Burn Remix.wav" WAVE TRACK 10 AUDIO TITLE "I Burn Remix " PERFORMER "Jeff Williams feat. Casey Lee Williams" INDEX 01 00:00:00FILE "11. From Shadows.wav" WAVE TRACK 11 AUDIO TITLE "From Shadows" PERFORMER "Jeff Williams feat. Casey Lee Williams" INDEX 01 00:00:00FILE "12. Wings.wav" WAVE TRACK 12 AUDIO TITLE "Wings" PERFORMER "Jeff Williams feat. Casey Lee Williams" INDEX 01 00:00:00
01. EP 1 Ruby Rose (08:40)
02. EP 2 The Shining Beacon Pt 1 (03:33)
03. EP 3 The Shining Beacon Pt 2 (04:41)
04. EP 4 The First Step Pt 1 (03:02)
05. EP 5 The First Step Pt 2 (02:38)
06. EP 6 The Emerald Forest Pt 1 (04:26)
07. EP 7 The Emerald Forest Pt 2 (03:03)
08. EP 8 Players and Pieces (07:27)
09. EP 9 The Badge and the Burden Pt 1 (03:05)
10. EP 10 The Badge and the Buden Pt 2 (02:38)
11. EP 11 Jaunedice Pt 1 (01:28)
12. EP 12 Jaunedice Pt 2 (06:07)
13. EP 13 Forever Fall Pt 1 (02:36)
14. EP 14 Forever Fall Pt 2 (05:01)
15. EP 15 The Stray (06:58)
16. EP 16 Black and White (11:08)
Exact Audio Copy V1.1 from 23. June 2015

EAC extraction logfile from 7. June 2016, 12:40

Jeff Williams / RWBY Volume 1 Score

Used drive : PIONEER BD-ROM BDCTD03RT Adapter: 1 ID: 0

Read mode : SecureUtilize accurate stream : YesDefeat audio cache : YesMake use of C2 pointers : No

Read offset correction : 667Overread into Lead-In and Lead-Out : NoFill up missing offset samples with silence : YesDelete leading and trailing silent blocks : NoNull samples used in CRC calculations : YesUsed interface : Native Win32 interface for Win NT & 2000Gap handling : Appended to previous track

Used output format : User Defined EncoderSelected bitrate : 768 kBit/sQuality : HighAdd ID3 tag : NoCommand line compressor : Flac/flac.exeAdditional command line options : -V -8 -T "Genre=%genre%" -T "Artist=%artist%" -T "Title=%title%" -T "Album=%albumtitle%" -T "Date=%year%" -T "Tracknumber=%tracknr%" %source%

TOC of the extracted CD

Track | Start | Length | Start sector | End sector --------------------------------------------------------- 1 | 0:00.00 | 8:39.61 | 0 | 38985 2 | 8:39.61 | 3:33.29 | 38986 | 54989 3 | 12:13.15 | 4:41.17 | 54990 | 76081 4 | 16:54.32 | 3:01.71 | 76082 | 89727 5 | 19:56.28 | 2:38.18 | 89728 | 101595 6 | 22:34.46 | 4:26.25 | 101596 | 121570 7 | 27:00.71 | 3:03.21 | 121571 | 135316 8 | 30:04.17 | 7:27.37 | 135317 | 168878 9 | 37:31.54 | 3:04.55 | 168879 | 182733 10 | 40:36.34 | 2:38.31 | 182734 | 194614 11 | 43:14.65 | 1:28.37 | 194615 | 201251 12 | 44:43.27 | 6:07.37 | 201252 | 228813 13 | 50:50.64 | 2:36.12 | 228814 | 240525 14 | 53:27.01 | 5:01.37 | 240526 | 263137 15 | 58:28.38 | 6:57.59 | 263138 | 294471 16 | 65:26.22 | 11:07.71 | 294472 | 344567

Track 1

Filename D:\dev\Jeff Williams - RWBY\RWBY Volume 1 (2013)\CD2 - Score\01. EP 1 Ruby Rose.wav

Pre-gap length 0:00:02.00

Peak level 98.9 % Extraction speed 3.3 X Track quality 100.0 % Test CRC 5448A941 Copy CRC 5448A941 Accurately ripped (confidence 3) [A00C73CD] (AR v2) Copy OK

Track 2

Filename D:\dev\Jeff Williams - RWBY\RWBY Volume 1 (2013)\CD2 - Score\02. EP 2 The Shining Beacon Pt 1.wav

Peak level 98.7 % Extraction speed 3.4 X Track quality 100.0 % Test CRC 68E8E284 Copy CRC 68E8E284 Accurately ripped (confidence 2) [190EB519] (AR v2) Copy OK

Track 3

Filename D:\dev\Jeff Williams - RWBY\RWBY Volume 1 (2013)\CD2 - Score\03. EP 3 The Shining Beacon Pt 2.wav

Peak level 98.0 % Extraction speed 3.7 X Track quality 100.0 % Test CRC 6AFCEC1C Copy CRC 6AFCEC1C Accurately ripped (confidence 2) [1F39EEE5] (AR v2) Copy OK

Track 4

Filename D:\dev\Jeff Williams - RWBY\RWBY Volume 1 (2013)\CD2 - Score\04. EP 4 The First Step Pt 1.wav

Peak level 100.0 % Extraction speed 3.2 X Track quality 99.9 % Test CRC D7252487 Copy CRC D7252487 Accurately ripped (confidence 2) [8522A23C] (AR v2) Copy OK

Track 5

Filename D:\dev\Jeff Williams - RWBY\RWBY Volume 1 (2013)\CD2 - Score\05. EP 5 The First Step Pt 2.wav

Peak level 100.0 % Extraction speed 3.8 X Track quality 100.0 % Test CRC 515D3FB3 Copy CRC 515D3FB3 Accurately ripped (confidence 2) [EB62329B] (AR v2) Copy OK

Track 6

Filename D:\dev\Jeff Williams - RWBY\RWBY Volume 1 (2013)\CD2 - Score\06. EP 6 The Emerald Forest Pt 1.wav

Peak level 98.1 % Extraction speed 4.2 X Track quality 100.0 % Test CRC 5AAF71F5 Copy CRC 5AAF71F5 Accurately ripped (confidence 2) [705D1AF8] (AR v2) Copy OK

Track 7

Filename D:\dev\Jeff Williams - RWBY\RWBY Volume 1 (2013)\CD2 - Score\07. EP 7 The Emerald Forest Pt 2.wav

Peak level 100.0 % Extraction speed 3.6 X Track quality 99.9 % Test CRC AE37DBFD Copy CRC AE37DBFD Accurately ripped (confidence 2) [6DEB9ABE] (AR v2) Copy OK

Track 8

Filename D:\dev\Jeff Williams - RWBY\RWBY Volume 1 (2013)\CD2 - Score\08. EP 8 Players and Pieces.wav

Peak level 100.0 % Extraction speed 4.5 X Track quality 99.9 % Test CRC EFDF7C9A Copy CRC EFDF7C9A Accurately ripped (confidence 2) [17F512F9] (AR v2) Copy OK

Track 9

Filename D:\dev\Jeff Williams - RWBY\RWBY Volume 1 (2013)\CD2 - Score\09. EP 9 The Badge and the Burden Pt 1.wav

Peak level 100.0 % Extraction speed 4.6 X Track quality 100.0 % Test CRC 60A3052E Copy CRC 60A3052E Accurately ripped (confidence 2) [7CB32243] (AR v2) Copy OK

Track 10

Filename D:\dev\Jeff Williams - RWBY\RWBY Volume 1 (2013)\CD2 - Score\10. EP 10 The Badge and the Buden Pt 2.wav

Peak level 100.0 % Extraction speed 4.5 X Track quality 100.0 % Test CRC 5285A52D Copy CRC 5285A52D Accurately ripped (confidence 2) [A89775BA] (AR v2) Copy OK

Track 11

Filename D:\dev\Jeff Williams - RWBY\RWBY Volume 1 (2013)\CD2 - Score\11. EP 11 Jaunedice Pt 1.wav

Peak level 100.0 % Extraction speed 3.9 X Track quality 100.0 % Test CRC 8306200B Copy CRC 8306200B Accurately ripped (confidence 2) [2999D4D7] (AR v2) Copy OK

Track 12

Filename D:\dev\Jeff Williams - RWBY\RWBY Volume 1 (2013)\CD2 - Score\12. EP 12 Jaunedice Pt 2.wav

Peak level 98.4 % Extraction speed 4.9 X Track quality 99.9 % Test CRC 2CF355B4 Copy CRC 2CF355B4 Accurately ripped (confidence 2) [0F103DB4] (AR v2) Copy OK

Track 13

Filename D:\dev\Jeff Williams - RWBY\RWBY Volume 1 (2013)\CD2 - Score\13. EP 13 Forever Fall Pt 1.wav

Peak level 98.1 % Extraction speed 4.8 X Track quality 100.0 % Test CRC 0DBB3FB3 Copy CRC 0DBB3FB3 Accurately ripped (confidence 2) [C3401207] (AR v2) Copy OK

Track 14

Filename D:\dev\Jeff Williams - RWBY\RWBY Volume 1 (2013)\CD2 - Score\14. EP 14 Forever Fall Pt 2.wav

Peak level 98.8 % Extraction speed 5.5 X Track quality 100.0 % Test CRC 17969972 Copy CRC 17969972 Accurately ripped (confidence 2) [7D1B161B] (AR v2) Copy OK

Track 15

Filename D:\dev\Jeff Williams - RWBY\RWBY Volume 1 (2013)\CD2 - Score\15. EP 15 The Stray.wav

Peak level 100.0 % Extraction speed 5.9 X Track quality 100.0 % Test CRC 2B15425D Copy CRC 2B15425D Accurately ripped (confidence 2) [85BE0D45] (AR v2) Copy OK

Track 16

Filename D:\dev\Jeff Williams - RWBY\RWBY Volume 1 (2013)\CD2 - Score\16. EP 16 Black and White.wav

Peak level 99.0 % Extraction speed 6.4 X Track quality 100.0 % Test CRC 551AA6E0 Copy CRC 551AA6E0 Accurately ripped (confidence 2) [34094765] (AR v2) Copy OK

All tracks accurately ripped

No errors occurred

End of status report

==== Log checksum 7958965FD609FDE126704C3F6DD1D9F172C84F88C86EF0AE446AB2DDEB21B32A ====
REM GENRE ScoreREM DATE 2013REM DISCID DC11F210REM COMMENT "ExactAudioCopy v1.1"PERFORMER "Jeff Williams"TITLE "RWBY Volume 1 Score"FILE "01. EP 1 Ruby Rose.wav" WAVE TRACK 01 AUDIO TITLE "EP 1 Ruby Rose" PERFORMER "Jeff Williams" INDEX 01 00:00:00FILE "02. EP 2 The Shining Beacon Pt 1.wav" WAVE TRACK 02 AUDIO TITLE "EP 2 The Shining Beacon Pt 1" PERFORMER "Jeff Williams" INDEX 01 00:00:00FILE "03. EP 3 The Shining Beacon Pt 2.wav" WAVE TRACK 03 AUDIO TITLE "EP 3 The Shining Beacon Pt 2" PERFORMER "Jeff Williams" INDEX 01 00:00:00FILE "04. EP 4 The First Step Pt 1.wav" WAVE TRACK 04 AUDIO TITLE "EP 4 The First Step Pt 1" PERFORMER "Jeff Williams" INDEX 01 00:00:00FILE "05. EP 5 The First Step Pt 2.wav" WAVE TRACK 05 AUDIO TITLE "EP 5 The First Step Pt 2" PERFORMER "Jeff Williams & Steve Goldshein" INDEX 01 00:00:00FILE "06. EP 6 The Emerald Forest Pt 1.wav" WAVE TRACK 06 AUDIO TITLE "EP 6 The Emerald Forest Pt 1" PERFORMER "Jeff Williams & Steve Goldshein" INDEX 01 00:00:00FILE "07. EP 7 The Emerald Forest Pt 2.wav" WAVE TRACK 07 AUDIO TITLE "EP 7 The Emerald Forest Pt 2" PERFORMER "Jeff Williams" INDEX 01 00:00:00FILE "08. EP 8 Players and Pieces.wav" WAVE TRACK 08 AUDIO TITLE "EP 8 Players and Pieces" PERFORMER "Jeff Williams & Alex Abraham" INDEX 01 00:00:00FILE "09. EP 9 The Badge and the Burden Pt 1.wav" WAVE TRACK 09 AUDIO TITLE "EP 9 The Badge and the Burden Pt 1" PERFORMER "Alex Abraham" INDEX 01 00:00:00FILE "10. EP 10 The Badge and the Buden Pt 2.wav" WAVE TRACK 10 AUDIO TITLE "EP 10 The Badge and the Buden Pt 2" PERFORMER "Alex Abraham" INDEX 01 00:00:00FILE "11. EP 11 Jaunedice Pt 1.wav" WAVE TRACK 11 AUDIO TITLE "EP 11 Jaunedice Pt 1" PERFORMER "Jeff Williams & Steve Goldshein" INDEX 01 00:00:00FILE "12. EP 12 Jaunedice Pt 2.wav" WAVE TRACK 12 AUDIO TITLE "EP 12 Jaunedice Pt 2" PERFORMER "Jeff Williams & Steve Goldshein" INDEX 01 00:00:00FILE "13. EP 13 Forever Fall Pt 1.wav" WAVE TRACK 13 AUDIO TITLE "EP 13 Forever Fall Pt 1" PERFORMER "Jeff Williams & Alex Abraham" INDEX 01 00:00:00FILE "14. EP 14 Forever Fall Pt 2.wav" WAVE TRACK 14 AUDIO TITLE "EP 14 Forever Fall Pt 2" PERFORMER "Jeff Williams & Steve Goldshein" INDEX 01 00:00:00FILE "15. EP 15 The Stray.wav" WAVE TRACK 15 AUDIO TITLE "EP 15 The Stray" PERFORMER "Jeff Williams & Alex Abraham" INDEX 01 00:00:00FILE "16. EP 16 Black and White.wav" WAVE TRACK 16 AUDIO TITLE "EP 16 Black and White" PERFORMER "Jeff Williams & Steve Goldshein & Alex Abraham" INDEX 01 00:00:00
01. Time to Say Goodbye (03:24)
02. Die (03:18)
03. Shine (04:20)
04. Dream Come True (04:12)
05. Caffeine (03:09)
06. All Our Days (04:37)
07. Boop (03:25)
08. Sacrifice (04:00)
09. This Will Be the Day (Acoustic) (03:17)
10. Time To Say Goodbye (James Landino's Beach Bae Remix) (03:19)
11. This Will Be The Day (James Landino's Magical Girl Remix) (03:03)
Exact Audio Copy V1.1 from 23. June 2015

EAC extraction logfile from 7. June 2016, 13:11

Jeff Williams feat. Casey Lee Williams / RWBY Volume 2 Soundtrack

Used drive : PIONEER BD-ROM BDCTD03RT Adapter: 1 ID: 0

Read mode : SecureUtilize accurate stream : YesDefeat audio cache : YesMake use of C2 pointers : No

Read offset correction : 667Overread into Lead-In and Lead-Out : NoFill up missing offset samples with silence : YesDelete leading and trailing silent blocks : NoNull samples used in CRC calculations : YesUsed interface : Native Win32 interface for Win NT & 2000Gap handling : Appended to previous track

Used output format : User Defined EncoderSelected bitrate : 768 kBit/sQuality : HighAdd ID3 tag : NoCommand line compressor : Flac/flac.exeAdditional command line options : -V -8 -T "Genre=%genre%" -T "Artist=%artist%" -T "Title=%title%" -T "Album=%albumtitle%" -T "Date=%year%" -T "Tracknumber=%tracknr%" %source%

TOC of the extracted CD

Track | Start | Length | Start sector | End sector --------------------------------------------------------- 1 | 0:00.00 | 3:25.19 | 0 | 15393 2 | 3:25.19 | 3:19.26 | 15394 | 30344 3 | 6:44.45 | 4:20.70 | 30345 | 49914 4 | 11:05.40 | 4:13.35 | 49915 | 68924 5 | 15:19.00 | 3:10.32 | 68925 | 83206 6 | 18:29.32 | 4:37.65 | 83207 | 104046 7 | 23:07.22 | 3:26.26 | 104047 | 119522 8 | 26:33.48 | 4:01.30 | 119523 | 137627 9 | 30:35.03 | 3:18.34 | 137628 | 152511 10 | 33:53.37 | 3:20.26 | 152512 | 167537 11 | 37:13.63 | 3:03.03 | 167538 | 181265

Track 1

Filename D:\dev\Jeff Williams - RWBY\RWBY Volume 2 (2014)\CD1 - Soundtrack\01. Time to Say Goodbye.wav

Pre-gap length 0:00:02.00

Peak level 99.9 % Extraction speed 2.8 X Track quality 100.0 % Test CRC 9AA1BD36 Copy CRC 9AA1BD36 Accurately ripped (confidence 3) [D0211DDC] (AR v2) Copy OK

Track 2

Filename D:\dev\Jeff Williams - RWBY\RWBY Volume 2 (2014)\CD1 - Soundtrack\02. Die.wav

Pre-gap length 0:00:01.00

Peak level 99.6 % Extraction speed 3.0 X Track quality 100.0 % Test CRC 493DD786 Copy CRC 493DD786 Accurately ripped (confidence 3) [7A3C48FF] (AR v2) Copy OK

Track 3

Filename D:\dev\Jeff Williams - RWBY\RWBY Volume 2 (2014)\CD1 - Soundtrack\03. Shine.wav

Pre-gap length 0:00:01.00

Peak level 99.6 % Extraction speed 3.0 X Track quality 99.9 % Test CRC D848FCE8 Copy CRC D848FCE8 Accurately ripped (confidence 3) [DEF317FD] (AR v2) Copy OK

Track 4

Filename D:\dev\Jeff Williams - RWBY\RWBY Volume 2 (2014)\CD1 - Soundtrack\04. Dream Come True.wav

Pre-gap length 0:00:01.00

Peak level 99.6 % Extraction speed 3.6 X Track quality 100.0 % Test CRC 9C77CA62 Copy CRC 9C77CA62 Accurately ripped (confidence 3) [AFFC3308] (AR v2) Copy OK

Track 5

Filename D:\dev\Jeff Williams - RWBY\RWBY Volume 2 (2014)\CD1 - Soundtrack\05. Caffeine.wav

Pre-gap length 0:00:01.00

Peak level 99.6 % Extraction speed 3.7 X Track quality 100.0 % Test CRC B1315D5E Copy CRC B1315D5E Accurately ripped (confidence 3) [41AD271E] (AR v2) Copy OK

Track 6

Filename D:\dev\Jeff Williams - RWBY\RWBY Volume 2 (2014)\CD1 - Soundtrack\06. All Our Days.wav

Pre-gap length 0:00:01.00

Peak level 96.3 % Extraction speed 3.7 X Track quality 99.9 % Test CRC 5BF30A65 Copy CRC 5BF30A65 Accurately ripped (confidence 3) [C88D82BF] (AR v2) Copy OK

Track 7

Filename D:\dev\Jeff Williams - RWBY\RWBY Volume 2 (2014)\CD1 - Soundtrack\07. Boop.wav

Pre-gap length 0:00:01.00

Peak level 99.6 % Extraction speed 4.1 X Track quality 100.0 % Test CRC B65DE0BF Copy CRC B65DE0BF Accurately ripped (confidence 3) [207CA965] (AR v2) Copy OK

Track 8

Filename D:\dev\Jeff Williams - RWBY\RWBY Volume 2 (2014)\CD1 - Soundtrack\08. Sacrifice.wav

Pre-gap length 0:00:01.00

Peak level 99.6 % Extraction speed 4.4 X Track quality 100.0 % Test CRC 15AD3AF1 Copy CRC 15AD3AF1 Accurately ripped (confidence 3) [5A929BF7] (AR v2) Copy OK

Track 9

Filename D:\dev\Jeff Williams - RWBY\RWBY Volume 2 (2014)\CD1 - Soundtrack\09. This Will Be the Day (Acoustic).wav

Pre-gap length 0:00:01.00

Peak level 99.6 % Extraction speed 4.4 X Track quality 100.0 % Test CRC EF10D7A8 Copy CRC EF10D7A8 Accurately ripped (confidence 3) [C2D1D3ED] (AR v2) Copy OK

Track 10

Filename D:\dev\Jeff Williams - RWBY\RWBY Volume 2 (2014)\CD1 - Soundtrack\10. Time To Say Goodbye (James Landino's Beach Bae Remix).wav

Pre-gap length 0:00:01.00

Peak level 100.0 % Extraction speed 4.6 X Track quality 100.0 % Test CRC A960DBD7 Copy CRC A960DBD7 Accurately ripped (confidence 3) [6FBEBB97] (AR v2) Copy OK

Track 11

Filename D:\dev\Jeff Williams - RWBY\RWBY Volume 2 (2014)\CD1 - Soundtrack\11. This Will Be The Day (James Landino's Magical Girl Remix).wav

Pre-gap length 0:00:01.00

Peak level 98.1 % Extraction speed 4.7 X Track quality 100.0 % Test CRC 02A831BB Copy CRC 02A831BB Accurately ripped (confidence 3) [997971FD] (AR v2) Copy OK

All tracks accurately ripped

No errors occurred

End of status report

==== Log checksum 2D33B05C2EE11D1D94EBB19AEEDE8ED56B802F5907536B0FBE15EC7BE06B1ECF ====
REM GENRE SoundtrackREM DATE 2014REM DISCID 8A09700BREM COMMENT "ExactAudioCopy v1.1"PERFORMER "Jeff Williams feat. Casey Lee Williams"TITLE "RWBY Volume 2 Soundtrack"FILE "01. Time to Say Goodbye.wav" WAVE TRACK 01 AUDIO TITLE "Time to Say Goodbye" PERFORMER "Jeff Williams feat. Casey Lee Williams" INDEX 01 00:00:00 TRACK 02 AUDIO TITLE "Die" PERFORMER "Jeff Williams feat. Casey Lee Williams" INDEX 00 03:24:19FILE "02. Die.wav" WAVE INDEX 01 00:00:00 TRACK 03 AUDIO TITLE "Shine" PERFORMER "Jeff Williams feat. Casey Lee Williams" INDEX 00 03:18:26FILE "03. Shine.wav" WAVE INDEX 01 00:00:00 TRACK 04 AUDIO TITLE "Dream Come True" PERFORMER "Jeff Williams feat. Casey Lee Williams" INDEX 00 04:19:70FILE "04. Dream Come True.wav" WAVE INDEX 01 00:00:00 TRACK 05 AUDIO TITLE "Caffeine" PERFORMER "Jeff Williams feat. Casey Lee Williams & Lamar Hall" INDEX 00 04:12:35FILE "05. Caffeine.wav" WAVE INDEX 01 00:00:00 TRACK 06 AUDIO TITLE "All Our Days" PERFORMER "Jeff Williams feat. Casey Lee Williams" INDEX 00 03:09:32FILE "06. All Our Days.wav" WAVE INDEX 01 00:00:00 TRACK 07 AUDIO TITLE "Boop" PERFORMER "Jeff Williams feat. Casey Lee Williams" INDEX 00 04:36:65FILE "07. Boop.wav" WAVE INDEX 01 00:00:00 TRACK 08 AUDIO TITLE "Sacrifice" PERFORMER "Jeff Williams feat. Casey Lee Williams" INDEX 00 03:25:26FILE "08. Sacrifice.wav" WAVE INDEX 01 00:00:00 TRACK 09 AUDIO TITLE "This Will Be the Day (Acoustic)" PERFORMER "Jeff Williams feat. Casey Lee Williams" INDEX 00 04:00:30FILE "09. This Will Be the Day (Acoustic).wav" WAVE INDEX 01 00:00:00 TRACK 10 AUDIO TITLE "Time To Say Goodbye (James Landino's Beach Bae Remix)" PERFORMER "Jeff Williams feat. Casey Lee Williams" INDEX 00 03:17:34FILE "10. Time To Say Goodbye (James Landino's Beach Bae Remix).wav" WAVE INDEX 01 00:00:00 TRACK 11 AUDIO TITLE "This Will Be The Day (James Landino's Magical Girl Remix)" PERFORMER "Jeff Williams feat. Casey Lee Williams" INDEX 00 03:19:26FILE "11. This Will Be The Day (James Landino's Magical Girl Remix).wav" WAVE INDEX 01 00:00:00
01. EP 1 Best Day Ever (09:29)
02. EP 2 Welcome to Beacon (04:54)
03. EP 3 A Minor Hiccup (04:00)
04. EP 4 Painting the Town... (08:01)
05. EP 5 Extracurricular (05:35)
06. EP 6 Burning the Candle (05:17)
07. EP 7 Dance Dance Infiltration (05:04)
08. EP 8 Field Trip (04:29)
09. EP 9 Search and Destroy (10:05)
10. EP 10 Mountain Glenn (06:01)
11. EP 11 No Brakes (09:20
12. EP 12 Breach (03:36)
Exact Audio Copy V1.1 from 23. June 2015

EAC extraction logfile from 7. June 2016, 13:56

Jeff Williams / RWBY Volume 2 Score

Used drive : PIONEER BD-ROM BDCTD03RT Adapter: 1 ID: 0

Read mode : SecureUtilize accurate stream : YesDefeat audio cache : YesMake use of C2 pointers : No

Read offset correction : 667Overread into Lead-In and Lead-Out : NoFill up missing offset samples with silence : YesDelete leading and trailing silent blocks : NoNull samples used in CRC calculations : YesUsed interface : Native Win32 interface for Win NT & 2000Gap handling : Appended to previous track

Used output format : User Defined EncoderSelected bitrate : 768 kBit/sQuality : HighAdd ID3 tag : NoCommand line compressor : Flac/flac.exeAdditional command line options : -V -8 -T "Genre=%genre%" -T "Artist=%artist%" -T "Title=%title%" -T "Album=%albumtitle%" -T "Date=%year%" -T "Tracknumber=%tracknr%" %source%

TOC of the extracted CD

Track | Start | Length | Start sector | End sector --------------------------------------------------------- 1 | 0:00.00 | 9:28.39 | 0 | 42638 2 | 9:28.39 | 4:53.38 | 42639 | 64651 3 | 14:22.02 | 4:00.11 | 64652 | 82662 4 | 18:22.13 | 8:00.62 | 82663 | 118724 5 | 26:23.00 | 5:35.24 | 118725 | 143873 6 | 31:58.24 | 5:16.71 | 143874 | 167644 7 | 37:15.20 | 5:03.47 | 167645 | 190416 8 | 42:18.67 | 4:28.59 | 190417 | 210575 9 | 46:47.51 | 10:05.29 | 210576 | 255979 10 | 56:53.05 | 6:00.46 | 255980 | 283025 11 | 62:53.51 | 9:20.37 | 283026 | 325062 12 | 72:14.13 | 3:36.28 | 325063 | 341290

Track 1

Filename D:\dev\Jeff Williams - RWBY\RWBY Volume 2 (2014)\CD2 - Score\01. EP 1 Best Day Ever.wav

Pre-gap length 0:00:02.00

Peak level 100.0 % Extraction speed 3.4 X Track quality 100.0 % Test CRC AEA896F1 Copy CRC AEA896F1 Accurately ripped (confidence 3) [EA1845E0] (AR v2) Copy OK

Track 2

Filename D:\dev\Jeff Williams - RWBY\RWBY Volume 2 (2014)\CD2 - Score\02. EP 2 Welcome to Beacon.wav

Pre-gap length 0:00:01.00

Peak level 100.0 % Extraction speed 3.7 X Track quality 100.0 % Test CRC 31740152 Copy CRC 31740152 Accurately ripped (confidence 3) [E98DBF7B] (AR v2) Copy OK

Track 3

Filename D:\dev\Jeff Williams - RWBY\RWBY Volume 2 (2014)\CD2 - Score\03. EP 3 A Minor Hiccup.wav

Pre-gap length 0:00:01.00

Peak level 99.3 % Extraction speed 3.8 X Track quality 100.0 % Test CRC E105B3E0 Copy CRC E105B3E0 Accurately ripped (confidence 3) [D797CD02] (AR v2) Copy OK

Track 4

Filename D:\dev\Jeff Williams - RWBY\RWBY Volume 2 (2014)\CD2 - Score\04. EP 4 Painting the Town....wav

Pre-gap length 0:00:01.00

Peak level 100.0 % Extraction speed 4.4 X Track quality 100.0 % Test CRC 5FB4D211 Copy CRC 5FB4D211 Accurately ripped (confidence 3) [F5C89AEF] (AR v2) Copy OK

Track 5

Filename D:\dev\Jeff Williams - RWBY\RWBY Volume 2 (2014)\CD2 - Score\05. EP 5 Extracurricular.wav

Pre-gap length 0:00:01.00

Peak level 100.0 % Extraction speed 4.2 X Track quality 99.9 % Test CRC 24CDA894 Copy CRC 24CDA894 Accurately ripped (confidence 3) [11342BC4] (AR v2) Copy OK

Track 6

Filename D:\dev\Jeff Williams - RWBY\RWBY Volume 2 (2014)\CD2 - Score\06. EP 6 Burning the Candle.wav

Pre-gap length 0:00:01.00

Peak level 97.6 % Extraction speed 4.8 X Track quality 100.0 % Test CRC 3951780D Copy CRC 3951780D Accurately ripped (confidence 3) [091D6F23] (AR v2) Copy OK

Track 7

Filename D:\dev\Jeff Williams - RWBY\RWBY Volume 2 (2014)\CD2 - Score\07. EP 7 Dance Dance Infiltration.wav

Pre-gap length 0:00:01.00

Peak level 98.4 % Extraction speed 4.9 X Track quality 100.0 % Test CRC B61AE0C4 Copy CRC B61AE0C4 Accurately ripped (confidence 3) [B62C0923] (AR v2) Copy OK

Track 8

Filename D:\dev\Jeff Williams - RWBY\RWBY Volume 2 (2014)\CD2 - Score\08. EP 8 Field Trip.wav

Pre-gap length 0:00:01.00

Peak level 97.1 % Extraction speed 5.0 X Track quality 100.0 % Test CRC 68029599 Copy CRC 68029599 Accurately ripped (confidence 3) [FF112BDA] (AR v2) Copy OK

Track 9

Filename D:\dev\Jeff Williams - RWBY\RWBY Volume 2 (2014)\CD2 - Score\09. EP 9 Search and Destroy.wav

Pre-gap length 0:00:01.00

Peak level 100.0 % Extraction speed 5.7 X Track quality 100.0 % Test CRC E6E66950 Copy CRC E6E66950 Accurately ripped (confidence 3) [B3067A93] (AR v2) Copy OK

Track 10

Filename D:\dev\Jeff Williams - RWBY\RWBY Volume 2 (2014)\CD2 - Score\10. EP 10 Mountain Glenn.wav

Pre-gap length 0:00:01.00

Peak level 100.0 % Extraction speed 5.8 X Track quality 100.0 % Test CRC 3ED9AD40 Copy CRC 3ED9AD40 Accurately ripped (confidence 3) [3EBE0720] (AR v2) Copy OK

Track 11

Filename D:\dev\Jeff Williams - RWBY\RWBY Volume 2 (2014)\CD2 - Score\11. EP 11 No Brakes.wav

Pre-gap length 0:00:01.00

Peak level 99.1 % Extraction speed 6.2 X Track quality 100.0 % Test CRC F4BC6C41 Copy CRC F4BC6C41 Accurately ripped (confidence 3) [DB0986CE] (AR v2) Copy OK

Track 12

Filename D:\dev\Jeff Williams - RWBY\RWBY Volume 2 (2014)\CD2 - Score\12. EP 12 Breach.wav

Pre-gap length 0:00:01.00

Peak level 100.0 % Extraction speed 5.8 X Track quality 100.0 % Test CRC 654698BA Copy CRC 654698BA Accurately ripped (confidence 3) [600B8445] (AR v2) Copy OK

All tracks accurately ripped

No errors occurred

End of status report

==== Log checksum 6D59708F5BB74FD4B04717F093B843B9087F8D409808156FC294934255B393D6 ====
REM GENRE ScoreREM DATE 2014REM DISCID A411C60CREM COMMENT "ExactAudioCopy v1.1"PERFORMER "Jeff Williams"TITLE "RWBY Volume 2 Score"FILE "01. EP 1 Best Day Ever.wav" WAVE TRACK 01 AUDIO TITLE "EP 1 Best Day Ever" PERFORMER "Jeff Williams & Alex Abraham" INDEX 01 00:00:00 TRACK 02 AUDIO TITLE "EP 2 Welcome to Beacon" PERFORMER "Jeff Williams & Alex Abraham & Steve Goldshein" INDEX 00 09:27:39FILE "02. EP 2 Welcome to Beacon.wav" WAVE INDEX 01 00:00:00 TRACK 03 AUDIO TITLE "EP 3 A Minor Hiccup" PERFORMER "Jeff Williams & Alex Abraham & Steve Goldshein" INDEX 00 04:52:38FILE "03. EP 3 A Minor Hiccup.wav" WAVE INDEX 01 00:00:00 TRACK 04 AUDIO TITLE "EP 4 Painting the Town..." PERFORMER "Jeff Williams & Steve Goldshein" INDEX 00 03:59:11FILE "04. EP 4 Painting the Town....wav" WAVE INDEX 01 00:00:00 TRACK 05 AUDIO TITLE "EP 5 Extracurricular" PERFORMER "Jeff Williams & Alex Abraham" INDEX 00 07:59:62FILE "05. EP 5 Extracurricular.wav" WAVE INDEX 01 00:00:00 TRACK 06 AUDIO TITLE "EP 6 Burning the Candle" PERFORMER "Jeff Williams & Alex Abraham" INDEX 00 05:34:24FILE "06. EP 6 Burning the Candle.wav" WAVE INDEX 01 00:00:00 TRACK 07 AUDIO TITLE "EP 7 Dance Dance Infiltration" PERFORMER "Jeff Williams & Alex Abraham" INDEX 00 05:15:71FILE "07. EP 7 Dance Dance Infiltration.wav" WAVE INDEX 01 00:00:00 TRACK 08 AUDIO TITLE "EP 8 Field Trip" PERFORMER "Jeff Williams & Alex Abraham & Steve Goldshein" INDEX 00 05:02:47FILE "08. EP 8 Field Trip.wav" WAVE INDEX 01 00:00:00 TRACK 09 AUDIO TITLE "EP 9 Search and Destroy" PERFORMER "Jeff Williams & Alex Abraham & Steve Goldshein" INDEX 00 04:27:59FILE "09. EP 9 Search and Destroy.wav" WAVE INDEX 01 00:00:00 TRACK 10 AUDIO TITLE "EP 10 Mountain Glenn" PERFORMER "Jeff Williams & Alex Abraham & Steve Goldshein" INDEX 00 10:04:29FILE "10. EP 10 Mountain Glenn.wav" WAVE INDEX 01 00:00:00 TRACK 11 AUDIO TITLE "EP 11 No Brakes" PERFORMER "Jeff Williams & Alex Abraham & Steve Goldshein" INDEX 00 05:59:46FILE "11. EP 11 No Brakes.wav" WAVE INDEX 01 00:00:00 TRACK 12 AUDIO TITLE "EP 12 Breach" PERFORMER "Jeff Williams & Alex Abraham" INDEX 00 09:19:37FILE "12. EP 12 Breach.wav" WAVE INDEX 01 00:00:00
<ol class="post-ul">
Для полной коллекции, кроме Volume 3, еще не вышедшего на CD, рекомендую так же взять из раздачи <a href="viewtopic.php?t=4501273" class="postLink">версии iTunes</a> следующие треки:
- I Burn (Альбомы/2013 - Volume 1 Soundtrack/07. I Burn.m4a) - версия без цензуры
- сингл Red Like Roses Part II (Синглы/2013 - Red Like Roses Part II/01. Red Like Roses Part II.m4a) - версия Red Like Roses Part II, прозвучавшая в 8 эпизоде (Players and Pieces)
Хотелось бы оставить "стандартные ссылки" поддержать авторов покупкой альбомов, но у меня смешанные чувства - В цифровом виде lossless есть только в Tidal, который недоступен в СНГ. Я ненавижу региональные ограничения, поэтому хотелось бы одновременно и поддержать, и послать лучи ненависти в связи с уже порядком надоевшей резервацией.
Впрочем, вот: iTunes, Google Play
</ol>


Трекер:  [ 07-Июн-2016 13:30 ]

  

Скачать .torrent

Размер .torrent файла 35 KB


Размер: 1.43 GB
Хэш (hash) релиза: 6ef34692cbae2530f79dc009124d4f5b4fbfb31f

Торренты, похожие на RWBY скачать торрент

Форум Название Автор Размер S L Добавлен
Саундтреки к фильмам и мультфильмам (mp3) ·· (Score) Красный, Белый, Черный, Желтый / RWBY (Jeff Williams, Steve Goldshein, Alex Abraham) - 2013-2017, MP3, 320 kbps Galfimbul 13247331641.23 GB 0 0 1505753411

19:50

18-Сен-17

Саундтреки к фильмам и мультфильмам (lossless) ·· (Score/TV) Красный, белый, чёрный, жёлтый / RWBY (Jeff Williams) - 2013-2017, FLAC (tracks+.cue, tracks), lossless Galfimbul 34519802843.21 GB 0 0 1498299217

13:13

24-Июн-17

Саундтреки к фильмам и мультфильмам (mp3) ·· (Score) Красный, Белый, Чёрный, Жёлтый / RWBY (Jeff Williams) - 2017, MP3, 320 kbps Galfimbul 393031271375 MB 2 0 1497710557

17:42

17-Июн-17

Саундтреки к фильмам и мультфильмам (lossless) ·· (Score/TV) Красный, белый, чёрный, жёлтый / RWBY (Jeff Williams) - 2013-2016, FLAC (tracks+.cue), lossless Galfimbul 24398478782.27 GB 0 0 1478696740

16:05

9-Ноя-16

Саундтреки к фильмам и мультфильмам (lossless) ·· (Score/TV) Красный, белый, чёрный, жёлтый / RWBY (Jeff Williams) - 2013-2016, FLAC (tracks+.cue, tracks), lossless Galfimbul 24394162352.27 GB 0 0 1470519519

00:38

7-Авг-16

Саундтреки к играм (mp3) ·· (Score) Красный, Белый, Черный, Желтый / RWBY (Jeff Williams, Steve Goldshein, Alex Abraham) - 2013-2016, MP3, 320 kbps Galfimbul 924815899882 MB 0 0 1465764153

23:42

12-Июн-16

Саундтреки к играм (mp3) ·· (Score) Красный, Белый, Черный, Желтый / RWBY (Jeff Williams) - 2013-2014, MP3, 320 kbps Galfimbul 581059736554 MB 0 0 1417725332

23:35

4-Дек-14

Еще никто не оставлял запись к записи скачать торрент RWBY . Будь первым!

!Обратная связь