Скачать через торрент Короткометражные фильмы студии "Гибли" Ghibli ga Ippai Special Studio Ghibli Short Short бесплатно Аниме Все серии на русском torrent

Если у вас наблюдаются проблемы со скриншотами, переходом по ссылками, скачиванием торрентов - проблемы в блокировщике рекламы AdBlock. #хорошегоДня!


Статистика раздачи
Размер:  6.78 GB   |    Зарегистрирован:  1 год 3 месяца   |    .torrent скачан:  106 раз   |   
Раздают:  1   Качают:  1  
   
Загрузка...
 
Автор Сообщение

Galfimbul

avatar Galfimbul


Короткометражные фильмы студии "Гибли" / ジブリがいっぱいSPECIAL ショート ショート / Ghibli ga Ippai Special Studio Ghibli Short Short
Страна: Япония
Год выпуска: 2005 г.
Жанр: музыкальный, комедия, фантастика, реклама
Тип: Special
Продолжительность: ~60 мин.
Режиссеры: Hayao Miyazaki, Yoshifumi Kondō, Yoshiyuki Momose, Osamu Tanabe, Shinji Hashimoto, Takeshi Inamura
Студия: Studio Ghibli / Studio Kajino

Описание: Коллекция рекламных роликов и короткометражек, выпущенных студией "Гибли" в период с 1992 по 2005 годы, а также интервью с создателями этих роликов.
Главной достопримечательностью диска является наличие анимационного клипа на песню дуэта Chage & Aska "On Your Mark", режиссёр Хаяо Миязаки (песня присутствует на диске в двух вариантах: на японском и английском, также в меню доп.материалов доступна раскадровка, сделанная Миязаки, под музыку без звуковых эффектов).
Более подробное описание диска можно найти здесь.
На русском <a href="viewtopic.php?t=1823868" class="postLink">здесь</a> (из этой раздачи были позаимствованы русские субтитры для "On Your Mark" / "Castles in the Air" и "Dore Dore no Uta")

Доп. информация: В Японии "On Your Mark" шёл в кинотеатрах вместе с "Шёпотом сердца".
Второй диск из этой коробки - CD сингл "Doredore no Uta" - можно скачать здесь.
Отличие от оригинального образа только в наличии русских субтитров.
Решил залить по причине раритетности издания и изъятия его из продажи из-за ситуации с Аской.

Качество: DVD9
Формат экрана: 16:9
Система / Разрешение: NTSC (720x480)
Средний битрейт: 9800 kbps
Аудио 1: Японский Dolby AC3 48000Hz 2.0 192 kbps / 5.1 448 kbps
Аудио 2: Английский Dolby AC3 48000Hz 2.0 192 kbps (только для "Castles in the Air")
Субтитры 1: японские (только для клипов)
Субтитры 2: английские (только для "Castles in the Air" и "Doredore no Uta")
Субтитры 3: русские (только для "On Your Mark" и "Doredore no Uta")
Авторы субтитров: Кампай-клуб - "On Your Mark", GBalrog - "Doredore no Uta"
Sorairo no Tane (Семечко цвета неба)
Заставка на сорокалетие телеканала Nippon TV - Nandarou (Что это?)
Chage & Aska, клип On Your Mark и Castles in the Air
Бонус: Раскадровка On Your Mark
Реклама выставки "Studio Ghibli Original Drawings" + реклама "Могилы светлячков"
Заставка Friday Roadshow
Рекламный ролик Online Shopping Mall Shop-One
Рекламный ролик Asahi Beverage "Umacha"
Рекламный ролик LAWSON "Ghibli Museum Mitaka" Tickets PR
Рекламный ролик LAWSON "Sen to Chihiro no Kamikakushi" Tickets
Рекламный ролик LAWSON "Sen to Chihiro no Kamikakushi" DVD PR
Рекламный ролик House Foods "The Cat Returns" Campaign
Рекламный ролик Risona Bank
Рекламный ролик House Foods "Ouchi de Tabeyou" (летняя версия)
Рекламный ролик House Foods "Ouchi de Tabeyou" (зимняя версия)
Рекламный ролик KNB Yumedegi Spot
Рекламный ролик The Yomiuri Shimbun Kawaraban Version
Рекламный ролик The Yomiuri Shimbun Dore Dore Hikkoshi Version
Интервью Тосио Сузуки с Meiko Haigou (автор Dore Dore no Uta)
Dore Dore no Uta Short Live
Клип Dore Dore no Uta
Portable Airport (Портативный аэропорт)
Space Station No.9 (Космическая станция №9)
Space Station No.9 Short Version (Космическая станция №9, короткая версия)
A Flying City Plan (Проект "Летающий город")
A Flying City Plan Short Version - Robot Dance (Проект "Летающий город", короткая версия - "Танец роботов")
GeneralComplete name : Y:\Ghibli BD RUS\Studio Ghibli\2005 Ghibli ga Ippai Special Short Short\VIDEO_TS\VIDEO_TS.BUPFormat : DVD VideoFormat profile : MenuFile size : 16.0 KiBOverall bit rate mode : Variable

VideoID : 224 (0xE0)Format : MPEG VideoFormat version : Version 2Bit rate mode : VariableWidth : 720 pixelsHeight : 480 pixelsDisplay aspect ratio : 4:3Frame rate : 29.970 fpsStandard : NTSCCompression mode : Lossy

AudioFormat : AC-3Format/Info : Audio Coding 3Channel(s) : 2 channelsSampling rate : 48.0 KHzCompression mode : Lossy

TextFormat : RLEFormat/Info : Run-length encodingBit depth : 2 bits

GeneralComplete name : Y:\Ghibli BD RUS\Studio Ghibli\2005 Ghibli ga Ippai Special Short Short\VIDEO_TS\VIDEO_TS.IFOFormat : DVD VideoFormat profile : MenuFile size : 16.0 KiBOverall bit rate mode : Variable

VideoID : 224 (0xE0)Format : MPEG VideoFormat version : Version 2Bit rate mode : VariableWidth : 720 pixelsHeight : 480 pixelsDisplay aspect ratio : 4:3Frame rate : 29.970 fpsStandard : NTSCCompression mode : Lossy

AudioFormat : AC-3Format/Info : Audio Coding 3Channel(s) : 2 channelsSampling rate : 48.0 KHzCompression mode : Lossy

TextFormat : RLEFormat/Info : Run-length encodingBit depth : 2 bits

GeneralComplete name : Y:\Ghibli BD RUS\Studio Ghibli\2005 Ghibli ga Ippai Special Short Short\VIDEO_TS\VIDEO_TS.VOBFormat : MPEG-PSFile size : 44.3 MiBDuration : 49s 550msOverall bit rate mode : VariableOverall bit rate : 7 506 Kbps

VideoID : 224 (0xE0)Format : MPEG VideoFormat version : Version 2Format profile : Main@MainFormat settings, BVOP : YesFormat settings, Matrix : CustomFormat settings, GOP : M=3, N=15Duration : 49s 550msBit rate mode : VariableBit rate : 7 164 KbpsWidth : 720 pixelsHeight : 480 pixelsDisplay aspect ratio : 4:3Frame rate : 29.970 fpsStandard : NTSCColor space : YUVChroma subsampling : 4:2:0Bit depth : 8 bitsCompression mode : LossyBits/(Pixel*Frame) : 0.692Stream size : 42.3 MiB (95%)

AudioID : 189 (0xBD)-128 (0x80)Format : AC-3Format/Info : Audio Coding 3Mode extension : CM (complete main)Format settings, Endianness : BigMuxing mode : DVD-VideoDuration : 49s 536msBit rate mode : ConstantBit rate : 192 KbpsChannel(s) : 2 channelsChannel positions : Front: L RSampling rate : 48.0 KHzBit depth : 16 bitsCompression mode : LossyStream size : 1.13 MiB (3%)

TextID : 189 (0xBD)-32 (0x20)Format : RLEFormat/Info : Run-length encodingMuxing mode : DVD-Video

Menu

GeneralComplete name : Y:\Ghibli BD RUS\Studio Ghibli\2005 Ghibli ga Ippai Special Short Short\VIDEO_TS\VTS_01_0.BUPFormat : DVD VideoFormat profile : ProgramFile size : 92.0 KiBDuration : 2mn 28sOverall bit rate mode : VariableOverall bit rate : 5 084 bps

VideoID : 224 (0xE0)Format : MPEG VideoFormat version : Version 2Duration : 2mn 28sBit rate mode : VariableWidth : 720 pixelsHeight : 480 pixelsDisplay aspect ratio : 4:3Frame rate : 29.970 fpsStandard : NTSCCompression mode : Lossy

AudioID : 128 (0x80)Format : AC-3Format/Info : Audio Coding 3Duration : 2mn 28sChannel(s) : 2 channelsSampling rate : 48.0 KHzCompression mode : LossyLanguage : Japanese

Menu #1Duration : 2mn 28s00:00:00.000 : Chapter 100:00:04.500 : Chapter 200:00:35.500 : Chapter 300:01:06.433 : Chapter 400:01:37.433 : Chapter 500:01:43.433 : Chapter 600:01:49.433 : Chapter 700:01:55.433 : Chapter 800:02:01.433 : Chapter 900:02:17.366 : Chapter 10List (Audio) : 0

Menu #2Duration : 500ms00:00:00.000 : Chapter 1List (Audio) : 0

GeneralComplete name : Y:\Ghibli BD RUS\Studio Ghibli\2005 Ghibli ga Ippai Special Short Short\VIDEO_TS\VTS_01_0.IFOFormat : DVD VideoFormat profile : ProgramFile size : 92.0 KiBDuration : 2mn 28sOverall bit rate mode : VariableOverall bit rate : 5 084 bps

VideoID : 224 (0xE0)Format : MPEG VideoFormat version : Version 2Duration : 2mn 28sBit rate mode : VariableWidth : 720 pixelsHeight : 480 pixelsDisplay aspect ratio : 4:3Frame rate : 29.970 fpsStandard : NTSCCompression mode : Lossy

AudioID : 128 (0x80)Format : AC-3Format/Info : Audio Coding 3Duration : 2mn 28sChannel(s) : 2 channelsSampling rate : 48.0 KHzCompression mode : LossyLanguage : Japanese

Menu #1Duration : 2mn 28s00:00:00.000 : Chapter 100:00:04.500 : Chapter 200:00:35.500 : Chapter 300:01:06.433 : Chapter 400:01:37.433 : Chapter 500:01:43.433 : Chapter 600:01:49.433 : Chapter 700:01:55.433 : Chapter 800:02:01.433 : Chapter 900:02:17.366 : Chapter 10List (Audio) : 0

Menu #2Duration : 500ms00:00:00.000 : Chapter 1List (Audio) : 0

GeneralComplete name : Y:\Ghibli BD RUS\Studio Ghibli\2005 Ghibli ga Ippai Special Short Short\VIDEO_TS\VTS_01_0.VOBFormat : MPEG-PSFile size : 3.31 MiBDuration : 33msOverall bit rate : 842 Mbps

VideoID : 224 (0xE0)Format : MPEG VideoFormat version : Version 2Format profile : Main@MainFormat settings, BVOP : NoFormat settings, Matrix : CustomFormat settings, GOP : N=1Duration : 33msMaximum bit rate : 8 000 KbpsWidth : 720 pixelsHeight : 480 pixelsDisplay aspect ratio : 4:3Frame rate : 29.970 fpsStandard : NTSCColor space : YUVChroma subsampling : 4:2:0Bit depth : 8 bitsScan type : ProgressiveScan order : Top Field FirstCompression mode : Lossy

TextID : 189 (0xBD)-32 (0x20)Format : RLEFormat/Info : Run-length encodingMuxing mode : DVD-Video

Menu

GeneralComplete name : Y:\Ghibli BD RUS\Studio Ghibli\2005 Ghibli ga Ippai Special Short Short\VIDEO_TS\VTS_01_1.VOBFormat : MPEG-PSFile size : 1 024 MiBDuration : 6mn 41sOverall bit rate mode : VariableOverall bit rate : 21.4 Mbps

VideoID : 224 (0xE0)Format : MPEG VideoFormat version : Version 2Format profile : Main@MainFormat settings, BVOP : YesFormat settings, Matrix : CustomFormat settings, GOP : M=3, N=15Duration : 6mn 41sBit rate mode : VariableBit rate : 20.8 MbpsMaximum bit rate : 9 800 KbpsWidth : 720 pixelsHeight : 480 pixelsDisplay aspect ratio : 4:3Frame rate : 29.970 fpsStandard : NTSCColor space : YUVChroma subsampling : 4:2:0Bit depth : 8 bitsScan type : InterlacedScan order : Top Field FirstCompression mode : LossyBits/(Pixel*Frame) : 2.004Stream size : 994 MiB (97%)

AudioID : 189 (0xBD)-128 (0x80)Format : AC-3Format/Info : Audio Coding 3Mode extension : CM (complete main)Format settings, Endianness : BigMuxing mode : DVD-VideoDuration : 6mn 41sBit rate mode : ConstantBit rate : 192 KbpsChannel(s) : 2 channelsChannel positions : Front: L RSampling rate : 48.0 KHzBit depth : 16 bitsCompression mode : LossyStream size : 9.19 MiB (1%)

Menu

GeneralComplete name : Y:\Ghibli BD RUS\Studio Ghibli\2005 Ghibli ga Ippai Special Short Short\VIDEO_TS\VTS_01_2.VOBFormat : MPEG-PSFile size : 1 024 MiBDuration : 8mn 57sOverall bit rate mode : VariableOverall bit rate : 16.0 Mbps

VideoID : 224 (0xE0)Format : MPEG VideoFormat version : Version 2Format profile : Main@MainFormat settings, BVOP : YesFormat settings, Matrix : CustomFormat settings, GOP : M=3, N=15Duration : 8mn 57sBit rate mode : VariableBit rate : 15.5 MbpsMaximum bit rate : 9 800 KbpsWidth : 720 pixelsHeight : 480 pixelsDisplay aspect ratio : 4:3Frame rate : 29.970 fpsStandard : NTSCColor space : YUVChroma subsampling : 4:2:0Bit depth : 8 bitsScan type : InterlacedScan order : Top Field FirstCompression mode : LossyBits/(Pixel*Frame) : 1.493Stream size : 991 MiB (97%)

AudioID : 189 (0xBD)-128 (0x80)Format : AC-3Format/Info : Audio Coding 3Mode extension : CM (complete main)Format settings, Endianness : BigMuxing mode : DVD-VideoDuration : 8mn 57sBit rate mode : ConstantBit rate : 192 KbpsChannel(s) : 2 channelsChannel positions : Front: L RSampling rate : 48.0 KHzBit depth : 16 bitsCompression mode : LossyDelay relative to video : -208msStream size : 12.3 MiB (1%)

Menu

GeneralComplete name : Y:\Ghibli BD RUS\Studio Ghibli\2005 Ghibli ga Ippai Special Short Short\VIDEO_TS\VTS_01_3.VOBFormat : MPEG-PSFile size : 1 024 MiBOverall bit rate mode : Variable

VideoID : 224 (0xE0)Format : MPEG VideoFormat version : Version 2Format profile : Main@MainFormat settings, BVOP : YesFormat settings, Matrix : CustomFormat settings, GOP : M=3, N=15Bit rate mode : VariableMaximum bit rate : 9 800 KbpsWidth : 720 pixelsHeight : 480 pixelsDisplay aspect ratio : 4:3Frame rate : 29.970 fpsStandard : NTSCColor space : YUVChroma subsampling : 4:2:0Bit depth : 8 bitsScan type : InterlacedScan order : Top Field FirstCompression mode : Lossy

AudioID : 189 (0xBD)-128 (0x80)Format : AC-3Format/Info : Audio Coding 3Mode extension : CM (complete main)Format settings, Endianness : BigMuxing mode : DVD-VideoBit rate mode : ConstantBit rate : 192 KbpsChannel(s) : 2 channelsChannel positions : Front: L RSampling rate : 48.0 KHzBit depth : 16 bitsCompression mode : LossyDelay relative to video : -613ms

Menu

GeneralComplete name : Y:\Ghibli BD RUS\Studio Ghibli\2005 Ghibli ga Ippai Special Short Short\VIDEO_TS\VTS_01_4.VOBFormat : MPEG-PSFile size : 917 MiBOverall bit rate mode : Variable

VideoID : 224 (0xE0)Format : MPEG VideoFormat version : Version 2Format profile : Main@MainFormat settings, BVOP : YesFormat settings, Matrix : CustomFormat settings, GOP : M=3, N=15Bit rate mode : VariableMaximum bit rate : 9 800 KbpsWidth : 720 pixelsHeight : 480 pixelsDisplay aspect ratio : 4:3Frame rate : 29.970 fpsStandard : NTSCColor space : YUVChroma subsampling : 4:2:0Bit depth : 8 bitsScan type : InterlacedScan order : Top Field FirstCompression mode : Lossy

AudioID : 189 (0xBD)-128 (0x80)Format : AC-3Format/Info : Audio Coding 3Mode extension : CM (complete main)Format settings, Endianness : BigMuxing mode : DVD-VideoBit rate mode : ConstantBit rate : 192 KbpsChannel(s) : 2 channelsChannel positions : Front: L RSampling rate : 48.0 KHzBit depth : 16 bitsCompression mode : LossyDelay relative to video : -706ms

Menu

GeneralComplete name : Y:\Ghibli BD RUS\Studio Ghibli\2005 Ghibli ga Ippai Special Short Short\VIDEO_TS\VTS_02_0.BUPFormat : DVD VideoFormat profile : ProgramFile size : 30.0 KiBDuration : 18s 0msOverall bit rate mode : VariableOverall bit rate : 13.7 Kbps

VideoID : 224 (0xE0)Format : MPEG VideoFormat version : Version 2Duration : 17s 985msBit rate mode : VariableWidth : 720 pixelsHeight : 480 pixelsDisplay aspect ratio : 16:9Frame rate : 29.970 fpsStandard : NTSCCompression mode : Lossy

AudioID : 128 (0x80)Format : AC-3Format/Info : Audio Coding 3Duration : 18s 0msChannel(s) : 2 channelsSampling rate : 48.0 KHzCompression mode : LossyLanguage : Japanese

Menu #1Duration : 18s 0ms00:00:00.000 : Chapter 100:00:06.000 : Chapter 200:00:12.000 : Chapter 3List (Audio) : 0

Menu #2Duration : 500ms00:00:00.000 : Chapter 1List (Audio) : 0

GeneralComplete name : Y:\Ghibli BD RUS\Studio Ghibli\2005 Ghibli ga Ippai Special Short Short\VIDEO_TS\VTS_02_0.IFOFormat : DVD VideoFormat profile : ProgramFile size : 30.0 KiBDuration : 18s 0msOverall bit rate mode : VariableOverall bit rate : 13.7 Kbps

VideoID : 224 (0xE0)Format : MPEG VideoFormat version : Version 2Duration : 17s 985msBit rate mode : VariableWidth : 720 pixelsHeight : 480 pixelsDisplay aspect ratio : 16:9Frame rate : 29.970 fpsStandard : NTSCCompression mode : Lossy

AudioID : 128 (0x80)Format : AC-3Format/Info : Audio Coding 3Duration : 18s 0msChannel(s) : 2 channelsSampling rate : 48.0 KHzCompression mode : LossyLanguage : Japanese

Menu #1Duration : 18s 0ms00:00:00.000 : Chapter 100:00:06.000 : Chapter 200:00:12.000 : Chapter 3List (Audio) : 0

Menu #2Duration : 500ms00:00:00.000 : Chapter 1List (Audio) : 0

GeneralComplete name : Y:\Ghibli BD RUS\Studio Ghibli\2005 Ghibli ga Ippai Special Short Short\VIDEO_TS\VTS_02_0.VOBFormat : MPEG-PSFile size : 10.0 KiBDuration : 33msOverall bit rate : 2 482 Kbps

VideoID : 224 (0xE0)Format : MPEG VideoFormat version : Version 2Format profile : Main@MainFormat settings, BVOP : NoFormat settings, Matrix : CustomDuration : 33msMaximum bit rate : 8 000 KbpsWidth : 720 pixelsHeight : 480 pixelsDisplay aspect ratio : 16:9Frame rate : 29.970 fpsStandard : NTSCColor space : YUVChroma subsampling : 4:2:0Bit depth : 8 bitsScan type : ProgressiveScan order : Top Field FirstCompression mode : LossyTime code of first frame : 00:00:00:00Time code source : Group of pictures header

TextID : 189 (0xBD)-32 (0x20)Format : RLEFormat/Info : Run-length encodingMuxing mode : DVD-Video

Menu

GeneralComplete name : Y:\Ghibli BD RUS\Studio Ghibli\2005 Ghibli ga Ippai Special Short Short\VIDEO_TS\VTS_02_1.VOBFormat : MPEG-PSFile size : 852 MiBDuration : 1mn 44sOverall bit rate mode : VariableOverall bit rate : 68.7 Mbps

VideoID : 224 (0xE0)Format : MPEG VideoFormat version : Version 2Format profile : Main@MainFormat settings, BVOP : YesFormat settings, Matrix : CustomFormat settings, GOP : VariableDuration : 33msBit rate mode : VariableBit rate : 67.1 MbpsMaximum bit rate : 9 800 KbpsWidth : 720 pixelsHeight : 480 pixelsDisplay aspect ratio : 16:9Frame rate : 29.970 fpsStandard : NTSCColor space : YUVChroma subsampling : 4:2:0Bit depth : 8 bitsScan type : InterlacedScan order : Top Field FirstCompression mode : LossyBits/(Pixel*Frame) : 6.479Stream size : 273 KiB (0%)

AudioID : 189 (0xBD)-128 (0x80)Format : AC-3Format/Info : Audio Coding 3Mode extension : CM (complete main)Format settings, Endianness : BigMuxing mode : DVD-VideoDuration : 1mn 44sBit rate mode : ConstantBit rate : 192 KbpsChannel(s) : 2 channelsChannel positions : Front: L RSampling rate : 48.0 KHzBit depth : 16 bitsCompression mode : LossyStream size : 2.38 MiB (0%)

Menu

GeneralComplete name : Y:\Ghibli BD RUS\Studio Ghibli\2005 Ghibli ga Ippai Special Short Short\VIDEO_TS\VTS_03_0.BUPFormat : DVD VideoFormat profile : ProgramFile size : 26.0 KiBDuration : 4mn 43sOverall bit rate mode : VariableOverall bit rate : 750 bps

VideoID : 224 (0xE0)Format : MPEG VideoFormat version : Version 2Duration : 4mn 43sBit rate mode : VariableWidth : 720 pixelsHeight : 480 pixelsDisplay aspect ratio : 16:9Frame rate : 29.970 fpsStandard : NTSCCompression mode : Lossy

AudioID : 128 (0x80)Format : AC-3Format/Info : Audio Coding 3Duration : 4mn 43sChannel(s) : 6 channelsSampling rate : 48.0 KHzCompression mode : LossyLanguage : Japanese

Menu #1Duration : 3mn 9s00:00:00.000 : Chapter 1List (Audio) : 0

Menu #2Duration : 4mn 43s00:00:00.000 : Chapter 1List (Audio) : 0

GeneralComplete name : Y:\Ghibli BD RUS\Studio Ghibli\2005 Ghibli ga Ippai Special Short Short\VIDEO_TS\VTS_03_0.IFOFormat : DVD VideoFormat profile : ProgramFile size : 26.0 KiBDuration : 4mn 43sOverall bit rate mode : VariableOverall bit rate : 750 bps

VideoID : 224 (0xE0)Format : MPEG VideoFormat version : Version 2Duration : 4mn 43sBit rate mode : VariableWidth : 720 pixelsHeight : 480 pixelsDisplay aspect ratio : 16:9Frame rate : 29.970 fpsStandard : NTSCCompression mode : Lossy

AudioID : 128 (0x80)Format : AC-3Format/Info : Audio Coding 3Duration : 4mn 43sChannel(s) : 6 channelsSampling rate : 48.0 KHzCompression mode : LossyLanguage : Japanese

Menu #1Duration : 3mn 9s00:00:00.000 : Chapter 1List (Audio) : 0

Menu #2Duration : 4mn 43s00:00:00.000 : Chapter 1List (Audio) : 0

GeneralComplete name : Y:\Ghibli BD RUS\Studio Ghibli\2005 Ghibli ga Ippai Special Short Short\VIDEO_TS\VTS_03_0.VOBFormat : MPEG-PSFile size : 40.0 KiBDuration : 1s 335msOverall bit rate mode : VariableOverall bit rate : 245 Kbps

VideoID : 224 (0xE0)Format : MPEG VideoFormat version : Version 2Format profile : Main@MainFormat settings, BVOP : YesFormat settings, Matrix : CustomDuration : 1s 335msBit rate mode : VariableBit rate : 241 KbpsMaximum bit rate : 9 800 KbpsWidth : 720 pixelsHeight : 480 pixelsDisplay aspect ratio : 16:9Frame rate : 29.970 fpsStandard : NTSCColor space : YUVChroma subsampling : 4:2:0Bit depth : 8 bitsScan type : InterlacedScan order : Top Field FirstCompression mode : LossyBits/(Pixel*Frame) : 0.023Stream size : 39.2 KiB (98%)

Menu

GeneralComplete name : Y:\Ghibli BD RUS\Studio Ghibli\2005 Ghibli ga Ippai Special Short Short\VIDEO_TS\VTS_03_1.VOBFormat : MPEG-PSFile size : 711 MiBDuration : 5mn 26sOverall bit rate mode : VariableOverall bit rate : 18.3 Mbps

VideoID : 224 (0xE0)Format : MPEG VideoFormat version : Version 2Format profile : Main@MainFormat settings, BVOP : YesFormat settings, Matrix : CustomFormat settings, GOP : VariableDuration : 5mn 26sBit rate mode : VariableBit rate : 17.4 MbpsMaximum bit rate : 9 800 KbpsWidth : 720 pixelsHeight : 480 pixelsDisplay aspect ratio : 16:9Frame rate : 29.970 fpsStandard : NTSCColor space : YUVChroma subsampling : 4:2:0Bit depth : 8 bitsCompression mode : LossyBits/(Pixel*Frame) : 1.685Stream size : 680 MiB (96%)

AudioID : 189 (0xBD)-128 (0x80)Format : AC-3Format/Info : Audio Coding 3Mode extension : CM (complete main)Format settings, Endianness : BigMuxing mode : DVD-VideoDuration : 5mn 26sBit rate mode : ConstantBit rate : 448 KbpsChannel(s) : 6 channelsChannel positions : Front: L C R, Side: L R, LFESampling rate : 48.0 KHzBit depth : 16 bitsCompression mode : LossyStream size : 17.4 MiB (2%)

Menu

GeneralComplete name : Y:\Ghibli BD RUS\Studio Ghibli\2005 Ghibli ga Ippai Special Short Short\VIDEO_TS\VTS_04_0.BUPFormat : DVD VideoFormat profile : ProgramFile size : 20.0 KiBDuration : 6mn 48sOverall bit rate mode : VariableOverall bit rate : 402 bps

VideoID : 224 (0xE0)Format : MPEG VideoFormat version : Version 2Duration : 6mn 48sBit rate mode : VariableWidth : 720 pixelsHeight : 480 pixelsDisplay aspect ratio : 16:9Frame rate : 29.970 fpsStandard : NTSCCompression mode : Lossy

AudioID : 128 (0x80)Format : AC-3Format/Info : Audio Coding 3Duration : 6mn 48sChannel(s) : 2 channelsSampling rate : 48.0 KHzCompression mode : LossyLanguage : Japanese

Text #1ID : 32 (0x20)Format : RLEFormat/Info : Run-length encodingBit depth : 2 bitsLanguage : JapaneseLanguage, more info : Normal

Text #2ID : 33 (0x21)Format : RLEFormat/Info : Run-length encodingBit depth : 2 bitsLanguage : RussianLanguage, more info : Normal

Menu #1Duration : 6mn 48s00:00:00.000 : Chapter 1List (Audio) : 0List (Subtitles 4/3) : 0 / 0List (Subtitles Wide) : 0 / 1List (Subtitles Letterbox) : 0 / 1List (Subtitles Pan&Scan) : 0 / 0

Menu #2Duration : 500ms00:00:00.000 : Chapter 1List (Audio) : 0List (Subtitles 4/3) : 0 / 0List (Subtitles Wide) : 0 / 1List (Subtitles Letterbox) : 0 / 1List (Subtitles Pan&Scan) : 0 / 0

GeneralComplete name : Y:\Ghibli BD RUS\Studio Ghibli\2005 Ghibli ga Ippai Special Short Short\VIDEO_TS\VTS_04_0.IFOFormat : DVD VideoFormat profile : ProgramFile size : 20.0 KiBDuration : 6mn 48sOverall bit rate mode : VariableOverall bit rate : 402 bps

VideoID : 224 (0xE0)Format : MPEG VideoFormat version : Version 2Duration : 6mn 48sBit rate mode : VariableWidth : 720 pixelsHeight : 480 pixelsDisplay aspect ratio : 16:9Frame rate : 29.970 fpsStandard : NTSCCompression mode : Lossy

AudioID : 128 (0x80)Format : AC-3Format/Info : Audio Coding 3Duration : 6mn 48sChannel(s) : 2 channelsSampling rate : 48.0 KHzCompression mode : LossyLanguage : Japanese

Text #1ID : 32 (0x20)Format : RLEFormat/Info : Run-length encodingBit depth : 2 bitsLanguage : JapaneseLanguage, more info : Normal

Text #2ID : 33 (0x21)Format : RLEFormat/Info : Run-length encodingBit depth : 2 bitsLanguage : RussianLanguage, more info : Normal

Menu #1Duration : 6mn 48s00:00:00.000 : Chapter 1List (Audio) : 0List (Subtitles 4/3) : 0 / 0List (Subtitles Wide) : 0 / 1List (Subtitles Letterbox) : 0 / 1List (Subtitles Pan&Scan) : 0 / 0

Menu #2Duration : 500ms00:00:00.000 : Chapter 1List (Audio) : 0List (Subtitles 4/3) : 0 / 0List (Subtitles Wide) : 0 / 1List (Subtitles Letterbox) : 0 / 1List (Subtitles Pan&Scan) : 0 / 0

GeneralComplete name : Y:\Ghibli BD RUS\Studio Ghibli\2005 Ghibli ga Ippai Special Short Short\VIDEO_TS\VTS_04_0.VOBFormat : MPEG-PSFile size : 10.0 KiBDuration : 33msOverall bit rate : 2 482 Kbps

VideoID : 224 (0xE0)Format : MPEG VideoFormat version : Version 2Format profile : Main@MainFormat settings, BVOP : NoFormat settings, Matrix : CustomDuration : 33msMaximum bit rate : 8 000 KbpsWidth : 720 pixelsHeight : 480 pixelsDisplay aspect ratio : 16:9Frame rate : 29.970 fpsStandard : NTSCColor space : YUVChroma subsampling : 4:2:0Bit depth : 8 bitsScan type : ProgressiveScan order : Top Field FirstCompression mode : LossyTime code of first frame : 00:00:00:00Time code source : Group of pictures header

TextID : 189 (0xBD)-32 (0x20)Format : RLEFormat/Info : Run-length encodingMuxing mode : DVD-Video

Menu

GeneralComplete name : Y:\Ghibli BD RUS\Studio Ghibli\2005 Ghibli ga Ippai Special Short Short\VIDEO_TS\VTS_04_1.VOBFormat : MPEG-PSFile size : 388 MiBDuration : 6mn 48sOverall bit rate mode : VariableOverall bit rate : 7 965 Kbps

VideoID : 224 (0xE0)Format : MPEG VideoFormat version : Version 2Format profile : Main@MainFormat settings, BVOP : YesFormat settings, Matrix : CustomFormat settings, GOP : M=3, N=12Duration : 33msBit rate mode : VariableBit rate : 7 615 KbpsMaximum bit rate : 9 800 KbpsWidth : 720 pixelsHeight : 480 pixelsDisplay aspect ratio : 16:9Frame rate : 29.970 fpsStandard : NTSCColor space : YUVChroma subsampling : 4:2:0Bit depth : 8 bitsCompression mode : LossyBits/(Pixel*Frame) : 0.735Stream size : 31.0 KiB (0%)

AudioID : 189 (0xBD)-128 (0x80)Format : AC-3Format/Info : Audio Coding 3Mode extension : CM (complete main)Format settings, Endianness : BigMuxing mode : DVD-VideoDuration : 6mn 48sBit rate mode : ConstantBit rate : 192 KbpsChannel(s) : 2 channelsChannel positions : Front: L RSampling rate : 48.0 KHzBit depth : 16 bitsCompression mode : LossyStream size : 9.35 MiB (2%)

TextID : 189 (0xBD)-32 (0x20)Format : RLEFormat/Info : Run-length encodingMuxing mode : DVD-Video

Menu

GeneralComplete name : Y:\Ghibli BD RUS\Studio Ghibli\2005 Ghibli ga Ippai Special Short Short\VIDEO_TS\VTS_05_0.BUPFormat : DVD VideoFormat profile : ProgramFile size : 20.0 KiBDuration : 6mn 48sOverall bit rate mode : VariableOverall bit rate : 402 bps

VideoID : 224 (0xE0)Format : MPEG VideoFormat version : Version 2Duration : 6mn 48sBit rate mode : VariableWidth : 720 pixelsHeight : 480 pixelsDisplay aspect ratio : 16:9Frame rate : 29.970 fpsStandard : NTSCCompression mode : Lossy

AudioID : 128 (0x80)Format : AC-3Format/Info : Audio Coding 3Duration : 6mn 48sChannel(s) : 6 channelsSampling rate : 48.0 KHzCompression mode : LossyLanguage : Japanese

Text #1ID : 32 (0x20)Format : RLEFormat/Info : Run-length encodingBit depth : 2 bitsLanguage : JapaneseLanguage, more info : Normal

Text #2ID : 33 (0x21)Format : RLEFormat/Info : Run-length encodingBit depth : 2 bitsLanguage : RussianLanguage, more info : Normal

MenuDuration : 6mn 48s00:00:00.000 : Chapter 1List (Audio) : 0List (Subtitles 4/3) : 0 / 0List (Subtitles Wide) : 0 / 1List (Subtitles Letterbox) : 0 / 1List (Subtitles Pan&Scan) : 0 / 0

GeneralComplete name : Y:\Ghibli BD RUS\Studio Ghibli\2005 Ghibli ga Ippai Special Short Short\VIDEO_TS\VTS_05_0.IFOFormat : DVD VideoFormat profile : ProgramFile size : 20.0 KiBDuration : 6mn 48sOverall bit rate mode : VariableOverall bit rate : 402 bps

VideoID : 224 (0xE0)Format : MPEG VideoFormat version : Version 2Duration : 6mn 48sBit rate mode : VariableWidth : 720 pixelsHeight : 480 pixelsDisplay aspect ratio : 16:9Frame rate : 29.970 fpsStandard : NTSCCompression mode : Lossy

AudioID : 128 (0x80)Format : AC-3Format/Info : Audio Coding 3Duration : 6mn 48sChannel(s) : 6 channelsSampling rate : 48.0 KHzCompression mode : LossyLanguage : Japanese

Text #1ID : 32 (0x20)Format : RLEFormat/Info : Run-length encodingBit depth : 2 bitsLanguage : JapaneseLanguage, more info : Normal

Text #2ID : 33 (0x21)Format : RLEFormat/Info : Run-length encodingBit depth : 2 bitsLanguage : RussianLanguage, more info : Normal

MenuDuration : 6mn 48s00:00:00.000 : Chapter 1List (Audio) : 0List (Subtitles 4/3) : 0 / 0List (Subtitles Wide) : 0 / 1List (Subtitles Letterbox) : 0 / 1List (Subtitles Pan&Scan) : 0 / 0

GeneralComplete name : Y:\Ghibli BD RUS\Studio Ghibli\2005 Ghibli ga Ippai Special Short Short\VIDEO_TS\VTS_05_0.VOBFormat : MPEG-PSFile size : 10.0 KiBDuration : 33msOverall bit rate : 2 482 Kbps

VideoID : 224 (0xE0)Format : MPEG VideoFormat version : Version 2Format profile : Main@MainFormat settings, BVOP : NoFormat settings, Matrix : CustomDuration : 33msMaximum bit rate : 8 000 KbpsWidth : 720 pixelsHeight : 480 pixelsDisplay aspect ratio : 16:9Frame rate : 29.970 fpsStandard : NTSCColor space : YUVChroma subsampling : 4:2:0Bit depth : 8 bitsScan type : ProgressiveScan order : Top Field FirstCompression mode : LossyTime code of first frame : 00:00:00:00Time code source : Group of pictures header

TextID : 189 (0xBD)-32 (0x20)Format : RLEFormat/Info : Run-length encodingMuxing mode : DVD-Video

Menu

GeneralComplete name : Y:\Ghibli BD RUS\Studio Ghibli\2005 Ghibli ga Ippai Special Short Short\VIDEO_TS\VTS_05_1.VOBFormat : MPEG-PSFile size : 399 MiBDuration : 6mn 48sOverall bit rate mode : VariableOverall bit rate : 8 190 Kbps

VideoID : 224 (0xE0)Format : MPEG VideoFormat version : Version 2Format profile : Main@MainFormat settings, BVOP : YesFormat settings, Matrix : CustomFormat settings, GOP : M=3, N=12Duration : 6mn 48sBit rate mode : VariableBit rate : 7 579 KbpsMaximum bit rate : 9 800 KbpsWidth : 720 pixelsHeight : 480 pixelsDisplay aspect ratio : 16:9Frame rate : 29.970 fpsStandard : NTSCColor space : YUVChroma subsampling : 4:2:0Bit depth : 8 bitsCompression mode : LossyBits/(Pixel*Frame) : 0.732Stream size : 369 MiB (93%)

AudioID : 189 (0xBD)-128 (0x80)Format : AC-3Format/Info : Audio Coding 3Mode extension : CM (complete main)Format settings, Endianness : BigMuxing mode : DVD-VideoDuration : 6mn 48sBit rate mode : ConstantBit rate : 448 KbpsChannel(s) : 6 channelsChannel positions : Front: L C R, Side: L R, LFESampling rate : 48.0 KHzBit depth : 16 bitsCompression mode : LossyStream size : 21.8 MiB (5%)

Menu

GeneralComplete name : Y:\Ghibli BD RUS\Studio Ghibli\2005 Ghibli ga Ippai Special Short Short\VIDEO_TS\VTS_06_0.BUPFormat : DVD VideoFormat profile : ProgramFile size : 18.0 KiBDuration : 2mn 59sOverall bit rate mode : VariableOverall bit rate : 820 bps

VideoID : 224 (0xE0)Format : MPEG VideoFormat version : Version 2Duration : 2mn 59sBit rate mode : VariableWidth : 720 pixelsHeight : 480 pixelsDisplay aspect ratio : 4:3Frame rate : 29.970 fpsStandard : NTSCCompression mode : Lossy

AudioID : 128 (0x80)Format : AC-3Format/Info : Audio Coding 3Duration : 2mn 59sChannel(s) : 2 channelsSampling rate : 48.0 KHzCompression mode : LossyLanguage : Japanese

Text #1ID : 32 (0x20)Format : RLEFormat/Info : Run-length encodingBit depth : 2 bitsLanguage : JapaneseLanguage, more info : Normal

Text #2ID : 32 (0x20)Format : RLEFormat/Info : Run-length encodingBit depth : 2 bitsLanguage : EnglishLanguage, more info : Normal

Text #3ID : 32 (0x20)Format : RLEFormat/Info : Run-length encodingBit depth : 2 bitsLanguage : RussianLanguage, more info : Normal

Menu #1Duration : 2mn 59s00:00:00.000 : Chapter 1List (Audio) : 0List (Subtitles 4/3) : 0 / 1 / 2List (Subtitles Wide) : 0 / 0 / 0List (Subtitles Letterbox) : 0 / 0 / 0List (Subtitles Pan&Scan) : 0 / 0 / 0

Menu #2Duration : 500ms00:00:00.000 : Chapter 1List (Audio) : 0List (Subtitles 4/3) : 0 / 1 / 1List (Subtitles Wide) : 0 / 0 / 0List (Subtitles Letterbox) : 0 / 0 / 0List (Subtitles Pan&Scan) : 0 / 0 / 0

GeneralComplete name : Y:\Ghibli BD RUS\Studio Ghibli\2005 Ghibli ga Ippai Special Short Short\VIDEO_TS\VTS_06_0.IFOFormat : DVD VideoFormat profile : ProgramFile size : 18.0 KiBDuration : 2mn 59sOverall bit rate mode : VariableOverall bit rate : 820 bps

VideoID : 224 (0xE0)Format : MPEG VideoFormat version : Version 2Duration : 2mn 59sBit rate mode : VariableWidth : 720 pixelsHeight : 480 pixelsDisplay aspect ratio : 4:3Frame rate : 29.970 fpsStandard : NTSCCompression mode : Lossy

AudioID : 128 (0x80)Format : AC-3Format/Info : Audio Coding 3Duration : 2mn 59sChannel(s) : 2 channelsSampling rate : 48.0 KHzCompression mode : LossyLanguage : Japanese

Text #1ID : 32 (0x20)Format : RLEFormat/Info : Run-length encodingBit depth : 2 bitsLanguage : JapaneseLanguage, more info : Normal

Text #2ID : 32 (0x20)Format : RLEFormat/Info : Run-length encodingBit depth : 2 bitsLanguage : EnglishLanguage, more info : Normal

Text #3ID : 32 (0x20)Format : RLEFormat/Info : Run-length encodingBit depth : 2 bitsLanguage : RussianLanguage, more info : Normal

Menu #1Duration : 2mn 59s00:00:00.000 : Chapter 1List (Audio) : 0List (Subtitles 4/3) : 0 / 1 / 2List (Subtitles Wide) : 0 / 0 / 0List (Subtitles Letterbox) : 0 / 0 / 0List (Subtitles Pan&Scan) : 0 / 0 / 0

Menu #2Duration : 500ms00:00:00.000 : Chapter 1List (Audio) : 0List (Subtitles 4/3) : 0 / 1 / 1List (Subtitles Wide) : 0 / 0 / 0List (Subtitles Letterbox) : 0 / 0 / 0List (Subtitles Pan&Scan) : 0 / 0 / 0

GeneralComplete name : Y:\Ghibli BD RUS\Studio Ghibli\2005 Ghibli ga Ippai Special Short Short\VIDEO_TS\VTS_06_0.VOBFormat : MPEG-PSFile size : 10.0 KiBDuration : 33msOverall bit rate : 2 482 Kbps

VideoID : 224 (0xE0)Format : MPEG VideoFormat version : Version 2Format profile : Main@MainFormat settings, BVOP : NoFormat settings, Matrix : CustomDuration : 33msMaximum bit rate : 8 000 KbpsWidth : 720 pixelsHeight : 480 pixelsDisplay aspect ratio : 4:3Frame rate : 29.970 fpsStandard : NTSCColor space : YUVChroma subsampling : 4:2:0Bit depth : 8 bitsScan type : ProgressiveScan order : Top Field FirstCompression mode : LossyTime code of first frame : 00:00:00:00Time code source : Group of pictures header

TextID : 189 (0xBD)-32 (0x20)Format : RLEFormat/Info : Run-length encodingMuxing mode : DVD-Video

Menu

GeneralComplete name : Y:\Ghibli BD RUS\Studio Ghibli\2005 Ghibli ga Ippai Special Short Short\VIDEO_TS\VTS_06_1.VOBFormat : MPEG-PSFile size : 163 MiBDuration : 2mn 59sOverall bit rate mode : VariableOverall bit rate : 7 579 Kbps

VideoID : 224 (0xE0)Format : MPEG VideoFormat version : Version 2Format profile : Main@MainFormat settings, BVOP : YesFormat settings, Matrix : CustomFormat settings, GOP : VariableDuration : 33msBit rate mode : VariableBit rate : 7 237 KbpsMaximum bit rate : 9 800 KbpsWidth : 720 pixelsHeight : 480 pixelsDisplay aspect ratio : 4:3Frame rate : 29.970 fpsStandard : NTSCColor space : YUVChroma subsampling : 4:2:0Bit depth : 8 bitsCompression mode : LossyBits/(Pixel*Frame) : 0.699Stream size : 29.5 KiB (0%)

AudioID : 189 (0xBD)-128 (0x80)Format : AC-3Format/Info : Audio Coding 3Mode extension : CM (complete main)Format settings, Endianness : BigMuxing mode : DVD-VideoDuration : 2mn 59sBit rate mode : ConstantBit rate : 192 KbpsChannel(s) : 2 channelsChannel positions : Front: L RSampling rate : 48.0 KHzBit depth : 16 bitsCompression mode : LossyStream size : 4.12 MiB (3%)

Text #1ID : 189 (0xBD)-33 (0x21)Format : RLEFormat/Info : Run-length encodingMuxing mode : DVD-VideoDelay relative to video : 3s 370ms

Text #2ID : 189 (0xBD)-32 (0x20)Format : RLEFormat/Info : Run-length encodingMuxing mode : DVD-Video

Text #3ID : 189 (0xBD)-34 (0x22)Format : RLEFormat/Info : Run-length encodingMuxing mode : DVD-Video

Menu

GeneralComplete name : Y:\Ghibli BD RUS\Studio Ghibli\2005 Ghibli ga Ippai Special Short Short\VIDEO_TS\VTS_07_0.BUPFormat : DVD VideoFormat profile : ProgramFile size : 20.0 KiBDuration : 6mn 44sOverall bit rate mode : VariableOverall bit rate : 405 bps

VideoID : 224 (0xE0)Format : MPEG VideoFormat version : Version 2Duration : 6mn 44sBit rate mode : VariableWidth : 720 pixelsHeight : 480 pixelsDisplay aspect ratio : 16:9Frame rate : 29.970 fpsStandard : NTSCCompression mode : Lossy

AudioID : 128 (0x80)Format : AC-3Format/Info : Audio Coding 3Duration : 6mn 44sChannel(s) : 2 channelsSampling rate : 48.0 KHzCompression mode : LossyLanguage : English

TextID : 32 (0x20)Format : RLEFormat/Info : Run-length encodingBit depth : 2 bitsLanguage : English

MenuDuration : 6mn 44s00:00:00.000 : Chapter 1List (Audio) : 0List (Subtitles 4/3) : 0List (Subtitles Wide) : 0List (Subtitles Letterbox) : 0List (Subtitles Pan&Scan) : 0

GeneralComplete name : Y:\Ghibli BD RUS\Studio Ghibli\2005 Ghibli ga Ippai Special Short Short\VIDEO_TS\VTS_07_0.IFOFormat : DVD VideoFormat profile : ProgramFile size : 20.0 KiBDuration : 6mn 44sOverall bit rate mode : VariableOverall bit rate : 405 bps

VideoID : 224 (0xE0)Format : MPEG VideoFormat version : Version 2Duration : 6mn 44sBit rate mode : VariableWidth : 720 pixelsHeight : 480 pixelsDisplay aspect ratio : 16:9Frame rate : 29.970 fpsStandard : NTSCCompression mode : Lossy

AudioID : 128 (0x80)Format : AC-3Format/Info : Audio Coding 3Duration : 6mn 44sChannel(s) : 2 channelsSampling rate : 48.0 KHzCompression mode : LossyLanguage : English

TextID : 32 (0x20)Format : RLEFormat/Info : Run-length encodingBit depth : 2 bitsLanguage : English

MenuDuration : 6mn 44s00:00:00.000 : Chapter 1List (Audio) : 0List (Subtitles 4/3) : 0List (Subtitles Wide) : 0List (Subtitles Letterbox) : 0List (Subtitles Pan&Scan) : 0

GeneralComplete name : Y:\Ghibli BD RUS\Studio Ghibli\2005 Ghibli ga Ippai Special Short Short\VIDEO_TS\VTS_07_0.VOBFormat : MPEG-PSFile size : 10.0 KiBDuration : 33msOverall bit rate : 2 482 Kbps

VideoID : 224 (0xE0)Format : MPEG VideoFormat version : Version 2Format profile : Main@MainFormat settings, BVOP : NoFormat settings, Matrix : CustomDuration : 33msMaximum bit rate : 8 000 KbpsWidth : 720 pixelsHeight : 480 pixelsDisplay aspect ratio : 16:9Frame rate : 29.970 fpsStandard : NTSCColor space : YUVChroma subsampling : 4:2:0Bit depth : 8 bitsScan type : ProgressiveScan order : Top Field FirstCompression mode : LossyTime code of first frame : 00:00:00:00Time code source : Group of pictures header

TextID : 189 (0xBD)-32 (0x20)Format : RLEFormat/Info : Run-length encodingMuxing mode : DVD-Video

Menu

GeneralComplete name : Y:\Ghibli BD RUS\Studio Ghibli\2005 Ghibli ga Ippai Special Short Short\VIDEO_TS\VTS_07_1.VOBFormat : MPEG-PSFile size : 384 MiBDuration : 6mn 44sOverall bit rate mode : VariableOverall bit rate : 7 950 Kbps

VideoID : 224 (0xE0)Format : MPEG VideoFormat version : Version 2Format profile : Main@MainFormat settings, BVOP : YesFormat settings, Matrix : CustomFormat settings, GOP : M=3, N=12Duration : 6mn 44sBit rate mode : VariableBit rate : 7 600 KbpsMaximum bit rate : 9 800 KbpsWidth : 720 pixelsHeight : 480 pixelsDisplay aspect ratio : 16:9Frame rate : 29.970 fpsStandard : NTSCColor space : YUVChroma subsampling : 4:2:0Bit depth : 8 bitsCompression mode : LossyBits/(Pixel*Frame) : 0.734Stream size : 367 MiB (96%)

AudioID : 189 (0xBD)-128 (0x80)Format : AC-3Format/Info : Audio Coding 3Mode extension : CM (complete main)Format settings, Endianness : BigMuxing mode : DVD-VideoDuration : 6mn 44sBit rate mode : ConstantBit rate : 192 KbpsChannel(s) : 2 channelsChannel positions : Front: L RSampling rate : 48.0 KHzBit depth : 16 bitsCompression mode : LossyStream size : 9.27 MiB (2%)

Menu
Title: Storage
Size: 6.77 Gb ( 7 099 054 KBytes ) - DVD-9
Enabled regions: 1, 2, 3, 4, 5, 6, 7, 8

VTS_01 :
Play Length: 00:02:28+00:04:39+00:00:47+00:00:04+00:00:31+00:00:30+00:00:06+00:00:15+00:00:10+00:00:16+00:00:39+00:07:52+00:06:36+00:35:32+00:18:08+00:01:25+00:01:31+00:01:34+00:01:41+00:01:53
Video: NTSC 4:3 (720x480) VBR
Audio:
Japanese (Dolby AC3, 2 ch)

VTS_02 :
Play Length: 00:00:18+00:13:19+00:00:06+00:03:09+00:04:43+00:05:26+00:01:27+00:01:43
Video: NTSC 16:9 (720x480) VBR, Auto Pan&Scan
Audio:
Japanese (Dolby AC3, 2 ch)

VTS_03 :
Play Length: 00:03:09+00:04:43+00:05:26
Video: NTSC 16:9 (720x480) VBR, Auto Pan&Scan
Audio:
Japanese (Dolby AC3, 6 ch)

VTS_04 :
Play Length: 00:06:48
Video: NTSC 16:9 (720x480) VBR, Auto Pan&Scan
Audio:
Japanese (Dolby AC3, 2 ch)
Subtitles:
Japanese
Russian

VTS_05 :
Play Length: 00:06:48
Video: NTSC 16:9 (720x480) VBR, Auto Pan&Scan
Audio:
Japanese (Dolby AC3, 6 ch)
Subtitles:
Japanese
Russian

VTS_06 :
Play Length: 00:02:59
Video: NTSC 4:3 (720x480) VBR
Audio:
Japanese (Dolby AC3, 2 ch)
Subtitles:
Japanese
English
Russian

VTS_07 :
Play Length: 00:06:44
Video: NTSC 16:9 (720x480) VBR, Auto Pan&Scan
Audio:
English (Dolby AC3, 2 ch)
Subtitles:
English

Menu Video:
NTSC 4:3 (720x480) VBR
Menu Audio:
Not specified (Dolby AC3, 2 ch)
Menu Subtitles:
Not specified
Menu Japanese Language Unit :
Root Menu
<a href="viewtopic.php?t=1823868" class="postLink">...1823868</a>
DVD9
05.06.16 раздача обновлена. Перекачайте торрент

Трекер:  [ 05-Июн-2016 22:00 ]

  

Скачать .torrent

Размер .torrent файла 20 KB


Размер: 6.78 GB
Хэш (hash) релиза: 85d0bf6db40ae1ddf01937d51a8323215346ecaa
Подписка на обновления:

Еще никто не оставлял запись к записи скачать торрент Короткометражные фильмы студии "Гибли" Ghibli ga Ippai Special Studio Ghibli Short Short . Будь первым!

!Обратная связь