Скачать через торрент Несчастные Unhappy бесплатно Аниме Все серии на русском torrent

Если у вас наблюдаются проблемы со скриншотами, переходом по ссылками, скачиванием торрентов - проблемы в блокировщике рекламы AdBlock. #хорошегоДня!


Статистика раздачи
Размер:  2.32 GB   |    Зарегистрирован:  1 год 3 месяца   |    .torrent скачан:  41 раз   |   
Раздают:  1  
   
Загрузка...
 
Автор Сообщение

Galfimbul

avatar Galfimbul



Страна: Япония
Год выпуска: 2016 г.
Жанр: комедия, школа
Продолжительность: 12 эп. по 25 мин.
Перевод:
<ol class="post-ul">
субтитры от Team Shirome (полные/надписи)
перевод/лирика: Rinon Ninqueon
</ol>
Озвучка:
<ol class="post-ul">
двухголосая (муж./жен.) от Milirina & KingMaster (Anything-Group & KMEDIA)
</ol>
Режиссер: Онума Син
Студия:
Описание: Главные героини знакомятся при поступлении в школу со специальным уклоном. Вот только их класс совсем не обычный, а для несчастных девушек. И суть даже не в том, как их туда отобрали, а как их планируют сделать счастливее.
Ссылки: AniDB || World Art || MAL
Качество: HDTVRip
Автор рипа: Ohys-Raws
Тип релиза: без хардсаба
Формат видео: mkv
Видео: x264 (8bit), 1280x720, ~1600kbps, 23.976fps
Аудио (int) rus : AAC, 192kbps, 48000Hz, 2ch
Аудио (int) jap : AAC, 192kbps, 48000Hz, 2ch
01. 7 Апреля: Неудачное Начало Семестра
Девушки поступают в школу, знакомятся. Им выдают первое задание, чтобы сделать их счастливее.
02. 11 Апреля: Высокотехнологичный медосмотр
Девушкам предстоит пройти медосмотр, который кроет в себе скрытую цель. Определиться с кружком тоже не помешает.
03. 28 Апреля: Первая Тренировка Счастья
Проверить уровень везения можно, сыграв в настольную игру. Только фишки в ней - люди живые.
04. 29 Апреля: Загадочное наказание
Подружкам предстоит суровое штрафное задание, справиться с которым они смогут только все вместе.
05. 9 Мая: Потерялась по дороге в школу
Милая история детства Рен и Хибики раскроет секрет их тесной дружбы.
06. 30 Мая: Поездка Со Всеми
Класс счастливчиков отправляется в поход на поиски счастья. Приключения они точно найдут.
07. 28 Июня: Навестим Ханако
Ханако заболела, и подружки приложат все усилия, чтобы она поскорее выздоровела.
GeneralUnique ID : 180854462371319144452344274097734405769 (0x880F4D6E64584393960D8BB3E263CE89)Complete name : C:\[ARRU] Unhappy TV [01] [Anything-Group & KMEDIA].mkvFormat : MatroskaFormat version : Version 4 / Version 2File size : 340 MiBDuration : 24mn 0sOverall bit rate : 1 981 KbpsEncoded date : UTC 2016-04-10 13:46:13Writing application : mkvmerge v8.9.0 ('Father Daughter') 64bitWriting library : libebml v1.3.3 + libmatroska v1.4.4Attachments : barbadoscyr_regular.ttf / KirStyle.ttf / ScrmUpDwn.ttf

VideoID : 1Format : AVCFormat/Info : Advanced Video CodecFormat profile : Main@L4.1Format settings, CABAC : YesFormat settings, ReFrames : 4 framesCodec ID : V_MPEG4/ISO/AVCDuration : 24mn 0sBit rate : 1 593 KbpsWidth : 1 280 pixelsHeight : 720 pixelsDisplay aspect ratio : 16:9Frame rate mode : ConstantFrame rate : 23.976 (24000/1001) fpsColor space : YUVChroma subsampling : 4:2:0Bit depth : 8 bitsScan type : ProgressiveBits/(Pixel*Frame) : 0.072Stream size : 274 MiB (80%)Title : Unhappy - 01Writing library : x264 core 148 r2665 a01e339Encoding settings : cabac=1 / ref=3 / deblock=1:0:0 / analyse=0x1:0x111 / me=hex / subme=7 / psy=1 / psy_rd=1.00:0.00 / mixed_ref=1 / me_range=16 / chroma_me=1 / trellis=1 / 8x8dct=0 / cqm=0 / deadzone=21,11 / fast_pskip=1 / chroma_qp_offset=-2 / threads=12 / lookahead_threads=2 / sliced_threads=0 / nr=0 / decimate=1 / interlaced=0 / bluray_compat=0 / constrained_intra=0 / bframes=3 / b_pyramid=2 / b_adapt=1 / b_bias=0 / direct=1 / weightb=1 / open_gop=0 / weightp=2 / keyint=240 / keyint_min=1 / scenecut=40 / intra_refresh=0 / rc_lookahead=40 / rc=crf / mbtree=1 / crf=20.0 / qcomp=0.60 / qpmin=0 / qpmax=69 / qpstep=4 / ip_ratio=1.40 / aq=1:1.50Language : JapaneseDefault : YesForced : NoColor range : LimitedColor primaries : BT.709Transfer characteristics : BT.709Matrix coefficients : BT.709

Audio #1ID : 2Format : AACFormat/Info : Advanced Audio CodecFormat profile : LCCodec ID : A_AACDuration : 24mn 0sBit rate : 192 KbpsChannel(s) : 2 channelsChannel positions : Front: L RSampling rate : 48.0 KHzFrame rate : 46.875 fps (1024 spf)Compression mode : LossyDelay relative to video : 9msStream size : 33.0 MiB (10%)Title : Milirina & KingMasterLanguage : RussianDefault : YesForced : No

Audio #2ID : 3Format : AACFormat/Info : Advanced Audio CodecFormat profile : LCCodec ID : A_AACDuration : 24mn 0sBit rate : 192 KbpsChannel(s) : 2 channelsChannel positions : Front: L RSampling rate : 48.0 KHzFrame rate : 46.875 fps (1024 spf)Compression mode : LossyStream size : 32.9 MiB (10%)Title : OriginalLanguage : JapaneseDefault : NoForced : No

Text #1ID : 4Format : ASSCodec ID : S_TEXT/ASSCodec ID/Info : Advanced Sub Station AlphaDuration : 23mn 29sBit rate : 209 bpsCount of elements : 457Compression mode : LosslessStream size : 36.0 KiB (0%)Title : Team Shirome (Full)Language : RussianDefault : NoForced : No

Text #2ID : 5Format : ASSCodec ID : S_TEXT/ASSCodec ID/Info : Advanced Sub Station AlphaDuration : 20mn 23sBit rate : 73 bpsCount of elements : 91Compression mode : LosslessStream size : 11.0 KiB (0%)Title : Team ShiromeLanguage : RussianDefault : YesForced : No


Трекер:  [ 03-Июн-2016 06:00 ]

  

Скачать .torrent

Размер .torrent файла 12 KB


Размер: 2.32 GB
Хэш (hash) релиза: a2c37228bc224d8e817067d720bb78a2c40f38dc
Подписка на обновления:

Торренты, похожие на Несчастные Unhappy скачать торрент

Форум Название Автор Размер S L Добавлен
Аниме | HD Rips ·· Несчастные / Unhappy / Anne Happy [TV] [12 из 12] [Без хардсаба] [RUS(ext), JAP+SUB] [2016, комедия, школа, BDRip] [720p] Galfimbul 86166877468.02 GB 0 0 1494597747

17:02

12-Май-17

Аниме | HD Rips ·· Несчастные / Unhappy / Anne Happy (Онума Син) [TV] [12 из 12] [без хардсаба] [RUS(ext), JAP+SUB] [2016, комедия, школа, BDRemux] [1080p] Galfimbul 8465223615378.84 GB 0 0 1480282749

00:39

28-Ноя-16

Аниме | HD Rips ·· Несчастные / Unhappy / Anne Happy (Онума Син) [TV] [01-10 из 12] [без хардсаба] [RUS(ext), JAP+SUB] [2016, комедия, школа, BDRemux] [1080p] Galfimbul 7011987151265.3 GB 0 0 1478521635

15:27

7-Ноя-16

Аниме | HD Rips ·· Несчастные / Unhappy / Anne Happy (Онума Син) [TV] [01-08 из 12] [без хардсаба] [RUS(ext), JAP+SUB] [2016 г., комедия, школа, BDRemux] [1080p] Galfimbul 5592471861252.08 GB 0 0 1475426175

19:36

2-Окт-16

Аниме | HD Rips ·· Несчастные / Unhappy / Anne Happy (Онума Син) [TV] [01-06 из 12] [без хардсаба] [RUS(ext), JAP+SUB] [2016 г., комедия, школа, BDRemux] [1080p] Galfimbul 4216982189839.27 GB 0 0 1474649358

19:49

23-Сен-16

Аниме | HD Rips ·· Несчастные / Unhappy / Anne Happy (Онума Син) [TV] [01-04 из 12] [без хардсаба] [RUS(ext), JAP+SUB] [2016 г., комедия, школа, BDRemux] [1080p] Galfimbul 2750700363825.62 GB 0 0 1470246953

20:55

3-Авг-16

Аниме | Rips ·· Несчастные / Unhappy / Anne-Happy [TV] [2 из 12] [Без хардсаба] [RUS(int), JAP, SUB] [2016 г., комедия, школа BDRip] [HWP] Galfimbul 658658136628 MB 0 0 1468789050

23:57

17-Июл-16

Аниме | HD Rips ·· Несчастные / Unhappy / Anne Happy (Онума Син) [TV] [01-02 из 12] [без хардсаба] [RUS(ext), JAP+SUB] [2016 г., комедия, школа, BDRemux] [1080p] Galfimbul 1375089158012.81 GB 0 0 1468530188

00:03

15-Июл-16

Аниме | Rips ·· Несчастные / Unhappy / Anne-Happy [TV] [12 из 12] [Без хардсаба] [RUS(ext), JAP, SUB] [2016 г., Комедия, Школа, Повседневность, HDTVRip] [720p] Galfimbul 56703170655.28 GB 0 0 1468161101

17:31

10-Июл-16

Аниме | Rips ·· Несчастные / Unhappy / Anne-Happy [TV] [12 из 12] [Без хардсаба] [RUS(int), JAP, SUB] [2016 г., комедия, школа HDTVRip] [HWP] Galfimbul 39956436693.72 GB 0 0 1468085568

20:32

9-Июл-16

Аниме | Rips ·· Несчастные / Unhappy / Anne-Happy [TV] [12 из 12] [Без хардсаба] [RUS(int), JAP, SUB] [2016 г., комедия, школа HDTVRip] [HWP] Galfimbul 39956436693.72 GB 0 0 1467527221

09:27

3-Июл-16

Аниме | HD Rips ·· Несчастные / Unhappy / Anne-Happy [TV] [12 из 12] [Без хардсаба] [RUS(int), JAP, SUB] [2016 г., комедия, школа HDTVRip] [720p] Galfimbul 44779144824.17 GB 0 0 1467495114

00:31

3-Июл-16

Аниме | Rips ·· Несчастные / Unhappy / Anne-Happy [TV] [12 из 12] [Без хардсаба] [JAP, SUB] & [01-10 из 12] [RUS(ext)] [2016 г., Комедия, Школа, Повседневность, HDTVRip] [720p] Galfimbul 55085870465.13 GB 0 0 1466825683

06:34

25-Июн-16

Аниме | Rips ·· Несчастные / Unhappy / Anne-Happy [TV] [01-11 из 12] [Без хардсаба] [JAP, SUB] & [01-09 из 12] [RUS(ext)] [2016 г., Комедия, Школа, Повседневность, HDTVRip] [720p] Galfimbul 50258943084.68 GB 0 0 1466287468

01:04

19-Июн-16

Аниме | Rips ·· Несчастные / Unhappy / Anne-Happy [TV] [01-10 из 12] [Без хардсаба] [JAP, SUB] & [01-09 из 12] [RUS(ext)] [2016 г., Комедия, Школа, Повседневность, HDTVRip] [720p] Galfimbul 46311618764.31 GB 0 0 1465966635

07:57

15-Июн-16

Аниме | Rips ·· Несчастные / Unhappy / Anne-Happy [TV] [01-08 из 12] [Без хардсаба] [RUS(ext), JAP, SUB] [2016 г., Комедия, Школа, Повседневность, HDTVRip] [720p] Galfimbul 38370019463.57 GB 0 0 1465507756

00:29

10-Июн-16

Аниме | HD Rips ·· Несчастные / Unhappy / Anne-Happy [TV] [01-09 из 12] [Без хардсаба] [RUS(int), JAP, SUB] [2016 г., комедия, школа HDTVRip] [720p] Galfimbul 32998890003.07 GB 0 0 1465360055

07:27

8-Июн-16

Аниме | Rips ·· Несчастные / Unhappy / Anne-Happy [TV] [01-07 из 12] [Без хардсаба] [RUS(ext), JAP, SUB] [2016 г., Комедия, Школа, Повседневность, HDTVRip] [720p] Galfimbul 31783804482.96 GB 0 0 1464357984

17:06

27-Май-16

Аниме | Rips ·· Несчастные / Unhappy / Anne-Happy [TV] [01-06 из 12] [Без хардсаба] [RUS(ext), JAP, SUB] [2016 г., Комедия, Школа, Повседневность, HDTVRip] [720p] Galfimbul 27671706382.58 GB 0 0 1463752891

17:01

20-Май-16

Еще никто не оставлял запись к записи скачать торрент Несчастные Unhappy . Будь первым!

!Обратная связь