Скачать через торрент музыку Развод по-итальянски Divorzio allitaliana бесплатно без регистрации torrent

Если у вас наблюдаются проблемы со скриншотами, переходом по ссылками, скачиванием торрентов - проблемы в блокировщике рекламы AdBlock. #хорошегоДня!


Статистика раздачи
Размер:  224 MB   |    Зарегистрирован:  1 год 3 месяца   |    .torrent скачан:  65 раз   |   
Раздают:  1  
   
Загрузка...
 
Автор Сообщение

Galfimbul

avatar Galfimbul


Развод по-итальянски / Divorzio all'italiana

Название альбома: Divorce Italian Style
Жанр: Soundtrack
Композитор: Carlo Rustichelli
Год выпуска диска: 2011
Год выпуска фильма: 1961
Страна-производитель диска: USA
Издатель (лейбл): Kritzerland
Номер по каталогу: KR 20019-3
Аудиокодек: FLAC (*.flac)
Тип рипа: tracks+.cue
Битрейт аудио: lossless
Продолжительность: 43:46
Источник: собственный рип
Наличие сканов в содержимом раздачи: да

Треклист:
01 Song Of Love (Canto D'Amore) [2:10]
02 Traffic (Traffico) [1:09]
03 Funeral March (Marcia Funebre) [3:34]
04 Lawyer's Prayer (Orazione Avvocato) [2:30]
05 Trattoria [1:24]
06 In Love (Innamoramento) [1:10]
07 Murder Of Wife And Love (Uccisione Moglie E Amante) [1:23]
08 Music Of Love (Musica D'Amore) [1:58]
09 Divorce (Divorzio) [1:25]
10 Furtively (Furtivamente) [3:39]
11 Trial (Processo) [2:36]
12 Deceit And Gossip (Tradimento A Pettegolezzo) [4:25]
13 Fefe [2:19]
14 Serenade (Serenata) [2:56]
15 Bonus Suite Of Additional And Alternate Cues [11:06]
Exact Audio Copy V1.0 beta 6 from 9. April 2015

Отчёт EAC об извлечении, выполненном 30. мая 2016, 21:45

Rustichelli, Carlo / Divorce Italian Style

Дисковод: HP DVD Writer 1040r Adapter: 1 ID: 0

Режим чтения : ДостоверностьИспользование точного потока : ДаОтключение кэша аудио : ДаИспользование указателей C2 : Нет

Коррекция смещения при чтении : 6Способность читать области Lead-in и Lead-out : НетЗаполнение пропущенных сэмплов тишиной : ДаУдаление блоков с тишиной в начале и конце : НетПри вычислениях CRC использовались нулевые сэмплы : ДаИнтерфейс : Встроенный Win32-интерфейс для Win NT/2000Обработка зазоров : Добавлено к предыдущему треку

Выходной формат : Пользовательский кодировщикВыбранный битрейт : 768 kBit/sКачество : ВысокийДобавление ID3-тега : НетУтилита сжатия : C:\Program Files (x86)\Exact Audio Copy\FLAC\FLAC.EXEДополнительные параметры : -6 -V -T "ARTIST=%artist%" -T "TITLE=%title%" -T "ALBUM=%albumtitle%" -T "DATE=%year%" -T "TRACKNUMBER=%tracknr%" -T "GENRE=%genre%" -T "COMMENT=%comment%" -T "BAND=%albuminterpret%" -T "ALBUMARTIST=%albuminterpret%" -T "COMPOSER=%composer%" %haslyrics%--tag-from-file=LYRICS="%lyricsfile%"%haslyrics% -T "DISCNUMBER=%cdnumber%" -T "TOTALDISCS=%totalcds%" -T "TOTALTRACKS=%numtracks%" %hascover%--picture="%coverfile%"%hascover% %source% -o %dest%

TOC извлечённого CD

Трек | Старт | Длительность | Начальный сектор | Конечный сектор --------------------------------------------------------------------- 1 | 0:00.00 | 2:10.04 | 0 | 9753 2 | 2:10.04 | 1:09.30 | 9754 | 14958 3 | 3:19.34 | 3:34.02 | 14959 | 31010 4 | 6:53.36 | 2:30.13 | 31011 | 42273 5 | 9:23.49 | 1:24.33 | 42274 | 48606 6 | 10:48.07 | 1:10.26 | 48607 | 53882 7 | 11:58.33 | 1:23.12 | 53883 | 60119 8 | 13:21.45 | 1:58.17 | 60120 | 68986 9 | 15:19.62 | 1:25.31 | 68987 | 75392 10 | 16:45.18 | 3:39.02 | 75393 | 91819 11 | 20:24.20 | 2:36.13 | 91820 | 103532 12 | 23:00.33 | 4:25.32 | 103533 | 123439 13 | 27:25.65 | 2:18.48 | 123440 | 133837 14 | 29:44.38 | 2:55.56 | 133838 | 147018 15 | 32:40.19 | 11:06.35 | 147019 | 197003

Трек 1

Имя файла C:\Users\Shishkov\Music\Divorzio_all'italiana\FLAC\01 Song Of Love (Canto D'Amore).wav

Длина предзазора 0:00:02.00

Пиковый уровень 72.6 % Скорость извлечения 1.5 X Качество трека 100.0 % CRC копии 37BCE8C5 Точное извлечение (достоверность 3) [31D423DB] (AR v2) Копирование... OK

Трек 2

Имя файла C:\Users\Shishkov\Music\Divorzio_all'italiana\FLAC\02 Traffic (Traffico).wav

Длина предзазора 0:00:02.00

Пиковый уровень 58.5 % Скорость извлечения 1.1 X Качество трека 99.8 % CRC копии A96F53E8 Точное извлечение (достоверность 3) [098ED65F] (AR v2) Копирование... OK

Трек 3

Имя файла C:\Users\Shishkov\Music\Divorzio_all'italiana\FLAC\03 Funeral March (Marcia Funebre).wav

Длина предзазора 0:00:02.00

Пиковый уровень 88.1 % Скорость извлечения 1.8 X Качество трека 100.0 % CRC копии C92E619F Точное извлечение (достоверность 3) [93B4C09B] (AR v2) Копирование... OK

Трек 4

Имя файла C:\Users\Shishkov\Music\Divorzio_all'italiana\FLAC\04 Lawyer's Prayer (Orazione Avvocato).wav

Длина предзазора 0:00:02.00

Пиковый уровень 69.6 % Скорость извлечения 1.9 X Качество трека 100.0 % CRC копии 5356AF2D Точное извлечение (достоверность 3) [CA69CFDD] (AR v2) Копирование... OK

Трек 5

Имя файла C:\Users\Shishkov\Music\Divorzio_all'italiana\FLAC\05 Trattoria.wav

Длина предзазора 0:00:02.00

Пиковый уровень 52.7 % Скорость извлечения 1.7 X Качество трека 100.0 % CRC копии 2AF84CC8 Точное извлечение (достоверность 3) [E82238CC] (AR v2) Копирование... OK

Трек 6

Имя файла C:\Users\Shishkov\Music\Divorzio_all'italiana\FLAC\06 In Love (Innamoramento).wav

Длина предзазора 0:00:02.00

Пиковый уровень 47.0 % Скорость извлечения 1.2 X Качество трека 99.8 % CRC копии 1A3058DC Точное извлечение (достоверность 3) [8B9B1266] (AR v2) Копирование... OK

Трек 7

Имя файла C:\Users\Shishkov\Music\Divorzio_all'italiana\FLAC\07 Murder Of Wife And Love (Uccisione Moglie E Amante).wav

Длина предзазора 0:00:02.00

Пиковый уровень 98.6 % Скорость извлечения 1.8 X Качество трека 100.0 % CRC копии 768B4C36 Точное извлечение (достоверность 3) [DEBB7F05] (AR v2) Копирование... OK

Трек 8

Имя файла C:\Users\Shishkov\Music\Divorzio_all'italiana\FLAC\08 Music Of Love (Musica D'Amore).wav

Длина предзазора 0:00:02.00

Пиковый уровень 79.8 % Скорость извлечения 2.0 X Качество трека 100.0 % CRC копии C36631CC Точное извлечение (достоверность 3) [5C763407] (AR v2) Копирование... OK

Трек 9

Имя файла C:\Users\Shishkov\Music\Divorzio_all'italiana\FLAC\09 Divorce (Divorzio).wav

Длина предзазора 0:00:02.00

Пиковый уровень 87.2 % Скорость извлечения 1.9 X Качество трека 100.0 % CRC копии 81936CD8 Точное извлечение (достоверность 3) [3D458A24] (AR v2) Копирование... OK

Трек 10

Имя файла C:\Users\Shishkov\Music\Divorzio_all'italiana\FLAC\10 Furtively (Furtivamente).wav

Длина предзазора 0:00:02.00

Пиковый уровень 47.6 % Скорость извлечения 2.4 X Качество трека 100.0 % CRC копии 85644FEF Точное извлечение (достоверность 3) [81D24B9A] (AR v2) Копирование... OK

Трек 11

Имя файла C:\Users\Shishkov\Music\Divorzio_all'italiana\FLAC\11 Trial (Processo).wav

Длина предзазора 0:00:02.00

Пиковый уровень 77.7 % Скорость извлечения 2.4 X Качество трека 100.0 % CRC копии 940500BF Точное извлечение (достоверность 3) [F2D3C45A] (AR v2) Копирование... OK

Трек 12

Имя файла C:\Users\Shishkov\Music\Divorzio_all'italiana\FLAC\12 Deceit And Gossip (Tradimento A Pettegolezzo).wav

Длина предзазора 0:00:02.00

Пиковый уровень 58.5 % Скорость извлечения 2.6 X Качество трека 100.0 % CRC копии 8B960B3D Точное извлечение (достоверность 3) [CF3E870F] (AR v2) Копирование... OK

Трек 13

Имя файла C:\Users\Shishkov\Music\Divorzio_all'italiana\FLAC\13 Fefe.wav

Длина предзазора 0:00:02.00

Пиковый уровень 51.7 % Скорость извлечения 2.5 X Качество трека 100.0 % CRC копии 26B9F35A Точное извлечение (достоверность 3) [27BF0B81] (AR v2) Копирование... OK

Трек 14

Имя файла C:\Users\Shishkov\Music\Divorzio_all'italiana\FLAC\14 Serenade (Serenata).wav

Длина предзазора 0:00:02.00

Пиковый уровень 52.8 % Скорость извлечения 2.7 X Качество трека 100.0 % CRC копии B0F514DD Точное извлечение (достоверность 3) [1A1BC119] (AR v2) Копирование... OK

Трек 15

Имя файла C:\Users\Shishkov\Music\Divorzio_all'italiana\FLAC\15 Bonus Suite Of Additional And Alternate Cues.wav

Длина предзазора 0:00:05.00

Пиковый уровень 72.8 % Скорость извлечения 3.2 X Качество трека 100.0 % CRC копии 95EC1AB2 Точное извлечение (достоверность 3) [12692D77] (AR v2) Копирование... OK

Все треки извлечены точно

Ошибок не произошло

Конец отчёта

---- CUETools DB Plugin V2.1.6

[CTDB TOCID: FoKo1BbFxXCo3fxtD4KfmDMxbcw-] foundSubmit result: already submittedTrack | CTDB Status 1 | (4/4) Accurately ripped 2 | (4/4) Accurately ripped 3 | (4/4) Accurately ripped 4 | (4/4) Accurately ripped 5 | (4/4) Accurately ripped 6 | (4/4) Accurately ripped 7 | (4/4) Accurately ripped 8 | (4/4) Accurately ripped 9 | (4/4) Accurately ripped 10 | (4/4) Accurately ripped 11 | (4/4) Accurately ripped 12 | (4/4) Accurately ripped 13 | (4/4) Accurately ripped 14 | (4/4) Accurately ripped 15 | (4/4) Accurately ripped

==== Контрольная сумма отчёта D24BFCEBEE05EFD2C3972CF67E06B4F6075D19EB9A046B4B2DDC8955942202F0 ====
REM GENRE SoundtrackREM DATE 2011REM DISCID AB0A420FREM COMMENT "ExactAudioCopy v1.0b6"PERFORMER "Rustichelli, Carlo"TITLE "Divorce Italian Style"FILE "01 Song Of Love (Canto D'Amore).wav" WAVE TRACK 01 AUDIO TITLE "Song Of Love (Canto D'Amore)" PERFORMER "Rustichelli, Carlo" FLAGS DCP INDEX 01 00:00:00 TRACK 02 AUDIO TITLE "Traffic (Traffico)" PERFORMER "Rustichelli, Carlo" FLAGS DCP INDEX 00 02:08:04FILE "02 Traffic (Traffico).wav" WAVE INDEX 01 00:00:00 TRACK 03 AUDIO TITLE "Funeral March (Marcia Funebre)" PERFORMER "Rustichelli, Carlo" FLAGS DCP INDEX 00 01:07:30FILE "03 Funeral March (Marcia Funebre).wav" WAVE INDEX 01 00:00:00 TRACK 04 AUDIO TITLE "Lawyer's Prayer (Orazione Avvocato)" PERFORMER "Rustichelli, Carlo" FLAGS DCP INDEX 00 03:32:02FILE "04 Lawyer's Prayer (Orazione Avvocato).wav" WAVE INDEX 01 00:00:00 TRACK 05 AUDIO TITLE "Trattoria" PERFORMER "Rustichelli, Carlo" FLAGS DCP INDEX 00 02:28:13FILE "05 Trattoria.wav" WAVE INDEX 01 00:00:00 TRACK 06 AUDIO TITLE "In Love (Innamoramento)" PERFORMER "Rustichelli, Carlo" FLAGS DCP INDEX 00 01:22:33FILE "06 In Love (Innamoramento).wav" WAVE INDEX 01 00:00:00 TRACK 07 AUDIO TITLE "Murder Of Wife And Love (Uccisione Moglie E Amante)" PERFORMER "Rustichelli, Carlo" FLAGS DCP INDEX 00 01:08:26FILE "07 Murder Of Wife And Love (Uccisione Moglie E Amante).wav" WAVE INDEX 01 00:00:00 TRACK 08 AUDIO TITLE "Music Of Love (Musica D'Amore)" PERFORMER "Rustichelli, Carlo" FLAGS DCP INDEX 00 01:21:12FILE "08 Music Of Love (Musica D'Amore).wav" WAVE INDEX 01 00:00:00 TRACK 09 AUDIO TITLE "Divorce (Divorzio)" PERFORMER "Rustichelli, Carlo" FLAGS DCP INDEX 00 01:56:17FILE "09 Divorce (Divorzio).wav" WAVE INDEX 01 00:00:00 TRACK 10 AUDIO TITLE "Furtively (Furtivamente)" PERFORMER "Rustichelli, Carlo" FLAGS DCP INDEX 00 01:23:31FILE "10 Furtively (Furtivamente).wav" WAVE INDEX 01 00:00:00 TRACK 11 AUDIO TITLE "Trial (Processo)" PERFORMER "Rustichelli, Carlo" FLAGS DCP INDEX 00 03:37:02FILE "11 Trial (Processo).wav" WAVE INDEX 01 00:00:00 TRACK 12 AUDIO TITLE "Deceit And Gossip (Tradimento A Pettegolezzo)" PERFORMER "Rustichelli, Carlo" FLAGS DCP INDEX 00 02:34:13FILE "12 Deceit And Gossip (Tradimento A Pettegolezzo).wav" WAVE INDEX 01 00:00:00 TRACK 13 AUDIO TITLE "Fefe" PERFORMER "Rustichelli, Carlo" FLAGS DCP INDEX 00 04:23:32FILE "13 Fefe.wav" WAVE INDEX 01 00:00:00 TRACK 14 AUDIO TITLE "Serenade (Serenata)" PERFORMER "Rustichelli, Carlo" FLAGS DCP INDEX 00 02:16:48FILE "14 Serenade (Serenata).wav" WAVE INDEX 01 00:00:00 TRACK 15 AUDIO TITLE "Bonus Suite Of Additional And Alternate Cues" PERFORMER "Rustichelli, Carlo" FLAGS DCP INDEX 00 02:50:56FILE "15 Bonus Suite Of Additional And Alternate Cues.wav" WAVE INDEX 01 00:00:00
Сведения об исполнителях на диске отсутствуют


Трекер:  [ 31-Май-2016 16:30 ]

  

Скачать .torrent

Размер .torrent файла 19 KB


Размер: 224 MB
Хэш (hash) релиза: 6f2a3e3f0551d81ff99e598fd8dffe28f3c3d44f

Еще никто не оставлял запись к записи скачать торрент Развод по-итальянски Divorzio allitaliana . Будь первым!

!Обратная связь