Скачать через торрент музыку Замкнутый круг бесплатно без регистрации torrent

Если у вас наблюдаются проблемы со скриншотами, переходом по ссылками, скачиванием торрентов - проблемы в блокировщике рекламы AdBlock. #хорошегоДня!


Статистика раздачи
Размер:  324 MB   |    Зарегистрирован:  1 год 3 месяца   |    .torrent скачан:  52 раза   |   
Раздают:  1  
   
Загрузка...
 
Автор Сообщение

Galfimbul

avatar Galfimbul


Замкнутый круг (Площадь Колумба) / Columbus Circle

Жанр: Score
Композитор: Brian Tyler
Год выпуска диска: 2012
Год выпуска фильма: 2012
Производитель диска: USA
Издатель (лейбл): Varese Sarabande
Номер по каталогу: 302 064 211 2

Аудиокодек: FLAC (*.flac)
Тип рипа: image+.cue
Битрейт аудио: lossless
Продолжительность: 63.32
Источник: собственный рип
Наличие сканов в содержимом раздачи: да (600 dpi)
01. Columbus Circle Main Title [03:27.06]
02. Columbus Circle [03:15.01]
03. Discovery [02:48.70]
04. Intricate Moves [02:25.08]
05. Agoraphobia [02:10.17]
06. Emerging [02:51.16]
07. Abigail's Story [03:32.72]
08. Digger [02:35.73]
09. Exit Strategy [07:01.37]
10. Stratford [03:11.46]
11. Klanderman [02:25.11]
12. Dr. Fontaine [00:54.44]
13. Identity Theft [04:46.02]
14. Comforting [01:10.56]
15. Extortion [02:49.05]
16. The Detective [03:16.08]
17. Lillian And Abigail [03:04.47]
18. Puzzle Pieces [11:45.08]
Exact Audio Copy V1.0 beta 3 from 29. August 2011

EAC extraction logfile from 20. March 2013, 20:40

Brian Tyler / Columbus Circle

Used drive : TSSTcorpCDDVDW SH-S202H Adapter: 0 ID: 0

Read mode : SecureUtilize accurate stream : YesDefeat audio cache : YesMake use of C2 pointers : No

Read offset correction : 6Overread into Lead-In and Lead-Out : NoFill up missing offset samples with silence : YesDelete leading and trailing silent blocks : NoNull samples used in CRC calculations : YesUsed interface : Native Win32 interface for Win NT & 2000

Used output format : Internal WAV RoutinesSample format : 44.100 Hz; 16 Bit; Stereo

TOC of the extracted CD

Track | Start | Length | Start sector | End sector --------------------------------------------------------- 1 | 0:00.00 | 3:27.06 | 0 | 15530 2 | 3:27.06 | 3:15.01 | 15531 | 30156 3 | 6:42.07 | 2:48.70 | 30157 | 42826 4 | 9:31.02 | 2:25.08 | 42827 | 53709 5 | 11:56.10 | 2:10.17 | 53710 | 63476 6 | 14:06.27 | 2:51.16 | 63477 | 76317 7 | 16:57.43 | 3:32.72 | 76318 | 92289 8 | 20:30.40 | 2:35.73 | 92290 | 103987 9 | 23:06.38 | 7:01.37 | 103988 | 135599 10 | 30:08.00 | 3:11.46 | 135600 | 149970 11 | 33:19.46 | 2:25.11 | 149971 | 160856 12 | 35:44.57 | 0:54.44 | 160857 | 164950 13 | 36:39.26 | 4:46.02 | 164951 | 186402 14 | 41:25.28 | 1:10.56 | 186403 | 191708 15 | 42:36.09 | 2:49.05 | 191709 | 204388 16 | 45:25.14 | 3:16.08 | 204389 | 219096 17 | 48:41.22 | 3:04.47 | 219097 | 232943 18 | 51:45.69 | 11:45.08 | 232944 | 285826

Range status and errors

Selected range

Filename D:\Brian Tyler - Columbus Circle\Brian Tyler - Columbus Circle.wav

Peak level 99.7 % Extraction speed 7.3 X Range quality 99.9 % Test CRC 81593423 Copy CRC 81593423 Copy OK

No errors occurred

AccurateRip summary

Track 1 accurately ripped (confidence 2) [644C4B38] (AR v1)Track 2 accurately ripped (confidence 2) [2309580A] (AR v1)Track 3 accurately ripped (confidence 2) [F221F025] (AR v1)Track 4 accurately ripped (confidence 2) [27E98912] (AR v1)Track 5 accurately ripped (confidence 2) [281F1B97] (AR v1)Track 6 accurately ripped (confidence 2) [EDBBE9A8] (AR v1)Track 7 accurately ripped (confidence 2) [B14736E1] (AR v1)Track 8 accurately ripped (confidence 2) [F14AAA87] (AR v1)Track 9 accurately ripped (confidence 2) [FEBB898E] (AR v1)Track 10 accurately ripped (confidence 2) [A60D15F9] (AR v1)Track 11 accurately ripped (confidence 2) [9E4A0012] (AR v1)Track 12 accurately ripped (confidence 2) [91B6A2BB] (AR v1)Track 13 accurately ripped (confidence 2) [EC9A2705] (AR v1)Track 14 accurately ripped (confidence 2) [232D9016] (AR v1)Track 15 accurately ripped (confidence 2) [3DA18BBA] (AR v1)Track 16 accurately ripped (confidence 2) [A8EA7052] (AR v1)Track 17 accurately ripped (confidence 2) [F87D12E1] (AR v1)Track 18 accurately ripped (confidence 2) [8B35A54D] (AR v1)

All tracks accurately ripped

End of status report

==== Log checksum 70F68D7811C8DCE4C25D534C9451053766CDEDA9BFA535571A5D7372045B614D ====
У девушки Абигейл - агорафобия. Почти 20 лет она не выходит из своего дома, расположенного на знаменитой Площади Колумба в Нью-Йорке. В привычный круг общения (всего два человека) врывается детектив полиции, расследующий убийство в квартире напротив. И, как это обычно бывает, одна тайна тянет за собой другую, и в итоге вроде абсолютно несвязанные истории оказываются тесно переплетены...
Музыка Брайана Тайлера.



Трекер:  [ 30-Май-2016 18:30 ]

  

Скачать .torrent

Размер .torrent файла 13 KB


Размер: 324 MB
Хэш (hash) релиза: 7c672dcc6817b4961ccac2812a19289634386a10

Торренты, похожие на Замкнутый круг скачать торрент

Форум Название Автор Размер S L Добавлен
Саундтреки к фильмам и мультфильмам (mp3) ·· (Score) Замкнутый круг / Full Circle (by Colin Towns) - 1995 (1977), MP3, 320 kbps Galfimbul 174898129167 MB 0 0 1322396271

15:17

27-Ноя-11

Еще никто не оставлял запись к записи скачать торрент Замкнутый круг . Будь первым!

!Обратная связь