Скачать через торрент музыку Дни грома Days of Thunder бесплатно без регистрации torrent

Если у вас наблюдаются проблемы со скриншотами, переходом по ссылками, скачиванием торрентов - проблемы в блокировщике рекламы AdBlock. #хорошегоДня!


Статистика раздачи
Размер:  507 MB   |    Зарегистрирован:  1 год 3 месяца   |    .torrent скачан:  59 раз   |   
Раздают:  1  
   
Загрузка...
 
Автор Сообщение

Galfimbul

avatar Galfimbul


Дни грома / Days of Thunder
Жанр: Score
Композитор: Hans Zimmer
Год выпуска диска: 2013
Год выпуска фильма: 1990

Страна-производитель диска: USA
Издатель (лейбл): La-La Land Records
Номер по каталогу: LLLCD 1290
Аудиокодек: FLAC (*.flac)

Тип рипа: tracks+.cue
Битрейт аудио: lossless
Продолжительность: 01:11:12
Источник: скачано с forums.ffshrine
Наличие сканов в содержимом раздачи: да
01 - Main Title
02 - Rowdy Drives / Who Is This Driver?
03 - Let Me Drive / Cole Drives Rowdy's Car
04 - Car Building
05 - Darlington / Cole Wins
06 - You're Home - Daytona Race / The Crash
07 - The Hospital
08 - Wheelchair Race
09 - Rental Car Race
10 - Claire Arrives At Her Apartment
11 - Physical Kiss
12 - Cole Blows His Engine
13 - Wheeler / Cole Smashes
14 - Cole At The Laundry / Cole Agrees To Drive Rowdy's Car
15 - Cole And Harry Fight / Harry Talks To Car
16 - Cole In The Truck / Pre-Race
17 - The Last Race
18 - The Last Note Of Freedom (performed by David Coverdale)
19 - The Hospital (Alternate)
20 - Wheelchair Race (Alternate)
21 - Claire Arrives At Her Apartment (Alternate)
22 - Cole Blows His Engine (Alternate)
23 - Pre-Race (Alternate)
24 - Main Title (Rock Arrangement)
Exact Audio Copy V1.0 beta 4 from 7. December 2014

EAC extraction logfile from 5. December 2015, 16:49

Hans Zimmer / Days of Thunder (Music From the Motion Picture)

Used drive : ASUS SDR-08B1-U A Adapter: 1 ID: 0

Read mode : SecureUtilize accurate stream : YesDefeat audio cache : YesMake use of C2 pointers : No

Read offset correction : 6Overread into Lead-In and Lead-Out : NoFill up missing offset samples with silence : YesDelete leading and trailing silent blocks : NoNull samples used in CRC calculations : YesUsed interface : Native Win32 interface for Win NT & 2000Gap handling : Appended to previous track

Used output format : User Defined EncoderSelected bitrate : 1024 kBit/sQuality : HighAdd ID3 tag : NoCommand line compressor : D:\Program Files\Exact Audio Copy\FLAC\FLAC.EXEAdditional command line options : -6 -V -T "ARTIST=%artist%" -T "TITLE=%title%" -T "ALBUM=%albumtitle%" -T "DATE=%year%" -T "TRACKNUMBER=%tracknr%" -T "GENRE=%genre%" -T "COMMENT=%comment%" -T "BAND=%albuminterpret%" -T "ALBUMARTIST=%albuminterpret%" -T "COMPOSER=%composer%" %haslyrics%--tag-from-file=LYRICS="%lyricsfile%"%haslyrics% -T "DISCNUMBER=%cdnumber%" -T "TOTALDISCS=%totalcds%" -T "TOTALTRACKS=%numtracks%" %hascover%--picture="%coverfile%"%hascover% %source% -o %dest%

TOC of the extracted CD

Track | Start | Length | Start sector | End sector --------------------------------------------------------- 1 | 0:00.00 | 3:09.21 | 0 | 14195 2 | 3:09.21 | 2:08.16 | 14196 | 23811 3 | 5:17.37 | 2:28.38 | 23812 | 34949 4 | 7:46.00 | 2:07.49 | 34950 | 44523 5 | 9:53.49 | 4:49.36 | 44524 | 66234 6 | 14:43.10 | 3:31.50 | 66235 | 82109 7 | 18:14.60 | 2:22.56 | 82110 | 92815 8 | 20:37.41 | 0:39.03 | 92816 | 95743 9 | 21:16.44 | 3:51.55 | 95744 | 113123 10 | 25:08.24 | 1:56.21 | 113124 | 121844 11 | 27:04.45 | 1:07.38 | 121845 | 126907 12 | 28:12.08 | 1:11.66 | 126908 | 132298 13 | 29:23.74 | 2:26.24 | 132299 | 143272 14 | 31:50.23 | 2:13.31 | 143273 | 153278 15 | 34:03.54 | 2:53.74 | 153279 | 166327 16 | 36:57.53 | 3:53.48 | 166328 | 183850 17 | 40:51.26 | 10:21.50 | 183851 | 230475 18 | 51:13.01 | 5:03.36 | 230476 | 253236 19 | 56:16.37 | 2:22.48 | 253237 | 263934 20 | 58:39.10 | 0:40.17 | 263935 | 266951 21 | 59:19.27 | 1:55.60 | 266952 | 275636 22 | 61:15.12 | 1:13.16 | 275637 | 281127 23 | 62:28.28 | 2:26.24 | 281128 | 292101 24 | 64:54.52 | 6:17.43 | 292102 | 320419

Track 1

Filename E:\Soundtrack\Hans Zimmer - Days of Thunder (Music From the Motion Picture)\01 - Main Title.wav

Pre-gap length 0:00:02.00

Peak level 96.7 % Extraction speed 1.1 X Track quality 100.0 % Test CRC 8FDF4829 Copy CRC 8FDF4829 Cannot be verified as accurate (confidence 9) [3B3A3F1E], AccurateRip returned [A1081485] (AR v2) Copy OK

Track 2

Filename E:\Soundtrack\Hans Zimmer - Days of Thunder (Music From the Motion Picture)\02 - Rowdy Drives , Who Is This Driver.wav

Pre-gap length 0:00:01.57

Peak level 95.8 % Extraction speed 1.1 X Track quality 100.0 % Test CRC 67628516 Copy CRC 67628516 Cannot be verified as accurate (confidence 9) [E5ADF733], AccurateRip returned [8027BA9E] (AR v2) Copy OK

Track 3

Filename E:\Soundtrack\Hans Zimmer - Days of Thunder (Music From the Motion Picture)\03 - Let Me Drive , Cole Drives Rowdy's Car.wav

Pre-gap length 0:00:02.62

Peak level 96.0 % Extraction speed 1.2 X Track quality 100.0 % Test CRC D27B2C80 Copy CRC D27B2C80 Cannot be verified as accurate (confidence 9) [F782D581], AccurateRip returned [9D73CBC9] (AR v2) Copy OK

Track 4

Filename E:\Soundtrack\Hans Zimmer - Days of Thunder (Music From the Motion Picture)\04 - Car Building.wav

Pre-gap length 0:00:02.50

Peak level 96.0 % Extraction speed 1.2 X Track quality 100.0 % Test CRC F2B418FF Copy CRC F2B418FF Cannot be verified as accurate (confidence 9) [D4BA02F2], AccurateRip returned [0636254E] (AR v2) Copy OK

Track 5

Filename E:\Soundtrack\Hans Zimmer - Days of Thunder (Music From the Motion Picture)\05 - Darlington , Cole Wins.wav

Pre-gap length 0:00:02.85

Peak level 96.9 % Extraction speed 1.3 X Track quality 99.9 % Test CRC F6548091 Copy CRC F6548091 Cannot be verified as accurate (confidence 9) [2AA2E579], AccurateRip returned [B3CD7122] (AR v2) Copy OK

Track 6

Filename E:\Soundtrack\Hans Zimmer - Days of Thunder (Music From the Motion Picture)\06 - You're Home - Daytona Race , The Crash.wav

Pre-gap length 0:00:02.98

Peak level 96.1 % Extraction speed 1.5 X Track quality 100.0 % Test CRC ABA8E7FA Copy CRC ABA8E7FA Cannot be verified as accurate (confidence 9) [6BB141A5], AccurateRip returned [4F2678C6] (AR v2) Copy OK

Track 7

Filename E:\Soundtrack\Hans Zimmer - Days of Thunder (Music From the Motion Picture)\07 - The Hospital.wav

Pre-gap length 0:00:03.01

Peak level 95.6 % Extraction speed 1.2 X Track quality 99.9 % Test CRC 255B7CD0 Copy CRC 255B7CD0 Cannot be verified as accurate (confidence 9) [0DEFFC77], AccurateRip returned [A179FF71] (AR v2) Copy OK

Track 8

Filename E:\Soundtrack\Hans Zimmer - Days of Thunder (Music From the Motion Picture)\08 - Wheelchair Race.wav

Pre-gap length 0:00:02.66

Peak level 87.5 % Extraction speed 1.0 X Track quality 100.0 % Test CRC 4BAD60D3 Copy CRC 4BAD60D3 Cannot be verified as accurate (confidence 9) [1A900457], AccurateRip returned [013C3C43] (AR v2) Copy OK

Track 9

Filename E:\Soundtrack\Hans Zimmer - Days of Thunder (Music From the Motion Picture)\09 - Rental Car Race.wav

Pre-gap length 0:00:02.16

Peak level 97.0 % Extraction speed 1.5 X Track quality 99.9 % Test CRC 371739ED Copy CRC 371739ED Cannot be verified as accurate (confidence 9) [FE267B4B], AccurateRip returned [495B0994] (AR v2) Copy OK

Track 10

Filename E:\Soundtrack\Hans Zimmer - Days of Thunder (Music From the Motion Picture)\10 - Claire Arrives At Her Apartment.wav

Pre-gap length 0:00:02.10

Peak level 95.6 % Extraction speed 1.5 X Track quality 100.0 % Test CRC D938D65A Copy CRC D938D65A Cannot be verified as accurate (confidence 9) [CB7BBFD5], AccurateRip returned [E93026D0] (AR v2) Copy OK

Track 11

Filename E:\Soundtrack\Hans Zimmer - Days of Thunder (Music From the Motion Picture)\11 - Physical Kiss.wav

Pre-gap length 0:00:01.12

Peak level 70.8 % Extraction speed 1.3 X Track quality 100.0 % Test CRC 977FD36C Copy CRC 977FD36C Cannot be verified as accurate (confidence 9) [CBC3C620], AccurateRip returned [46FAFD1C] (AR v2) Copy OK

Track 12

Filename E:\Soundtrack\Hans Zimmer - Days of Thunder (Music From the Motion Picture)\12 - Cole Blows His Engine.wav

Pre-gap length 0:00:02.10

Peak level 95.7 % Extraction speed 1.4 X Track quality 100.0 % Test CRC 35FBFAFE Copy CRC 35FBFAFE Cannot be verified as accurate (confidence 9) [BC040629], AccurateRip returned [4B8BABC7] (AR v2) Copy OK

Track 13

Filename E:\Soundtrack\Hans Zimmer - Days of Thunder (Music From the Motion Picture)\13 - Wheeler , Cole Smashes.wav

Pre-gap length 0:00:02.40

Peak level 96.1 % Extraction speed 1.7 X Track quality 100.0 % Test CRC 9467BA6C Copy CRC 9467BA6C Cannot be verified as accurate (confidence 9) [BC8BF002], AccurateRip returned [D3AC1D7B] (AR v2) Copy OK

Track 14

Filename E:\Soundtrack\Hans Zimmer - Days of Thunder (Music From the Motion Picture)\14 - Cole At The Laundry , Cole Agrees To Drive Rowdy's Car.wav

Pre-gap length 0:00:01.73

Peak level 97.6 % Extraction speed 1.4 X Track quality 99.9 % Test CRC 87D3CEF6 Copy CRC 87D3CEF6 Cannot be verified as accurate (confidence 9) [B1287831], AccurateRip returned [89FF7490] (AR v2) Copy OK

Track 15

Filename E:\Soundtrack\Hans Zimmer - Days of Thunder (Music From the Motion Picture)\15 - Cole And Harry Fight , Harry Talks To Car.wav

Pre-gap length 0:00:02.13

Peak level 95.7 % Extraction speed 1.8 X Track quality 100.0 % Test CRC C698F268 Copy CRC C698F268 Cannot be verified as accurate (confidence 9) [D769FBA2], AccurateRip returned [DBC1879A] (AR v2) Copy OK

Track 16

Filename E:\Soundtrack\Hans Zimmer - Days of Thunder (Music From the Motion Picture)\16 - Cole In The Truck , Pre-Race.wav

Pre-gap length 0:00:02.32

Peak level 95.3 % Extraction speed 2.0 X Track quality 100.0 % Test CRC E6CAB9A6 Copy CRC E6CAB9A6 Cannot be verified as accurate (confidence 9) [E3CD880A], AccurateRip returned [2A25C219] (AR v2) Copy OK

Track 17

Filename E:\Soundtrack\Hans Zimmer - Days of Thunder (Music From the Motion Picture)\17 - The Last Race.wav

Pre-gap length 0:00:02.13

Peak level 97.0 % Extraction speed 2.3 X Track quality 100.0 % Test CRC DA7A7014 Copy CRC DA7A7014 Cannot be verified as accurate (confidence 9) [DEA2AB9A], AccurateRip returned [16875F38] (AR v2) Copy OK

Track 18

Filename E:\Soundtrack\Hans Zimmer - Days of Thunder (Music From the Motion Picture)\18 - The Last Note Of Freedom.wav

Pre-gap length 0:00:01.98

Peak level 81.5 % Extraction speed 2.3 X Track quality 100.0 % Test CRC 6100FED8 Copy CRC 6100FED8 Cannot be verified as accurate (confidence 9) [44B85F8C], AccurateRip returned [66C715EE] (AR v2) Copy OK

Track 19

Filename E:\Soundtrack\Hans Zimmer - Days of Thunder (Music From the Motion Picture)\19 - The Hospital (Alternate).wav

Pre-gap length 0:00:06.29

Peak level 95.6 % Extraction speed 2.1 X Track quality 100.0 % Test CRC 97DDBED9 Copy CRC 97DDBED9 Cannot be verified as accurate (confidence 9) [FC4DE8A7], AccurateRip returned [9FC7E94D] (AR v2) Copy OK

Track 20

Filename E:\Soundtrack\Hans Zimmer - Days of Thunder (Music From the Motion Picture)\20 - Wheelchair Race (Alternate).wav

Pre-gap length 0:00:01.32

Peak level 95.4 % Extraction speed 1.3 X Track quality 100.0 % Test CRC 0533CC66 Copy CRC 0533CC66 Cannot be verified as accurate (confidence 9) [6BC80EA6], AccurateRip returned [203516D5] (AR v2) Copy OK

Track 21

Filename E:\Soundtrack\Hans Zimmer - Days of Thunder (Music From the Motion Picture)\21 - Claire Arrives At Her Apartment (Alternate).wav

Pre-gap length 0:00:02.42

Peak level 96.9 % Extraction speed 2.0 X Track quality 100.0 % Test CRC A151DA05 Copy CRC A151DA05 Cannot be verified as accurate (confidence 9) [BCB8FC4B], AccurateRip returned [3F68E4E6] (AR v2) Copy OK

Track 22

Filename E:\Soundtrack\Hans Zimmer - Days of Thunder (Music From the Motion Picture)\22 - Cole Blows His Engine (Alternate).wav

Pre-gap length 0:00:03.17

Peak level 95.7 % Extraction speed 1.8 X Track quality 100.0 % Test CRC B0A883A3 Copy CRC B0A883A3 Cannot be verified as accurate (confidence 9) [BC00DB38], AccurateRip returned [CE85C87A] (AR v2) Copy OK

Track 23

Filename E:\Soundtrack\Hans Zimmer - Days of Thunder (Music From the Motion Picture)\23 - Pre-Race (Alternate).wav

Pre-gap length 0:00:01.30

Peak level 95.3 % Extraction speed 2.2 X Track quality 100.0 % Test CRC 56F8C237 Copy CRC 56F8C237 Cannot be verified as accurate (confidence 9) [8F1AFF4B], AccurateRip returned [E33CBA2E] (AR v2) Copy OK

Track 24

Filename E:\Soundtrack\Hans Zimmer - Days of Thunder (Music From the Motion Picture)\24 - Main Title (Rock Arrangement).wav

Pre-gap length 0:00:01.81

Peak level 77.8 % Extraction speed 2.6 X Track quality 100.0 % Test CRC A5A655F7 Copy CRC A5A655F7 Cannot be verified as accurate (confidence 9) [5CB030B5], AccurateRip returned [DAB68CEA] (AR v2) Copy OK

No tracks could be verified as accurateYou may have a different pressing from the one(s) in the database

No errors occurred

End of status report

---- CUETools DB Plugin V2.1.4

[CTDB TOCID: DjuNl0OYXNIyV3IvkjeuLDEP1DM-] foundSubmit result: DjuNl0OYXNIyV3IvkjeuLDEP1DM- has been confirmedTrack | CTDB Status 1 | (19/20) Accurately ripped 2 | (20/20) Accurately ripped 3 | (20/20) Accurately ripped 4 | (20/20) Accurately ripped 5 | (20/20) Accurately ripped 6 | (20/20) Accurately ripped 7 | (20/20) Accurately ripped 8 | (20/20) Accurately ripped 9 | (18/20) Accurately ripped 10 | (19/20) Accurately ripped 11 | (20/20) Accurately ripped 12 | (20/20) Accurately ripped 13 | (20/20) Accurately ripped 14 | (19/20) Accurately ripped 15 | (19/20) Accurately ripped 16 | (20/20) Accurately ripped 17 | (19/20) Accurately ripped 18 | (20/20) Accurately ripped 19 | (20/20) Accurately ripped 20 | (20/20) Accurately ripped 21 | (20/20) Accurately ripped 22 | (19/20) Accurately ripped 23 | (20/20) Accurately ripped 24 | (20/20) Accurately ripped

==== Log checksum BCAEB62F60B362BA4EEB53DE5D2B16AB905C7D85880CE7A298EBE83812EC3579 ====
REM GENRE SoundtrackREM DATE 1990REM DISCID 7510B018REM COMMENT "ExactAudioCopy v1.0b4"PERFORMER "Hans Zimmer"TITLE "Days of Thunder (Music From the Motion Picture)"FILE "01 - Main Title.wav" WAVE TRACK 01 AUDIO TITLE "Main Title" PERFORMER "Hans Zimmer" INDEX 01 00:00:00 TRACK 02 AUDIO TITLE "Rowdy Drives / Who Is This Driver?" PERFORMER "Hans Zimmer" INDEX 00 03:07:53FILE "02 - Rowdy Drives - Who Is This Driver.wav" WAVE INDEX 01 00:00:00 TRACK 03 AUDIO TITLE "Let Me Drive / Cole Drives Rowdy's Car" PERFORMER "Hans Zimmer" INDEX 00 02:05:44FILE "03 - Let Me Drive - Cole Drives Rowdy's Car.wav" WAVE INDEX 01 00:00:00 TRACK 04 AUDIO TITLE "Car Building" PERFORMER "Hans Zimmer" INDEX 00 02:26:00FILE "04 - Car Building.wav" WAVE INDEX 01 00:00:00 TRACK 05 AUDIO TITLE "Darlington / Cole Wins" PERFORMER "Hans Zimmer" INDEX 00 02:04:60FILE "05 - Darlington - Cole Wins.wav" WAVE INDEX 01 00:00:00 TRACK 06 AUDIO TITLE "You're Home / Daytona Race / The Crash" PERFORMER "Hans Zimmer" INDEX 00 04:46:37FILE "06 - You're Home - Daytona Race - The Crash.wav" WAVE INDEX 01 00:00:00 TRACK 07 AUDIO TITLE "The Hospital" PERFORMER "Hans Zimmer" INDEX 00 03:28:49FILE "07 - The Hospital.wav" WAVE INDEX 01 00:00:00 TRACK 08 AUDIO TITLE "Wheelchair Race" PERFORMER "Hans Zimmer" INDEX 00 02:20:06FILE "08 - Wheelchair Race.wav" WAVE INDEX 01 00:00:00 TRACK 09 AUDIO TITLE "Rental Car Race" PERFORMER "Hans Zimmer" INDEX 00 00:36:66FILE "09 - Rental Car Race.wav" WAVE INDEX 01 00:00:00 TRACK 10 AUDIO TITLE "Claire Arrives At Her Apartment" PERFORMER "Hans Zimmer" INDEX 00 03:49:47FILE "10 - Claire Arrives At Her Apartment.wav" WAVE INDEX 01 00:00:00 TRACK 11 AUDIO TITLE "Physical Kiss" PERFORMER "Hans Zimmer" INDEX 00 01:55:12FILE "11 - Physical Kiss.wav" WAVE INDEX 01 00:00:00 TRACK 12 AUDIO TITLE "Cole Blows His Engine" PERFORMER "Hans Zimmer" INDEX 00 01:05:30FILE "12 - Cole Blows His Engine.wav" WAVE INDEX 01 00:00:00 TRACK 13 AUDIO TITLE "Wheeler / Cole Smashes" PERFORMER "Hans Zimmer" INDEX 00 01:09:36FILE "13 - Wheeler - Cole Smashes.wav" WAVE INDEX 01 00:00:00 TRACK 14 AUDIO TITLE "Cole At The Laundry / Cole Agrees To Drive Rowdy's Car" PERFORMER "Hans Zimmer" INDEX 00 02:24:44FILE "14 - Cole At The Laundry - Cole Agrees To Drive Rowdy's Car.wav" WAVE INDEX 01 00:00:00 TRACK 15 AUDIO TITLE "Cole And Harry Fight / Harry Talks To Car" PERFORMER "Hans Zimmer" INDEX 00 02:11:21FILE "15 - Cole And Harry Fight - Harry Talks To Car.wav" WAVE INDEX 01 00:00:00 TRACK 16 AUDIO TITLE "Cole In The Truck / Pre-Race" PERFORMER "Hans Zimmer" INDEX 00 02:51:50FILE "16 - Cole In The Truck - Pre-Race.wav" WAVE INDEX 01 00:00:00 TRACK 17 AUDIO TITLE "The Last Race" PERFORMER "Hans Zimmer" INDEX 00 03:51:38FILE "17 - The Last Race.wav" WAVE INDEX 01 00:00:00 TRACK 18 AUDIO TITLE "The Last Note Of Freedom" PERFORMER "David Coverdale" INDEX 00 10:19:51FILE "18 - The Last Note Of Freedom.wav" WAVE INDEX 01 00:00:00 TRACK 19 AUDIO TITLE "The Hospital (Alternate)" PERFORMER "Hans Zimmer" INDEX 00 04:57:14FILE "19 - The Hospital (Alternate).wav" WAVE INDEX 01 00:00:00 TRACK 20 AUDIO TITLE "Wheelchair Race (Alternate)" PERFORMER "Hans Zimmer" INDEX 00 02:21:24FILE "20 - Wheelchair Race (Alternate).wav" WAVE INDEX 01 00:00:00 TRACK 21 AUDIO TITLE "Claire Arrives At Her Apartment (Alternate)" PERFORMER "Hans Zimmer" INDEX 00 00:37:60FILE "21 - Claire Arrives At Her Apartment (Alternate).wav" WAVE INDEX 01 00:00:00 TRACK 22 AUDIO TITLE "Cole Blows His Engine (Alternate)" PERFORMER "Hans Zimmer" INDEX 00 01:52:47FILE "22 - Cole Blows His Engine (Alternate).wav" WAVE INDEX 01 00:00:00 TRACK 23 AUDIO TITLE "Pre-Race (Alternate)" PERFORMER "Hans Zimmer" INDEX 00 01:11:68FILE "23 - Pre-Race (Alternate).wav" WAVE INDEX 01 00:00:00 TRACK 24 AUDIO TITLE "Main Title (Rock Arrangement)" PERFORMER "Hans Zimmer" INDEX 00 02:24:38FILE "24 - Main Title (Rock Arrangement).wav" WAVE INDEX 01 00:00:00
-----------------------

DON'T MODIFY THIS FILE

-----------------------

PERFORMER: auCDtect Task Manager, ver. 1.6.0 RC1 build 1.6.0.1Copyright (c) 2008-2010 y-soft. All rights reservedhttp://y-soft.org

ANALYZER: auCDtect: CD records authenticity detector, version 0.8.2Copyright (c) 2004 Oleg Berngardt. All rights reserved.Copyright (c) 2004 Alexander Djourik. All rights reserved.

FILE: 24 - Main Title (Rock Arrangement).flac Size: 39324375 Hash: 6BC3F2503732B00384DEF8C6905FBBB4 Accuracy: -m0 Conclusion: CDDA 100% Signature: E460D8FA01BBDFCA3B20F14A12311C7923B914D9FILE: 23 - Pre-Race (Alternate).flac Size: 12700766 Hash: 18AF470DDD6F17E5EE59E03EDA81485E Accuracy: -m0 Conclusion: CDDA 99% Signature: F9FDA7F19288A8DFCEAD73C800CF3148E53DFE54FILE: 22 - Cole Blows His Engine (Alternate).flac Size: 6939370 Hash: 80AFE0BB0A0438F9E96129BE55042E3F Accuracy: -m0 Conclusion: CDDA 100% Signature: B93B127DD509DE567C68302F5B9D6576BF089C99FILE: 21 - Claire Arrives At Her Apartment (Alternate).flac Size: 11540842 Hash: 4E0927DF430EAF9C6A8B68AF133ACFBB Accuracy: -m0 Conclusion: CDDA 100% Signature: 75E5B6ABDF4A2DD2E8926F7D701FA9D1CEA035F9FILE: 20 - Wheelchair Race (Alternate).flac Size: 3760308 Hash: 3DDBF51A3A79790CE8BC4F3A347BCFD8 Accuracy: -m0 Conclusion: CDDA 100% Signature: 56DCA69641339D796FD350522254DBFDBC540194FILE: 19 - The Hospital (Alternate).flac Size: 13671271 Hash: 3B38F2DC98574B1F9CAA99D356B9D7A4 Accuracy: -m0 Conclusion: CDDA 100% Signature: 6770C3C9358F945F3319528096866B91AEFF414DFILE: 18 - The Last Note Of Freedom.flac Size: 34868879 Hash: EE878094EA89FC11BC18EDD7A7748071 Accuracy: -m0 Conclusion: CDDA 100% Signature: 7891A87ED9D26F7248C00EDA214301D41E45FCE5FILE: 17 - The Last Race.flac Size: 71475932 Hash: FF1FDBCD0ADBF70EFD649AA646248656 Accuracy: -m0 Conclusion: CDDA 100% Signature: 2788A9431A00B86E42A26B976F3D4CDCE7D7E398FILE: 16 - Cole In The Truck - Pre-Race.flac Size: 21557508 Hash: 9D582931B980743F7013A186C31EFB17 Accuracy: -m0 Conclusion: CDDA 100% Signature: DAFBE15BC22EB900AF51352F9FE1BB26391DB31AFILE: 15 - Cole And Harry Fight - Harry Talks To Car.flac Size: 14652949 Hash: B8FCC60E7D39E47DD43C7CCAC6583293 Accuracy: -m0 Conclusion: CDDA 100% Signature: 7226E046F1EBB868973D703CD29FCC9726CAA7ECFILE: 14 - Cole At The Laundry - Cole Agrees To Drive Rowdy's Car.flac Size: 11160322 Hash: 01E844C1ED4016DF4DBEA043887289A0 Accuracy: -m0 Conclusion: CDDA 100% Signature: C98AF6A8BC38AC8A3A76BAB6240E532A7159E6CAFILE: 13 - Wheeler - Cole Smashes.flac Size: 12747865 Hash: 124872B48F96554A7C70847C32240736 Accuracy: -m0 Conclusion: CDDA 100% Signature: 82D13C81927BA57D5C421F06253BB1AF77288DB8FILE: 12 - Cole Blows His Engine.flac Size: 6725356 Hash: F899C0584DC916CCCD8053637791117B Accuracy: -m0 Conclusion: CDDA 100% Signature: 6F63B8A7755A821E79A9F07CA0AFEF9362DDCBA6FILE: 11 - Physical Kiss.flac Size: 6012466 Hash: 0E19F8C85ACE1DC8043AE6328DACAC9B Accuracy: -m0 Conclusion: CDDA 100% Signature: C7EB8D0A1E09D04C47C4EAF769C67EC4A394520AFILE: 10 - Claire Arrives At Her Apartment.flac Size: 11685024 Hash: F30F368C148D364A51AA367A32DD19BA Accuracy: -m0 Conclusion: CDDA 100% Signature: 9D8C7E0FC2F1AAFB444F8E864D75797B5CEF0B3AFILE: 09 - Rental Car Race.flac Size: 20059242 Hash: 57A14616D52B0EC19EF9F13572F772D7 Accuracy: -m0 Conclusion: CDDA 99% Signature: 243CCBD75E1BEF383FDB17B6CDE3AF0BEC050CD3FILE: 08 - Wheelchair Race.flac Size: 3937710 Hash: 5F1455038AAE22098FFBE2769E2FF076 Accuracy: -m0 Conclusion: CDDA 100% Signature: E50EE01AE5D0D4CEA31B092DE6EE1B5811399CD4FILE: 07 - The Hospital.flac Size: 11771628 Hash: E0C371FF57A89AE989ED6FF2671BC1D2 Accuracy: -m0 Conclusion: CDDA 100% Signature: EF715479E90FBFB3EC42DB1B0BFCD861ADE2B694FILE: 06 - You're Home - Daytona Race - The Crash.flac Size: 22709411 Hash: 87E7E3EE8BC779A7C0FA133DC0D67014 Accuracy: -m0 Conclusion: CDDA 99% Signature: 5D77F358483B9DDCDD7E809D1EECFED94648261DFILE: 05 - Darlington - Cole Wins.flac Size: 33962718 Hash: 760F419E4D2CCEED6333618686B327F1 Accuracy: -m0 Conclusion: CDDA 100% Signature: 50B8848E75A1DB99C591612FD91286CA83241F34FILE: 04 - Car Building.flac Size: 11186522 Hash: 386C4C190185533E1924E9A12EE6FC25 Accuracy: -m0 Conclusion: CDDA 100% Signature: 0DA541EBAEFA668374B66BF1FA5B3F0F1CBA0137FILE: 03 - Let Me Drive - Cole Drives Rowdy's Car.flac Size: 14140885 Hash: 1F80209C93D77C3A4A77B413E1AFA3C3 Accuracy: -m0 Conclusion: CDDA 100% Signature: B4BE92CB3BF95A2DB5968AC94E407D5A81E3E4C8FILE: 02 - Rowdy Drives - Who Is This Driver.flac Size: 12242420 Hash: 799EB940A25C3E86955E4A03B8AF40A4 Accuracy: -m0 Conclusion: CDDA 100% Signature: 70AC3E7D1C097ACC8FAEB3ACAAF8D94B79F4A41EFILE: 01 - Main Title.flac Size: 21044492 Hash: FD247093B1F41DD3A584F230C14A747A Accuracy: -m0 Conclusion: CDDA 100% Signature: FEA4C7A8926E336F227C38A24F528603271C0BA7
названия файлов, .cue и теги были подкорректированы


Трекер:  [ 30-Май-2016 14:30 ]

  

Скачать .torrent

Размер .torrent файла 22 KB


Размер: 507 MB
Хэш (hash) релиза: c27648bdc95e739b9b3008e71304db1d5d04a0a5

Еще никто не оставлял запись к записи скачать торрент Дни грома Days of Thunder . Будь первым!

!Обратная связь