Скачать через торрент музыку Убить трубача Miles Ahead бесплатно без регистрации torrent

Если у вас наблюдаются проблемы со скриншотами, переходом по ссылками, скачиванием торрентов - проблемы в блокировщике рекламы AdBlock. #хорошегоДня!


Статистика раздачи
Размер:  529 MB   |    Зарегистрирован:  1 год 3 месяца   |    .torrent скачан:  52 раза   |   
Раздают:  1  
   
Загрузка...
 
Автор Сообщение

Galfimbul

avatar Galfimbul


Убить трубача / Miles Ahead

Название альбома: Miles Ahead - Original Motion Picture Soundtrack
Жанр: Jazz / Soundtrack
Композитор: Miles Davis
Год выпуска диска: 2016
Год выпуска фильма: 2015
Страна-производитель диска: Europe
Издатель (лейбл): Columbia / Legacy
Номер по каталогу: 88985306672
Аудиокодек: FLAC (*.flac)
Тип рипа: tracks+.cue
Битрейт аудио: lossless
Продолжительность: 01:16:07
сайт-источник/ник/другое: TPB
Наличие сканов в содержимом раздачи: да
01. Miles Ahead {04:28}
02. Dialogue: "It Takes A Long Time..." {00:05}
03. So What {09:23}
04. Taylor Made {01:04}
05. Dialogue: "Listen, You Talk Too Goddam Much..." {00:34}
06. Solea (Excerpt) {04:50}
07. Seven Steps to Heaven (Edit) {03:23}
08. Dialogue: "If You Gonna Tell A Story..." {00:07}
09. Nefertiti (Edit) {04:55}
10. Frelon Brun {05:36}
11. Dialogue: "Sometimes You Have These Thoughts..." {00:13}
12. Duran (Take 6) (Edit) {05:34}
13. Dialogue: "You Own My Music..." {00:07}
14. Go Ahead John (Part Two C) {03:40}
15. Black Satin (Edit) {03:10}
16. Dialogue: "Be Musical About This Shit..." {00:06}
17. Prelude #II {06:34}
18. Dialogue: "Y'all Listening To Them..." {00:04}
19. Junior's Jam {03:29}
20. Francessence {02:07}
21. Back Seat Betty (Excerpt) {05:31}
22. Dialogue: "I Don't Like The Word Jazz..." {00:17}
23. What's Wrong With That? {05:19}
24. Gone 2015 {05:30}
Exact Audio Copy V1.1 from 23. June 2015

EAC extraction logfile from 1. May 2016, 18:56

Miles Davis / Miles Ahead: Original Motion Picture Soundtrack

Used drive : ASUS BW-12D1S-U Adapter: 1 ID: 1

Read mode : SecureUtilize accurate stream : YesDefeat audio cache : YesMake use of C2 pointers : No

Read offset correction : 667Overread into Lead-In and Lead-Out : NoFill up missing offset samples with silence : YesDelete leading and trailing silent blocks : NoNull samples used in CRC calculations : YesUsed interface : Native Win32 interface for Win NT & 2000Gap handling : Appended to previous track

Used output format : User Defined EncoderSelected bitrate : 1024 kBit/sQuality : HighAdd ID3 tag : NoCommand line compressor : C:\Program Files (x86)\Music Codec\flac1.3.1\win64\flac.exeAdditional command line options : -8 -V -T "ARTIST=%artist%" -T "TITLE=%title%" -T "ALBUM=%albumtitle%" -T "DATE=%year%" -T "TRACKNUMBER=%tracknr%" -T "TOTALTRACKS=%numtracks%" -T "GENRE=%genre%" -T "ALBUMARTIST=%albumartist%" -T "ALBUM ARTIST=%albumartist%" -T "COMMENT=EAC Secure Mode, Test & Copy, AccurateRip, FLAC -8" %source%

TOC of the extracted CD

Track | Start | Length | Start sector | End sector --------------------------------------------------------- 1 | 0:00.00 | 4:28.37 | 0 | 20136 2 | 4:28.37 | 0:05.25 | 20137 | 20536 3 | 4:33.62 | 9:22.70 | 20537 | 62756 4 | 13:56.57 | 1:03.72 | 62757 | 67553 5 | 15:00.54 | 0:33.48 | 67554 | 70076 6 | 15:34.27 | 4:49.70 | 70077 | 91821 7 | 20:24.22 | 3:23.21 | 91822 | 107067 8 | 23:47.43 | 0:06.56 | 107068 | 107573 9 | 23:54.24 | 4:54.41 | 107574 | 129664 10 | 28:48.65 | 5:36.04 | 129665 | 154868 11 | 34:24.69 | 0:13.36 | 154869 | 155879 12 | 34:38.30 | 5:34.15 | 155880 | 180944 13 | 40:12.45 | 0:06.67 | 180945 | 181461 14 | 40:19.37 | 3:39.42 | 181462 | 197928 15 | 43:59.04 | 3:10.24 | 197929 | 212202 16 | 47:09.28 | 0:06.18 | 212203 | 212670 17 | 47:15.46 | 6:34.10 | 212671 | 242230 18 | 53:49.56 | 0:04.01 | 242231 | 242531 19 | 53:53.57 | 3:29.07 | 242532 | 258213 20 | 57:22.64 | 2:06.68 | 258214 | 267731 21 | 59:29.57 | 5:30.68 | 267732 | 292549 22 | 65:00.50 | 0:17.22 | 292550 | 293846 23 | 65:17.72 | 5:18.69 | 293847 | 317765 24 | 70:36.66 | 5:30.03 | 317766 | 342518

Track 1

Filename H:\3. my rip in preparation\3 - in treatment\1\01 - Miles Ahead.wav

Pre-gap length 0:00:02.00

Peak level 98.9 % Extraction speed 5.0 X Track quality 100.0 % Test CRC 6C5CE8CE Copy CRC 6C5CE8CE Accurately ripped (confidence 2) [64FD9339] (AR v2) Copy OK

Track 2

Filename H:\3. my rip in preparation\3 - in treatment\1\02 - Dialogue - 'It Takes a Long Time...'.wav

Peak level 27.1 % Extraction speed 0.4 X Track quality 97.9 % Test CRC 6C981E9E Copy CRC 6C981E9E Track not present in AccurateRip database Copy OK

Track 3

Filename H:\3. my rip in preparation\3 - in treatment\1\03 - So What.wav

Peak level 89.9 % Extraction speed 6.2 X Track quality 100.0 % Test CRC 9539E36E Copy CRC 9539E36E Accurately ripped (confidence 2) [3EBE5114] (AR v2) Copy OK

Track 4

Filename H:\3. my rip in preparation\3 - in treatment\1\04 - Taylor Made.wav

Peak level 88.5 % Extraction speed 4.5 X Track quality 100.0 % Test CRC B91204F7 Copy CRC B91204F7 Accurately ripped (confidence 1) [1E1CA6F6] (AR v2) Copy OK

Track 5

Filename H:\3. my rip in preparation\3 - in treatment\1\05 - Dialogue - 'Listen, You Talk Too Goddam Much...'.wav

Peak level 52.9 % Extraction speed 3.4 X Track quality 100.0 % Test CRC 71BC062E Copy CRC 71BC062E Accurately ripped (confidence 1) [0E3330F8] (AR v2) Copy OK

Track 6

Filename H:\3. my rip in preparation\3 - in treatment\1\06 - Solea (excerpt).wav

Peak level 98.4 % Extraction speed 6.6 X Track quality 100.0 % Test CRC 926AE7C2 Copy CRC 926AE7C2 Accurately ripped (confidence 2) [81413A77] (AR v2) Copy OK

Track 7

Filename H:\3. my rip in preparation\3 - in treatment\1\07 - Seven Steps to Heaven (edit).wav

Peak level 98.9 % Extraction speed 6.6 X Track quality 100.0 % Test CRC 45E5CCFD Copy CRC 45E5CCFD Accurately ripped (confidence 1) [E82DB3B9] (AR v2) Copy OK

Track 8

Filename H:\3. my rip in preparation\3 - in treatment\1\08 - Dialogue - 'If You Gonna Tell a Story...'.wav

Peak level 39.4 % Extraction speed 1.2 X Track quality 100.0 % Test CRC 43992A1C Copy CRC 43992A1C Accurately ripped (confidence 1) [0B9A799C] (AR v2) Copy OK

Track 9

Filename H:\3. my rip in preparation\3 - in treatment\1\09 - Nefertiti (edit).wav

Peak level 97.2 % Extraction speed 7.3 X Track quality 100.0 % Test CRC DAA9DF15 Copy CRC DAA9DF15 Accurately ripped (confidence 1) [9ED7CA81] (AR v2) Copy OK

Track 10

Filename H:\3. my rip in preparation\3 - in treatment\1\10 - Frelon Brun.wav

Peak level 98.8 % Extraction speed 7.8 X Track quality 100.0 % Test CRC 575252F4 Copy CRC 575252F4 Accurately ripped (confidence 1) [E03C5012] (AR v2) Copy OK

Track 11

Filename H:\3. my rip in preparation\3 - in treatment\1\11 - Dialogue - 'Sometimes You Have These Thoughts...'.wav

Peak level 47.5 % Extraction speed 2.4 X Track quality 100.0 % Test CRC 4B2CDD81 Copy CRC 4B2CDD81 Accurately ripped (confidence 1) [24437AC5] (AR v2) Copy OK

Track 12

Filename H:\3. my rip in preparation\3 - in treatment\1\12 - Duran (take 6) (edit).wav

Peak level 98.9 % Extraction speed 8.0 X Track quality 100.0 % Test CRC CA3EA19C Copy CRC CA3EA19C Accurately ripped (confidence 2) [7803C980] (AR v2) Copy OK

Track 13

Filename H:\3. my rip in preparation\3 - in treatment\1\13 - Dialogue - 'You Own My Music...'.wav

Peak level 31.4 % Extraction speed 1.4 X Track quality 100.0 % Test CRC F75869FD Copy CRC F75869FD Accurately ripped (confidence 1) [7DC4ACF6] (AR v2) Copy OK

Track 14

Filename H:\3. my rip in preparation\3 - in treatment\1\14 - Go Ahead John (part two C).wav

Peak level 96.5 % Extraction speed 7.8 X Track quality 100.0 % Test CRC CA75AF0B Copy CRC CA75AF0B Accurately ripped (confidence 1) [14A00840] (AR v2) Copy OK

Track 15

Filename H:\3. my rip in preparation\3 - in treatment\1\15 - Black Satin (edit).wav

Peak level 96.1 % Extraction speed 7.8 X Track quality 100.0 % Test CRC 68A03781 Copy CRC 68A03781 Accurately ripped (confidence 1) [14C03442] (AR v2) Copy OK

Track 16

Filename H:\3. my rip in preparation\3 - in treatment\1\16 - Dialogue - 'Be Musical About This Shit...'.wav

Peak level 42.4 % Extraction speed 1.3 X Track quality 100.0 % Test CRC 9E45D708 Copy CRC 9E45D708 Accurately ripped (confidence 1) [50372D79] (AR v2) Copy OK

Track 17

Filename H:\3. my rip in preparation\3 - in treatment\1\17 - Prelude #II.wav

Peak level 95.3 % Extraction speed 8.9 X Track quality 100.0 % Test CRC FA6BB954 Copy CRC FA6BB954 Accurately ripped (confidence 1) [BE1F97B1] (AR v2) Copy OK

Track 18

Filename H:\3. my rip in preparation\3 - in treatment\1\18 - Dialogue - 'Y'All Listening to Them...'.wav

Peak level 36.5 % Extraction speed 0.8 X Track quality 100.0 % Test CRC 26785459 Copy CRC 26785459 Track not present in AccurateRip database Copy OK

Track 19

Filename H:\3. my rip in preparation\3 - in treatment\1\19 - Junior's Jam.wav

Peak level 98.9 % Extraction speed 8.4 X Track quality 100.0 % Test CRC 1A364FE2 Copy CRC 1A364FE2 Accurately ripped (confidence 2) [1E27C8CA] (AR v2) Copy OK

Track 20

Filename H:\3. my rip in preparation\3 - in treatment\1\20 - Francessence.wav

Peak level 90.5 % Extraction speed 7.8 X Track quality 100.0 % Test CRC CAD3E0A6 Copy CRC CAD3E0A6 Accurately ripped (confidence 1) [5EAC3BD0] (AR v2) Copy OK

Track 21

Filename H:\3. my rip in preparation\3 - in treatment\1\21 - Back Seat Betty (excerpt).wav

Peak level 98.9 % Extraction speed 9.3 X Track quality 100.0 % Test CRC 3973C847 Copy CRC 3973C847 Accurately ripped (confidence 1) [F3586AF5] (AR v2) Copy OK

Track 22

Filename H:\3. my rip in preparation\3 - in treatment\1\22 - Dialogue - 'I Don't Like the Word Jazz...'.wav

Peak level 48.1 % Extraction speed 3.1 X Track quality 100.0 % Test CRC DD8C10A6 Copy CRC DD8C10A6 Accurately ripped (confidence 1) [55FC1A09] (AR v2) Copy OK

Track 23

Filename H:\3. my rip in preparation\3 - in treatment\1\23 - What's Wrong With That.wav

Peak level 98.9 % Extraction speed 9.6 X Track quality 100.0 % Test CRC 5F025751 Copy CRC 5F025751 Accurately ripped (confidence 1) [544D981A] (AR v2) Copy OK

Track 24

Filename H:\3. my rip in preparation\3 - in treatment\1\24 - Gone 2015.wav

Peak level 98.9 % Extraction speed 9.0 X Track quality 99.9 % Test CRC 360C4269 Copy CRC 360C4269 Accurately ripped (confidence 1) [76D8A564] (AR v2) Copy OK

22 track(s) accurately ripped 2 track(s) not present in the AccurateRip database

Some tracks could not be verified as accurate

No errors occurred

End of status report

---- CUETools DB Plugin V2.1.6

[CTDB TOCID: VKZWmcTRWdE01A4ajColODfdiGo-] foundSubmit result: VKZWmcTRWdE01A4ajColODfdiGo- has been confirmedTrack | CTDB Status 1 | (6/6) Accurately ripped 2 | (6/6) Accurately ripped 3 | (6/6) Accurately ripped 4 | (6/6) Accurately ripped 5 | (6/6) Accurately ripped 6 | (6/6) Accurately ripped 7 | (6/6) Accurately ripped 8 | (6/6) Accurately ripped 9 | (6/6) Accurately ripped 10 | (6/6) Accurately ripped 11 | (6/6) Accurately ripped 12 | (6/6) Accurately ripped 13 | (6/6) Accurately ripped 14 | (6/6) Accurately ripped 15 | (6/6) Accurately ripped 16 | (6/6) Accurately ripped 17 | (6/6) Accurately ripped 18 | (6/6) Accurately ripped 19 | (6/6) Accurately ripped 20 | (6/6) Accurately ripped 21 | (6/6) Accurately ripped 22 | (6/6) Accurately ripped 23 | (6/6) Accurately ripped 24 | (6/6) Accurately ripped

==== Log checksum 6944A996678BA7499A96AC995783F84BE5899494E7F4E45C465BCCDFB8A02907 ====
REM GENRE JazzREM DATE 2016REM DISCID 4311D618REM COMMENT "ExactAudioCopy v1.1"PERFORMER "Miles Davis"TITLE "Miles Ahead: Original Motion Picture Soundtrack"FILE "01. Miles Ahead.wav" WAVE TRACK 01 AUDIO TITLE "Miles Ahead" PERFORMER "Miles Davis" ISRC USFI85300043 INDEX 01 00:00:00FILE "02. Dialogue ''It Takes A Long Time...''.wav" WAVE TRACK 02 AUDIO TITLE "Dialogue ''t Takes A Long Time...''" PERFORMER "Miles Davis" ISRC US4DG1600151 INDEX 01 00:00:00FILE "03. So What.wav" WAVE TRACK 03 AUDIO TITLE "So What" PERFORMER "Miles Davis" ISRC USSM15900113 INDEX 01 00:00:00FILE "04. Taylor Made.wav" WAVE TRACK 04 AUDIO TITLE "Taylor Made" PERFORMER "Miles Davis" ISRC US4DG1600152 INDEX 01 00:00:00FILE "05. Dialogue ''Listen, You Talk Too Goddam Much...''.wav" WAVE TRACK 05 AUDIO TITLE "Dialogue ''Listen, You Talk Too Goddam Much...''" PERFORMER "Miles Davis" ISRC US4DG1600153 INDEX 01 00:00:00FILE "06. Solea (Excerpt).wav" WAVE TRACK 06 AUDIO TITLE "Solea (Excerpt)" PERFORMER "Miles Davis" ISRC USSM11600385 INDEX 01 00:00:00FILE "07. Seven Steps to Heaven (Edit).wav" WAVE TRACK 07 AUDIO TITLE "Seven Steps to Heaven (Edit)" PERFORMER "Miles Davis" ISRC USSM11600386 INDEX 01 00:00:00FILE "08. Dialogue ''If You Gonna Tell A Story...''.wav" WAVE TRACK 08 AUDIO TITLE "Dialogue ''If You Gonna Tell A Story...''" PERFORMER "Miles Davis" ISRC US4DG1600154 INDEX 01 00:00:00FILE "09. Nefertiti (Edit).wav" WAVE TRACK 09 AUDIO TITLE "Nefertiti (Edit)" PERFORMER "Miles Davis" ISRC USSM11600387 INDEX 01 00:00:00FILE "10. Frelon Brun.wav" WAVE TRACK 10 AUDIO TITLE "Frelon Brun" PERFORMER "Miles Davis" ISRC USSM16800363 INDEX 01 00:00:00FILE "11. Dialogue ''Sometimes You Have These Thoughts...''.wav" WAVE TRACK 11 AUDIO TITLE "Dialogue ''Sometimes You Have These Thoughts...''" PERFORMER "Miles Davis" ISRC US4DG1600155 INDEX 01 00:00:00FILE "12. Duran (Take 6) (Edit).wav" WAVE TRACK 12 AUDIO TITLE "Duran (Take 6) (Edit)" PERFORMER "Miles Davis" ISRC USSM11600388 INDEX 01 00:00:00FILE "13. Dialogue ''You Own My Music...''.wav" WAVE TRACK 13 AUDIO TITLE "Dialogue ''You Own My Music...''" PERFORMER "Miles Davis" ISRC US4DG1600156 INDEX 01 00:00:00FILE "14. Go Ahead John (Part Two C).wav" WAVE TRACK 14 AUDIO TITLE "Go Ahead John (Part Two C)" PERFORMER "Miles Davis" ISRC USSM10303443 INDEX 01 00:00:00FILE "15. Black Satin (Edit).wav" WAVE TRACK 15 AUDIO TITLE "Black Satin (Edit)" PERFORMER "Miles Davis" ISRC USSM11600390 INDEX 01 00:00:00FILE "16. Dialogue ''Be Musical About This Shit...''.wav" WAVE TRACK 16 AUDIO TITLE "Dialogue ''Be Musical About This Shit...''" PERFORMER "Miles Davis" ISRC US4DG1600157 INDEX 01 00:00:00FILE "17. Prelude #II.wav" WAVE TRACK 17 AUDIO TITLE "Prelude #II" PERFORMER "Miles Davis" ISRC USSM11601175 INDEX 01 00:00:00FILE "18. Dialogue ''Y'all Listening To Them...''.wav" WAVE TRACK 18 AUDIO TITLE "Dialogue ''Y'all Listening To Them...''" PERFORMER "Miles Davis" ISRC US4DG1600158 INDEX 01 00:00:00FILE "19. Junior's Jam.wav" WAVE TRACK 19 AUDIO TITLE "Junior's Jam" PERFORMER "Miles Davis" ISRC US4DG1600159 INDEX 01 00:00:00FILE "20. Francessence.wav" WAVE TRACK 20 AUDIO TITLE "Francessence" PERFORMER "Miles Davis" ISRC US4DG1600160 INDEX 01 00:00:00FILE "21. Back Seat Betty (Excerpt).wav" WAVE TRACK 21 AUDIO TITLE "Back Seat Betty (Excerpt)" PERFORMER "Miles Davis" INDEX 01 00:00:00FILE "22. Dialogue ''I Don't Like The Word Jazz...''.wav" WAVE TRACK 22 AUDIO TITLE "Dialogue ''I Don't Like The Word Jazz...''" PERFORMER "Miles Davis" INDEX 01 00:00:00FILE "23. What's Wrong With That.wav" WAVE TRACK 23 AUDIO TITLE "What's Wrong With That" PERFORMER "Miles Davis" ISRC US4DG1600162 INDEX 01 00:00:00FILE "24. Gone 2015.wav" WAVE TRACK 24 AUDIO TITLE "Gone 2015" PERFORMER "Miles Davis" ISRC US4DG1600163 INDEX 01 00:00:00
AUDIOCHECKER v2.0 beta (build 457) - by Dester - opdester@freemail.hu~~~~~~~~~~~~~~~~~~~~~~~~~~~~~~~~~~-=== DO NOT EDIT THIS FILE! ===-

Path: ...\Miles Ahead - Original Motion Picture Soundtrack (2016) (EU) [CD][FLAC]

01 -=- 01. Miles Ahead.flac -=- CDDA (100%)02 -=- 02. Dialogue ''It Takes A Long Time...''.flac -=- CDDA (100%)03 -=- 03. So What.flac -=- CDDA (100%)04 -=- 04. Taylor Made.flac -=- CDDA (99%)05 -=- 05. Dialogue ''Listen, You Talk Too Goddam Much...''.flac -=- CDDA (100%)06 -=- 06. Solea (Excerpt).flac -=- CDDA (100%)07 -=- 07. Seven Steps to Heaven (Edit).flac -=- CDDA (100%)08 -=- 08. Dialogue ''If You Gonna Tell A Story...''.flac -=- CDDA (99%)09 -=- 09. Nefertiti (Edit).flac -=- CDDA (100%)10 -=- 10. Frelon Brun.flac -=- CDDA (100%)11 -=- 11. Dialogue ''Sometimes You Have These Thoughts...''.flac -=- CDDA (100%)12 -=- 12. Duran (Take 6) (Edit).flac -=- CDDA (100%)13 -=- 13. Dialogue ''You Own My Music...''.flac -=- CDDA (100%)14 -=- 14. Go Ahead John (Part Two C).flac -=- CDDA (100%)15 -=- 15. Black Satin (Edit).flac -=- CDDA (99%)16 -=- 16. Dialogue ''Be Musical About This Shit...''.flac -=- CDDA (99%)17 -=- 17. Prelude #II.flac -=- CDDA (100%)18 -=- 18. Dialogue ''Y'all Listening To Them...''.flac -=- CDDA (100%)19 -=- 19. Junior's Jam.flac -=- CDDA (43%)20 -=- 20. Francessence.flac -=- CDDA (100%)21 -=- 21. Back Seat Betty (Excerpt).flac -=- CDDA (99%)22 -=- 22. Dialogue ''I Don't Like The Word Jazz...''.flac -=- CDDA (99%)23 -=- 23. What's Wrong With That.flac -=- CDDA (42%)24 -=- 24. Gone 2015.flac -=- CDDA (100%)

Summary 94,96% CDDA

94938788


Трекер:  [ 30-Май-2016 14:30 ]

  

Скачать .torrent

Размер .torrent файла 13 KB


Размер: 529 MB
Хэш (hash) релиза: 0dc0343d1d00b2e777741791208679a71057bab5

Еще никто не оставлял запись к записи скачать торрент Убить трубача Miles Ahead . Будь первым!

!Обратная связь