Скачать через торрент Финальные истории Owarimonogatari бесплатно Аниме Все серии на русском torrent

Если у вас наблюдаются проблемы со скриншотами, переходом по ссылками, скачиванием торрентов - проблемы в блокировщике рекламы AdBlock. #хорошегоДня!


Статистика раздачи
Размер:  4.25 GB   |    Зарегистрирован:  1 год 3 месяца   |    .torrent скачан:  46 раз   |   
Раздают:  1  
   
Загрузка...
 
Автор Сообщение

Galfimbul

avatar Galfimbul


Финальные истории / Owarimonogatari / 終物語
Год выпуска: 2015
Страна: Япония
Жанр: приключения, мистика, комедия
Продолжительность: ТВ, 1 эп. 50 мин., 2-12 эп. по 24 мин.
Выпуск: c 04.10.2015 по 20.12.2015
Перевод:
<ol class="post-ul">
русские субтитры от Black Rock Team
переводчик: Dav-zero, редактор: akira K.
</ol>
Режиссер: Симбо Акиюки
Студия: SHAFT
Описание:
Коёми Арараги, выпускник частной школы Наоэцу, оказался после уроков заперт в пустом классе вместе с юной особой. Думаете, очередная «дева в беде»? Как бы ни так, веселые времена прошли, теперь вихрастый полувампир должен помочь самому себе, ибо запертая комната – его прошлое, что держит и не отпускает. Ну а проводником Коёми по лабиринтам минувшего станет загадочная Оги Осино – самозваная племянница старого гуру, милая и симпатичная девушка, которую, правда, даже в страшном сне не назовешь «смутным объектом желания»!

Арараги, безусловно, герой – но герои тоже совершают ошибки, иногда не сознавая того. Перед выпуском из школы и выходом в новую, взрослую, жизнь, где и спрос другой, судьба дает парню шанс развязать узлы и отдать прошлые долги. Бередить старое тяжко и мучительно – а кто говорил, что будет легко? Сюжетные нити грандиозной саги стягиваются к финалу, любимые персонажи занимают места для последней партии, новые загадки вырастают из старых тайн – а нас зовет в зрительный зал черноглазый Вергилий, помахивая своими длинными рукавами!
© Hollow, World Art
Информационные ссылки: AniDB || World Art || MAL
Качество: BDRip
Энкод: SudzuHaru
Тип релиза: без хардсаба, без линковки
Формат: mkv
Видео: x264 (Hi10p), 1280x720, ~3000 Kbps, 23.976 fps
Аудио JAP: Vorbis, 48000 Hz, 256Kbps, 2ch
01. Формула Оги
02. Загадка Содачи - Часть 1
03. Загадка Содачи - Часть 2
04. Потеря Содачи - Часть 1
05. Потеря Содачи - Часть 2
06. Потеря Содачи - Часть 3
<a href="viewtopic.php?t=5184768" class="postLink">...5184768</a>
<a href="viewtopic.php?t=5091081" class="postLink">...5091081</a>
- BDRip, 720p
<a href="viewtopic.php?t=5231694" class="postLink">...5231694</a>
- 720p
GeneralUnique ID : 303102530146592095059286308476184287855 (0xE4076C84E646961E515DE5051C91DA6F)Complete name : Z:\uploads\Owarimonogatari [BD] [720p]\[SudzuHaru] Owarimonogatari 01 (Part 1) [BDrip 1280x720 x264 Vorbis].mkvFormat : MatroskaFormat version : Version 4 / Version 2File size : 641 MiBDuration : 27mn 12sOverall bit rate mode : VariableOverall bit rate : 3 295 KbpsEncoded date : UTC 2016-05-24 09:35:07Writing application : mkvmerge v9.1.0 ('Little Earthquakes') 64bitWriting library : libebml v1.3.3 + libmatroska v1.4.4

VideoID : 1Format : AVCFormat/Info : Advanced Video CodecFormat profile : High 10@L5Format settings, CABAC : YesFormat settings, ReFrames : 11 framesCodec ID : V_MPEG4/ISO/AVCDuration : 27mn 12sBit rate : 3 050 KbpsWidth : 1 280 pixelsHeight : 720 pixelsDisplay aspect ratio : 16:9Frame rate mode : ConstantFrame rate : 23.976 (24000/1001) fpsColor space : YUVChroma subsampling : 4:2:0Bit depth : 10 bitsScan type : ProgressiveBits/(Pixel*Frame) : 0.138Stream size : 594 MiB (93%)Writing library : x264 core 148 r2643 5c65704Encoding settings : cabac=1 / ref=11 / deblock=1:-2:-2 / analyse=0x3:0x113 / me=umh / subme=9 / psy=1 / psy_rd=0.90:0.00 / mixed_ref=1 / me_range=24 / chroma_me=1 / trellis=2 / 8x8dct=1 / cqm=0 / deadzone=21,11 / fast_pskip=0 / chroma_qp_offset=-2 / threads=12 / lookahead_threads=2 / sliced_threads=0 / nr=0 / decimate=0 / interlaced=0 / bluray_compat=0 / constrained_intra=0 / bframes=8 / b_pyramid=2 / b_adapt=2 / b_bias=0 / direct=1 / weightb=1 / open_gop=0 / weightp=2 / keyint=250 / keyint_min=23 / scenecut=40 / intra_refresh=0 / rc=crf / mbtree=0 / crf=15.0 / qcomp=0.70 / qpmin=0 / qpmax=40 / qpstep=4 / ip_ratio=1.40 / pb_ratio=1.30 / aq=1:0.90Language : JapaneseDefault : YesForced : No

AudioID : 2Format : VorbisFormat settings, Floor : 1Codec ID : A_VORBISDuration : 27mn 12sBit rate mode : VariableBit rate : 256 KbpsChannel(s) : 2 channelsSampling rate : 48.0 KHzFrame rate : 95.028 fps (505 spf)Compression mode : LossyStream size : 47.2 MiB (7%)Writing application : Lavc57.24.102 libvorbisWriting library : Lavf57.25.100Language : JapaneseDefault : YesForced : No


Трекер:  [ 29-Май-2016 23:00 ]

  

Скачать .torrent

Размер .torrent файла 343 KB


Размер: 4.25 GB
Хэш (hash) релиза: e3dbde65ece2c1c440f1eddfdeeda9c5f1e28996
Подписка на обновления:

Еще никто не оставлял запись к записи скачать торрент Финальные истории Owarimonogatari . Будь первым!

!Обратная связь