Скачать через торрент Я стал образцом простолюдина в школе благородных девиц Ore ga Ojou-sama Gakkou ni "Shomin Sample" Toshite Gets-sareta Ken бесплатно Аниме Все серии на русском torrent

Если у вас наблюдаются проблемы со скриншотами, переходом по ссылками, скачиванием торрентов - проблемы в блокировщике рекламы AdBlock. #хорошегоДня!


Статистика раздачи
Размер:  12.41 GB   |    Зарегистрирован:  1 год 3 месяца   |    .torrent скачан:  63 раза   |   
Раздают:  1  
   
Загрузка...
 
Автор Сообщение

Galfimbul

avatar Galfimbul



Страна: Япония
Год выпуска: 2015
Жанр: комедия, этти
Продолжительность: ТВ (12 эп.), по 25 мин. + спэшлы (6 эп.), по 3-4 мин.
Режиссер: Дзимбо Масато
Студия:
Перевод:
<ol class="post-ul">
русские субтитры от Dreamers Team & Komugi-chan & Gerale (полные) | .ass, внешние
редакторы: Komugi-chan (1-3), Ryuji (4-12); переводчик: Gerale; перевод песен: Komugi-chan
</ol>
Описание: Женская школа Сэйкайн воспитывает дочерей японской элиты, да вот беда – жизнь и обучение там застряли в галантной эпохе Тайсё. Утонченные выпускницы не могут адаптироваться в реальности, полной непонятной техники и грубых невежд. Решение нашлось быстро – старшеклассника Кимито Кагурадзаку взяли под белы руки, привезли и объяснили, что отныне он – образец простолюдина, живая модель, на которой будут тренироваться местные «принцессы». За девичью честь похитители не боятся – ведь, по их данным, Кимито возбуждают только голые торсы накачанных мужиков!

Бедняга не стал объяснять новым хозяевам, что его жестоко оболгала подруга детства – жить-то хочется! Что ж, семье заплачено, вещи доставлены – пора расслабиться и получать удовольствие, тем более что девушки из высшего общества вовсе не агрессивны, а милы и наивны, как дети. И проблемы у них детские – Айке хочется всеобщего внимания, Рэйко пытается быть безупречной, Карэн желает фамильным мечом защититься от пугающего мира, а гениальная Хакуа в жизни беспомощна, как пятилетний малыш. Что простой и честный парень может натворить в подобном цветнике – вы уже догадались!
© Hollow, World Art
Информационные ссылки: AniDB || World Art || MAL
Качество: BDRip
Энкод: Beatrice-Raws (Vladdrako & DJATOM)
Тип видео: без хардсаба, без линковки
Формат видео: MKV
Видео: x264, 10 bits, 1920x1080 (16:9), 23.976 fps, ~5400 Kbps
Аудио JAP: FLAC, 48000Hz, 2ch, ~1450 Kbps
Общее
Уникальный идентификатор: 198319343821971347090457917760492110068 (0x9532EA91719CC3769CE0697BF98180F4)
Полное имя: C:\Раздачи\Shomin Sample [BDRip] [1080p]\[Beatrice-Raws] Shomin Sample 01 [BDRip 1920x1080 x264 FLAC].mkv
Формат: Matroska
Версия формата: Version 4 / Version 2
Размер файла: 1,13 Гбайт
Продолжительность: 23 м.
Режим общего битрейта: Переменный
Общий поток: 6826 Кбит/сек
Дата кодирования: UTC 2016-05-27 13:21:17
Программа кодирования: mkvmerge v9.1.0 ('Little Earthquakes') 64bit
Библиотека кодирования: libebml v1.3.3 + libmatroska v1.4.4

Видео
Идентификатор: 1
Формат: AVC
Формат/Информация: Advanced Video Codec
Профиль формата: High 10@L5
Параметр CABAC формата: Да
Параметр ReFrames формата: 4 кадра
Идентификатор кодека: V_MPEG4/ISO/AVC
Продолжительность: 23 м.
Битрейт: 5373 Кбит/сек
Ширина: 1920 пикселей
Высота: 1080 пикселей
Соотношение сторон: 16:9
Режим частоты кадров: Постоянный
Частота кадров: 23,976 (24000/1001) кадра/сек
Цветовое пространство: YUV
Субдискретизация насыщенности: 4:2:0
Битовая глубина: 10 бит
Тип развёртки: Прогрессивная
Бит/(Пиксели*Кадры): 0.108
Размер потока: 911 Мбайт (79%)
Заголовок: BDRip by Vladdrako & DJATOM
Библиотека кодирования: x264 core 148 r2597M e86f3a1 (DJATOM's build)
Настройки программы: cabac=1 / ref=4 / deblock=1:1:-1 / analyse=0x3:0x113 / me=umh / subme=9 / psy=1 / fade_compensate=0.00 / psy_rd=1.00:0.00 / mixed_ref=1 / me_range=32 / chroma_me=1 / trellis=2 / 8x8dct=1 / cqm=0 / deadzone=21,11 / fast_pskip=1 / chroma_qp_offset=-2 / threads=9 / lookahead_threads=1 / sliced_threads=0 / nr=0 / decimate=1 / interlaced=0 / bluray_compat=0 / constrained_intra=0 / bframes=9 / b_pyramid=2 / b_adapt=2 / b_bias=0 / direct=1 / weightb=1 / open_gop=0 / weightp=2 / keyint=250 / keyint_min=23 / scenecut=40 / intra_refresh=0 / rc=crf / mbtree=0 / crf=15.0000 / qcomp=0.72 / qpmin=0 / qpmax=81 / qpstep=4 / ip_ratio=1.40 / pb_ratio=1.30 / aq=1:0.85
Язык: Japanese
Default: Да
Forced: Нет

Аудио
Идентификатор: 2
Формат: FLAC
Формат/Информация: Free Lossless Audio Codec
Идентификатор кодека: A_FLAC
Продолжительность: 23 м.
Вид битрейта: Переменный
Битрейт: 1451 Кбит/сек
Каналы: 2 канала
Расположение каналов: Front: L R
Частота: 48,0 КГц
Частота кадров: 11,719 кадров/сек (4096 spf)
Битовая глубина: 24 бит
Размер потока: 246 Мбайт (21%)
Заголовок: LPCM->FLAC
Библиотека кодирования: libFLAC 1.3.1 (UTC 2014-11-25)
Язык: Japanese
Default: Да
Forced: Нет

Меню
00:00:00.000: :Avant
00:00:47.047: :OP
00:02:17.011: :Part A
00:12:02.012: :Part B
00:20:40.072: :ED
00:22:10.037: :Part C
00:23:25.028: :Next
File: C:\Раздачи\Shomin Sample [BDRip] [1080p]\[Beatrice-Raws] Shomin Sample 01 [BDRip 1920x1080 x264 FLAC].mkv
Duration: 00:23:42 (1422.09)
Track #1: default video (BDRip by Vladdrako & DJATOM)
lang: jpn (2)
codc: V_MPEG4/ISO/AVC -> H264/AVC (22)
reso: 1920x1080 -> 16:9
fram: 23.976 fps
rate: 5373 kbps (5373.34)
dura: 00:23:42 (1422.05)
size: 910.89 MB (955141079)
Track #2: default audio (LPCM->FLAC)
lang: jpn -> Japanese (2)
codc: A_FLAC -> Other (15)
chan: 2 -> Stereo
samp: 48000 Hz
rate: 1451 kbps (1450.76)
dura: 00:23:42 (1422.08)
size: 245.94 MB (257887095)
Sizes: (check sanity)
disk: 1.13 GB (1213394281)
trac: 1.13 GB (1213028174) [based on track size]
bitr: 1.13 GB (1213021607) [based on bitrate]
tdif: 357.53 KB (366107) 0.03%
bdif: 363.94 KB (372673) 0.03%
01. Welcome, Commoner
02. Reiko Is Who We Wish to Be Like
03. It Was Like the Garden of Eden
04. The Tea Party Incident
05. Just Friends
06. Step Outside
07. The Tsun-Pure in Her Element
08. Aika-sama Has a Lot of Friends
09. Kagurazaka-sama Is Here
10. I`ve Been Curious About This for a While, but What Is Gets?


Special
[b]
<a href="viewtopic.php?t=5149649" class="postLink">...5149649</a>
<a href="viewtopic.php?t=5146706" class="postLink">...5146706</a>
- 1080p

<a href="viewtopic.php?t=5095536" class="postLink">...5095536</a>
- BDRip

<a href="viewtopic.php?t=5147363" class="postLink">...5147363</a>

- Лучшее качество видео
http://screenshotcomparison.com/comparison/174312
http://screenshotcomparison.com/comparison/174313


Трекер:  [ 29-Май-2016 23:00 ]

  

Скачать .torrent

Размер .torrent файла 67 KB


Размер: 12.41 GB
Хэш (hash) релиза: efea2f28fff84e2badc4cf7a4c96b8cedf586ca1
Подписка на обновления:

Торренты, похожие на Я стал образцом простолюдина в школе благородных девиц Ore ga Ojou-sama Gakkou ni "Shomin Sample" Toshite Gets-sareta Ken скачать торрент

Форум Название Автор Размер S L Добавлен
Аниме | HD Rips ·· Я стал образцом простолюдина в школе благородных девиц / Ore ga Ojou-sama Gakkou ni "Shomin Sample" Toshite Gets-sareta Ken (Дзимбо Масато) [TV+Special] [12+6 из 12+6] [Без хардсаба] [JAP+SUB] [2015 г., комедия, этти, BDRip] [1080p] Galfimbul 1788435880916.66 GB 0 0 1469789988

13:59

29-Июл-16

Аниме | HD Rips ·· Я стал образцом простолюдина в школе благородных девиц / Ore ga Ojou-sama Gakkou ni "Shomin Sample" Toshite Gets-sareta Ken (Дзимбо Масато) [TV+Special] [12+1-4,6 из 12+6] [Без хардсаба] [JAP+SUB] [2015 г., комедия, этти, BDRip] [1080p] Galfimbul 1767432003516.46 GB 0 0 1468074773

17:32

9-Июл-16

Аниме | HD Rips ·· Я стал образцом простолюдина в школе благородных девиц / Ore ga Ojou-sama Gakkou ni "Shomin Sample" Toshite Gets-sareta Ken [TV+Special] [01-02+1 из 12+6] [Без хардсаба] [JAP+SUB] [2015 г., комедия, этти, романтика, BDRip] [1080p] Galfimbul 27607419342.57 GB 0 0 1454045022

08:23

29-Янв-16

Аниме | HD Rips ·· Я стал образцом простолюдина в школе благородных девиц / Ore ga Ojou-sama Gakkou ni "Shomin Sample" Toshite Gets-sareta Ken (Дзимбо Масато) [TV] [01-02 из 12] [Без хардсаба] [JAP+SUB] [2015 г., комедия, этти, романтика, BDRip] [1080p] Galfimbul 26118248012.43 GB 0 0 1452323233

10:07

9-Янв-16

Аниме | HD Rips ·· Я стал образцом простолюдина в школе благородных девиц / Ore ga Ojou-sama Gakkou ni "Shomin Sample" Toshite Gets-sareta Ken (Дзимбо Масато) [TV] [01 из 12] [Без хардсаба] [JAP+SUB] [2015 г., комедия, этти, романтика, HDTVRip] [720p] Galfimbul 368908789352 MB 0 0 1444859106

00:45

15-Окт-15

Еще никто не оставлял запись к записи скачать торрент Я стал образцом простолюдина в школе благородных девиц Ore ga Ojou-sama Gakkou ni "Shomin Sample" Toshite Gets-sareta Ken . Будь первым!

!Обратная связь