Скачать через торрент История финала Owarimonogatari бесплатно Аниме Все серии на русском torrent

Если у вас наблюдаются проблемы со скриншотами, переходом по ссылками, скачиванием торрентов - проблемы в блокировщике рекламы AdBlock. #хорошегоДня!


Статистика раздачи
Размер:  9.5 GB   |    Зарегистрирован:  1 год 3 месяца   |    .torrent скачан:  58 раз   |   
Раздают:  1  
   
Загрузка...
 
Автор Сообщение

Galfimbul

avatar Galfimbul



Год выпуска: 2015 | Страна: Япония
Жанр: приключения, мистика
Продолжительность: тв-сериал, 1-ый эп. 50 мин; 11 эп. по 25 мин.
Перевод:
▪ субтитры от Black Rock Team [1-7]
переводчик: Dav-zero, редактор: akira K.
▪ субтитры от Sovetromantica
переводчик: EfimT, Frales, WMM, редактор: Xander
Режиссер: Симбо Акиюки
Студия:
AniDB World Art MAL
Качество: BDRip | Рип: DHR-Raws
Тип релиза: без хардсаба, без линковки
Формат видео: MKV
Видео: x264, Hi10P, 1920x1080, 23.976fps, 3375 Kbps
Аудио JAP: FLAC, 48.0 kHz, 2ch, 673 Kbps
Аудио JAP: Opus, 48.0 kHz, 2ch, 128 Kbps [Commentary]
Описание: Школьная жизнь Коёми Арараги подходит к своему завершению. Однако, остаётся ещё множество загадок и проблем, ждущих своего часа. Перед своим выпускным ему придётся решить множество вопросов. Как закончить школу и выжить? Кто такая эта странная Оги Оcино? Что же такого произошло в средней школе, и почему его бывшая одноклассница Содати испытывает к Арараги такую жгучую ненависть? Чтобы увидеть своё будущее, Арараги придётся изрядно покопаться в своём прошлом.
GeneralUnique ID : 240976253464462480492644780724635521941 (0xB54A56971DABBB6581B545CC901B5395)Complete name : c:\_my\prod\[DHR-Raws] Owarimonogatari [BDRip] [1080p]\[DHR-Raws][Owarimonogatari][01Part1][BDRip][1080P][AVC_P10_FLAC_OPUS].mkvFormat : MatroskaFormat version : Version 4 / Version 2File size : 813 MiBDuration : 27mn 12sOverall bit rate mode : VariableOverall bit rate : 4 179 KbpsEncoded date : UTC 2016-05-25 21:47:34Writing application : mkvmerge v9.1.0 ('Little Earthquakes') 64bitWriting library : libebml v1.3.3 + libmatroska v1.4.4

VideoID : 1Format : AVCFormat/Info : Advanced Video CodecFormat profile : High 10@L5Format settings, CABAC : YesFormat settings, ReFrames : 6 framesCodec ID : V_MPEG4/ISO/AVCDuration : 27mn 12sBit rate : 3 375 KbpsWidth : 1 920 pixelsHeight : 1 080 pixelsDisplay aspect ratio : 16:9Frame rate mode : ConstantFrame rate : 23.976 (24000/1001) fpsColor space : YUVChroma subsampling : 4:2:0Bit depth : 10 bitsScan type : ProgressiveBits/(Pixel*Frame) : 0.068Stream size : 657 MiB (81%)Title : DHRWriting library : x264 core 148 r2692+46 0f71ed5 7mod [10-bit@all X86_64]Default : YesForced : NoColor range : LimitedMatrix coefficients : BT.709

Audio #1ID : 2Format : FLACFormat/Info : Free Lossless Audio CodecCodec ID : A_FLACDuration : 27mn 12sBit rate mode : VariableBit rate : 673 KbpsChannel(s) : 2 channelsChannel positions : Front: L RSampling rate : 48.0 KHzFrame rate : 11.719 fps (4096 spf)Bit depth : 16 bitsDetected bit depth : 24 bitsStream size : 131 MiB (16%)Writing library : libFLAC 1.3.1 (UTC 2014-11-25)Default : YesForced : No

Audio #2ID : 3Format : OpusCodec ID : A_OPUSDuration : 27mn 12sBit rate : 128 KbpsChannel(s) : 2 channelsChannel positions : Front: L RSampling rate : 48.0 KHzFrame rate : 50.001 fps (960 spf)Compression mode : LossyStream size : 25.0 MiB (3%)Title : CommentaryLanguage : JapaneseDefault : NoForced : No

Menu00:00:00.000 : :Chapter 0100:02:02.997 : :Chapter 0200:03:33.004 : :Chapter 0300:03:36.007 : :Chapter 0400:05:38.546 : :Chapter 0500:06:38.731 : :Chapter 0600:08:46.192 : :Chapter 0700:17:47.024 : :Chapter 0800:18:40.160 : :Chapter 0900:20:04.786 : :Chapter 1000:21:56.356 : :Chapter 1100:23:05.801 : :Chapter 1200:23:49.886 : :Chapter 1300:25:40.038 : :Chapter 14
File: c:\_my\prod\[DHR-Raws] Owarimonogatari [BDRip] [1080p]\[DHR-Raws][Owarimonogatari][01Part1][BDRip][1080P][AVC_P10_FLAC_OPUS].mkv Size: 852889555 Date: 2016.05.25 21.47.34.0000 Duration: 00:27:12 WritingApp: mkvmerge v9.1.0 ('Little Earthquakes') 64bit MuxingApp: libebml v1.3.3 + libmatroska v1.4.4 Extension: mkv FileExtension: mkv SegmentUId: 97564ab5-ab1d-65bb-81b5-45cc901b5395 #Videostream Index: 0 Size: 688832704 Bitrate: 3375413 Duration: 00:27:12 Title: DHR ColorBitDepth: 10 Language: und CodecId: V_MPEG4/ISO/AVC CodecIdAlt: V_MPEG4/ISO/AVC Id: 1331237582538882448 FrameCount: 39144 FrameRate: 23.976 VFR: 23.977 MaxFrameRate: 24.390 MinFrameRate: 23.810 Width: 1920 Height: 1080 DAR: 1.778 EncodeLibrary: x264 - core 148 r2692+46 0f71ed5 7mod [10-bit@all X86_64] TrackNumber: 1 #Audiostream Index: 0 Size: 137343764 Bitrate: 673008 Duration: 00:27:12 Language: und CodecId: A_FLAC CodecIdAlt: A_FLAC Id: 12747205017179084681 SampleCount: 78364656 SamplingRate: 48000 ChannelCount: 2 EncodeLibrary: reference libFLAC 1.3.1 20141125 BitrateMode: VBR TrackNumber: 2 #Audiostream Index: 1 Size: 26164848 Bitrate: 128209 Duration: 00:27:12 Title: Commentary Language: eng CodecId: A_OPUS CodecIdAlt: A_OPUS Id: 7598109134406536615 SampleCount: 78366816 SamplingRate: 48000 ChannelCount: 2 TrackNumber: 3
<a href="viewtopic.php?t=5214477" class="postLink">...5214477</a>
<a href="viewtopic.php?t=5184768" class="postLink">...5184768</a>
<a href="viewtopic.php?t=5231655" class="postLink">...5231655</a>
<a href="viewtopic.php?t=5096729" class="postLink">...5096729</a>
<a href="viewtopic.php?t=5091081" class="postLink">...5091081</a>
- BDRip 1080p
01. Формула Оги
02. Загадка Содачи - Часть 1
03. Загадка Содачи - Часть 2
04. Потеря Содачи - Часть 1
05. Потеря Содачи - Часть 2
06. Потеря Содачи - Часть 3
07. Доспехи Шинобу - Часть 1
08. Доспехи Шинобу - Часть 2
09. Доспехи Шинобу - Часть 3
10. Доспехи Шинобу - Часть 4
11. Доспехи Шинобу - Часть 5
12. Доспехи Шинобу - Часть 6


Трекер:  [ 26-Май-2016 02:30 ]

  

Скачать .torrent

Размер .torrent файла 31 KB


Размер: 9.5 GB
Хэш (hash) релиза: 03b7eecc958af71bd12d80fc5806d176ec763ac6
Подписка на обновления:

Торренты, похожие на История финала Owarimonogatari скачать торрент

Форум Название Автор Размер S L Добавлен
Аниме | Rips ·· Истории последствий / История финала / Owarimonogatari [TV] [13 из 13] [Без хардсаба] [RUS(ext), JAP, SUB] [2015 г., Приключения, Комедия, Мистика, BDRip] [720p] Galfimbul 54093666355.04 GB 0 0 1462021481

16:04

30-Апр-16

Аниме | Rips ·· Истории последствий / История финала / Owarimonogatari [TV] [01-04 из 13] [Без хардсаба] [RUS(ext), JAP, SUB] [2015 г., Приключения, Комедия, Мистика, BDRip] [720p] Galfimbul 22273154862.07 GB 0 0 1461519997

20:46

24-Апр-16

Аниме | Rips ·· Истории последствий / История финала / Owarimonogatari (Симбо Акиюки) [TV] [01 из 12] [Без хардсаба] [RUS(int), JAP] [2015 г., приключения, мистика, HDTVRip] [720p] Galfimbul 605771564578 MB 0 0 1444858666

00:37

15-Окт-15

Аниме | HD Rips ·· История финала / Owarimonogatari [TV] [12 из 12] [Без хардсаба] [JAP+SUB] [2015 г., приключения, мистика, BDRip] [1080p] Galfimbul 1426312694113.28 GB 0 0 1471118718

23:05

13-Авг-16

Аниме | HD Rips ·· История финала / Owarimonogatari (Симбо Акиюки) [TV] [12 из 12] [без хардсаба] [JAP+SUB] [2015 г., приключения, мистика, BDRemux] [1080p] Galfimbul 8758823309581.57 GB 0 0 1463956303

01:31

23-Май-16

Аниме | HD Rips ·· История финала / Owarimonogatari (Симбо Акиюки) [TV] [1 из 12] [без хардсаба] [JAP+SUB] [2015 г., приключения, мистика, BDRemux] [1080p] Galfimbul 1477036702113.76 GB 0 0 1457365423

18:43

7-Мар-16

Аниме | HD Rips ·· История финала / Owarimonogatari [TV] [1-4 из 12] [Без хардсаба] [JAP, SUB] [2015 г., приключения, мистика, WEBRip] [1080p] Galfimbul 34954653783.26 GB 0 0 1446412670

00:17

2-Ноя-15

Аниме | HD Rips ·· История финала (ТВ-2) / Owarimonogatari [Special] [1-2 из 7] [Без хардсаба] [JAP+SUB] [2017, приключения, мистика, WEBRip] [1080p] Galfimbul 1042287048994 MB 0 0 1502667086

02:31

14-Авг-17

Еще никто не оставлял запись к записи скачать торрент История финала Owarimonogatari . Будь первым!

!Обратная связь