Скачать через торрент Оружейная школа бесплатно Аниме Все серии на русском torrent

Если у вас наблюдаются проблемы со скриншотами, переходом по ссылками, скачиванием торрентов - проблемы в блокировщике рекламы AdBlock. #хорошегоДня!


Статистика раздачи
Размер:  6.37 GB   |    Зарегистрирован:  1 год 3 месяца   |    .torrent скачан:  45 раз   |   
Раздают:  1  
   
Загрузка...
 
Автор Сообщение

Galfimbul

avatar Galfimbul


Оружейная школа (ОВА) / Upotte!!: Miatte Waratte

Год выпуска: 2012
Страна: Япония
Жанр: комедия, этти, школа
Тип: OVA
Продолжительность: 1 эп. 26 мин.
[Озвучка:
<ol class="post-ul">
Одноголосая (жен) от Lizaveta (SHIZA)
</ol>

Русские субтитры: есть (отдельным файлом, формат .ass)
Перевод:
<ol class="post-ul">
Uncle_Ho
</ol>
Хардсаб: Нет
Режиссер: Като Такао
Студия: Xebec

Описание: OVA-дополнение к оригинальному сериалу, вышедшее вместе с 4-м томом манги. Дружная компания девочек-винтовочек отправляется на природу...

Качество: Blu-Ray Remux
Формат: MKV
Видео кодек: AVC
Аудио кодек: FLAC
Видео: 1920x1080 (16:9) 23,976 fps ~32,8 Mbps 8bit
Аудио:
Jap FLAC, 48000Hz, ~729 kbps 2ch
RUS (ext) AAC, 48000Hz, ~192 Kbps, 2ch

Чаптеры присутствуют.
Общее
Уникальный идентификатор : 185121600100879303119700543053162998490 (0x8B451F908131F8C5967DC1EDB781EADA)
Полное имя : Z:\Anime Release - working\Upotte!!\OAD\Episodes\[anti-raws]Upotte!! OVA[BDRemux].mkv
Формат : Matroska
Версия формата : Version 4 / Version 2
Размер файла : 6,33 Гбайт
Продолжительность : 26 м.
Режим общего битрейта : Переменный
Общий поток : 34,4 Мбит/сек
Дата кодирования : UTC 2016-05-22 18:14:19
Программа кодирования : mkvmerge v9.1.0 ('Little Earthquakes') 64bit
Библиотека кодирования : libebml v1.3.3 + libmatroska v1.4.4

Видео
Идентификатор : 2
Формат : AVC
Формат/Информация : Advanced Video Codec
Профиль формата : High@L4.1
Параметр CABAC формата : Да
Параметр ReFrames формата : 2 кадра
Идентификатор кодека : V_MPEG4/ISO/AVC
Продолжительность : 26 м.
Вид битрейта : Переменный
Битрейт : 33,6 Мбит/сек
Ширина : 1920 пикселей
Высота : 1080 пикселей
Соотношение сторон : 16:9
Режим частоты кадров : Постоянный
Частота кадров : 23,976 (24000/1001) кадра/сек
Цветовое пространство : YUV
Субдискретизация насыщенности : 4:2:0
Битовая глубина : 8 бит
Тип развёртки : Прогрессивная
Бит/(Пиксели*Кадры) : 0.676
Размер потока : 6,20 Гбайт (98%)
Default : Нет
Forced : Нет

Аудио
Идентификатор : 1
Формат : FLAC
Формат/Информация : Free Lossless Audio Codec
Идентификатор кодека : A_FLAC
Продолжительность : 26 м.
Вид битрейта : Переменный
Битрейт : 729 Кбит/сек
Каналы : 2 канала
Расположение каналов : Front: L R
Частота : 48,0 КГц
Частота кадров : 11,719 кадров/сек (4096 spf)
Битовая глубина : 16 бит
Размер потока : 138 Мбайт (2%)
Библиотека кодирования : libFLAC 1.2.1 (UTC 2007-09-17)
Язык : Japanese
Default : Да
Forced : Нет

Меню
00:00:00.000 : en:00:00:00.000
00:01:31.049 : en:00:01:31.049
00:24:52.449 : en:00:24:52.449
<a href="viewtopic.php?t=4339534" class="postLink">...4339534</a>
<a href="viewtopic.php?t=4338318" class="postLink">...4338318</a>
--BDRip

Эта раздача - BDRemux


Трекер:  [ 23-Май-2016 21:00 ]

  

Скачать .torrent

Размер .torrent файла 8 KB


Размер: 6.37 GB
Хэш (hash) релиза: fd39e85d9a829c6bfac2c1f5157eb812fba4e77d
Подписка на обновления:

Торренты, похожие на Оружейная школа скачать торрент

Форум Название Автор Размер S L Добавлен
Аниме | HD Rips ·· Оружейная школа (ТВ) / Upotte!! (Като Такао) [ONA] [10 из 10] [без хардсаба] [RUS(ext), JAP+SUB] [2012 г., комедия, этти, школа, BDRemux] [1080p] Galfimbul 6360739614359.24 GB 0 0 1463943964

22:06

22-Май-16

Аниме | HD Rips ·· Оружейная школа / Upotte!! (Като Такао) [ONA] [без хардсаба] [10 из 10] [JAP+SUB] & [3 из 10] [RUS(ext)] [2012 г., повседневность, школа, BDRip] [720p] L 76773254257.15 GB 0 0 1364714146

10:15

31-Мар-13

Аниме | HD Rips ·· Оружейная школа ОВА / Upotte!!: Miatte Waratte [OVA] [1 из 1] [Без хардсаба] [JAP, SUB] [2012 г., комедия, этти, школа, BDRip] [1080p] Galfimbul 18465744031.72 GB 0 0 1359989400

17:50

4-Фев-13

Аниме | HD Rips ·· Оружейная школа / Upotte!! [ONA] [10 из 10] [Без хардсаба] [JAP, SUB] [2012 г., комедия, этти, школа, BDRip] [1080p] Galfimbul 1673140075115.58 GB 0 0 1359989400

17:50

4-Фев-13

Аниме | HD Rips ·· Оружейная школа (ТВ) / Upotte!! (Като Такао) [ONA] [10 из 10] [без хардсаба] [RUS(ext), JAP+SUB] [2012 г., комедия, этти, BDRip] [720p] Galfimbul 78485729337.31 GB 0 0 1448789412

12:30

29-Ноя-15

Аниме | HD Rips ·· Оружейная школа / Upotte!! / Шмальнём! [ONA] [10 из 10] [Без хардсаба] [JAP, SUB] [2012 г., приключения, HDTVRip] [720p] L 24891316982.32 GB 0 0 1364714136

10:15

31-Мар-13

Еще никто не оставлял запись к записи скачать торрент Оружейная школа . Будь первым!

!Обратная связь