Скачать через торрент Сердцу хочется петь. Kokoro ga Sakebitagatterunda. бесплатно Аниме Все серии на русском torrent

Если у вас наблюдаются проблемы со скриншотами, переходом по ссылками, скачиванием торрентов - проблемы в блокировщике рекламы AdBlock. #хорошегоДня!


Статистика раздачи
Размер:  32.18 GB   |    Зарегистрирован:  1 год 4 месяца   |    .torrent скачан:  39 раз   |   
Раздают:  1  
   
Загрузка...
 
Автор Сообщение

Galfimbul

avatar Galfimbul



Год выпуска: 2015 | Страна: Япония
Жанр: драма, романтика, школа
Продолжительность: Movie, 120 мин.
Перевод: субтитры от Timecraft
переводчик Seiya Loveless, редактор: AleX_MytH, перевод песен: Nachtwandler, oформление: Surokune, QC и тайминг: Endil
Озвучка: многоголосая от Eladiel, Zendos, Absurd, Ruri (Onibaku)
Режиссер: Нагай Тацуюки
Студия:
AniDB World Art MAL
Качество: BDRemux
Тип релиза: без хардсаба, без линковки
Формат видео: MKV
Видео: x264, 8 bit, 1920x1080, 23.976fps, 31.8 Mbps
Аудио JAP: FLAC, 48.0 kHz, 2.0 ch, 24 bit, 1208 Kbps
Аудио JAP (ext): FLAC, 48.0 kHz, 5.1 ch, 24 bit, 2795 Kbps
Аудио RUS (ext): FLAC, 48.0 kHz, 5.1 ch, 24 bit, 2753 Kbps
Описание: В детстве Джун разрушила семью своими неаккуратными словами. Девочка очень переживала, и однажды загадочное яйцо в шляпе застегнуло ей рот, чтобы больше не допустить подобного. С тех пор она общается только по SMS. Действие разворачивается уже в старшей школе. Класс Джун готовит мюзикл, и она хочет петь.
GeneralUnique ID : 200554507094572637011598388790506392277 (0x96E164A0345720E5B78296E411218AD5)Complete name : c:\_my\prod\Kokoro ga Sakebitagatterunda. [BDRemux]\Kokoro ga Sakebitagatterunda. [BDRemux].mkvFormat : MatroskaFormat version : Version 4 / Version 2File size : 30.4 GiBDuration : 1h 59mnOverall bit rate mode : VariableOverall bit rate : 36.5 MbpsMovie name : [Timecraft] Kokoro ga Sakebitagatterunda.Encoded date : UTC 2016-05-20 19:19:01Writing application : mkvmerge v9.1.0 ('Little Earthquakes') 64bitWriting library : libebml v1.3.3 + libmatroska v1.4.4Attachments : arial.ttf / arialbd.ttf / cambria.ttc / cambriab.ttf / Century Gothic (Bold Italic).TTF / Century Gothic (Bold).TTF / corbel.ttf / corbelb.ttf / DS Eraser Cyr (Regular).ttf / Mateur (Medium).ttf / PF Kids Pro Grade One (Regular).ttf / SansRoundedC (Regular).otf / VDS (Regular).ttf / verdanab.ttf / v_Billy The Flying Robot BB LC (Regular).ttf / Zhizn (Regular).otf

VideoID : 1Format : AVCFormat/Info : Advanced Video CodecFormat profile : High@L4.1Format settings, CABAC : YesFormat settings, ReFrames : 4 framesCodec ID : V_MPEG4/ISO/AVCDuration : 1h 59mnBit rate mode : VariableBit rate : 31.8 MbpsMaximum bit rate : 37.0 MbpsWidth : 1 920 pixelsHeight : 1 080 pixelsDisplay aspect ratio : 16:9Frame rate mode : ConstantFrame rate : 23.976 (24000/1001) fpsColor space : YUVChroma subsampling : 4:2:0Bit depth : 8 bitsScan type : ProgressiveBits/(Pixel*Frame) : 0.640Stream size : 26.5 GiB (87%)Default : YesForced : No

Audio #1ID : 2Format : FLACFormat/Info : Free Lossless Audio CodecCodec ID : A_FLACDuration : 1h 59mnBit rate mode : VariableBit rate : 1 208 KbpsChannel(s) : 2 channelsChannel positions : Front: L RSampling rate : 48.0 KHzFrame rate : 11.719 fps (4096 spf)Bit depth : 24 bitsStream size : 1.01 GiB (3%)Title : 2.0ch FLACWriting library : libFLAC 1.3.1 (UTC 2014-11-25)Language : JapaneseDefault : YesForced : No

Text #1ID : 4Format : PGSMuxing mode : zlibCodec ID : S_HDMV/PGSCodec ID/Info : Picture based subtitle format used on BDs/HD-DVDsDuration : 1h 54mnBit rate : 16.3 KbpsCount of elements : 3346Stream size : 13.4 MiB (0%)Title : jpnLanguage : JapaneseDefault : NoForced : No

Text #2ID : 5Format : PGSMuxing mode : zlibCodec ID : S_HDMV/PGSCodec ID/Info : Picture based subtitle format used on BDs/HD-DVDsDuration : 1h 54mnBit rate : 12.1 KbpsCount of elements : 3666Stream size : 9.89 MiB (0%)Title : engLanguage : EnglishDefault : NoForced : No

Menu00:00:00.000 : :Avant00:07:18.271 : :Part A00:15:35.560 : :Part B00:21:47.848 : :Part C00:26:22.080 : :Part D00:30:40.130 : :Part E00:35:54.402 : :Part F00:39:22.860 : :Part G00:49:22.960 : :Part H00:57:54.054 : :Part I01:06:36.367 : :Part J01:12:33.015 : :Part K01:21:58.372 : :Part L01:27:37.043 : :Part M01:35:06.284 : :Part N01:44:28.012 : :Part O01:54:41.291 : :ED
File: c:\_my\prod\Kokoro ga Sakebitagatterunda. [BDRemux]\Kokoro ga Sakebitagatterunda. [BDRemux].mkv Size: 32647129316 Date: 2016.05.20 19.19.01.0000 Duration: 01:59:17 WritingApp: mkvmerge v9.1.0 ('Little Earthquakes') 64bit MuxingApp: libebml v1.3.3 + libmatroska v1.4.4 Extension: mkv FileExtension: mkv SegmentUId: a064e196-5734-e520-b782-96e411218ad5 #Videostream Index: 0 Size: 28463073340 Bitrate: 31812940 Duration: 01:59:17 ColorBitDepth: 8 Language: und CodecId: V_MPEG4/ISO/AVC CodecIdAlt: V_MPEG4/ISO/AVC Id: 9145458821730747014 FrameCount: 171612 FrameRate: 23.976 VFR: 23.976 MaxFrameRate: 24.390 MinFrameRate: 23.810 Width: 1920 Height: 1080 DAR: 1.778 BitrateMode: VBR TrackNumber: 1 #Audiostream Index: 0 Size: 1081213732 Bitrate: 1208467 Duration: 01:59:17 Title: 2.0ch FLAC Language: jpn CodecId: A_FLAC CodecIdAlt: A_FLAC Id: 2068174015 SampleCount: 343564272 SamplingRate: 48000 ChannelCount: 2 EncodeLibrary: reference libFLAC 1.3.1 20141125 BitrateMode: VBR TrackNumber: 2 #Subtitlestream Index: 0 Size: 14014970 Bitrate: 16329 Duration: 01:54:26 Title: jpn Language: jpn CodecId: S_HDMV/PGS CodecIdAlt: S_HDMV/PGS Id: 8755800850215078532 TrackNumber: 4 #Subtitlestream Index: 1 Size: 10369353 Bitrate: 12089 Duration: 01:54:21 Title: eng Language: eng CodecId: S_HDMV/PGS CodecIdAlt: S_HDMV/PGS Id: 17756468673191605682 TrackNumber: 5
<a href="viewtopic.php?t=5221898" class="postLink">...5221898</a>
<a href="viewtopic.php?t=5221878" class="postLink">...5221878</a>
- BDRemux


Трекер:  [ 22-Май-2016 16:30 ]

  

Скачать .torrent

Размер .torrent файла 41 KB


Размер: 32.18 GB
Хэш (hash) релиза: decaf6ec78b1177bfe4d08709216de3f73e33941
Подписка на обновления:

Торренты, похожие на Сердцу хочется петь. Kokoro ga Sakebitagatterunda. скачать торрент

Форум Название Автор Размер S L Добавлен
Аниме | HD Rips ·· Сердцу хочется петь. / Kokoro ga Sakebitagatterunda. / Kokosake [Movie] [Без хардсаба] [RUS(ext),JAP+SUB] [2015 г., драма, романтика, школа, BDRip] [1080p] Galfimbul 38463223923.58 GB 0 0 1463928213

17:43

22-Май-16

Аниме | HD Rips ·· Сердцу хочется петь. / Kokoro ga Sakebitagatterunda. / Kokosake (Нагай Тацуюки) [Movie] [Без хардсаба] [RUS(ext), JAP+SUB] [2015 г., драма, романтика, школа, BDRip] [1080p] Galfimbul 89074558938.3 GB 0 0 1463854193

21:09

21-Май-16

Аниме | HD Rips ·· Сердцу хочется петь. / Kokoro ga Sakebitagatterunda. / Kokosake [Movie] [Без хардсаба] [RUS(ext),JAP+SUB] [2015 г., драма, романтика, школа, BDRip] [720p] Galfimbul 19142710081.78 GB 0 0 1463781845

01:04

21-Май-16

Аниме | HD Rips ·· Сердцу хочется петь. / Kokoro ga Sakebitagatterunda. / Kokosake [Movie] [Без хардсаба] [RUS(ext),JAP+SUB] [2015 г., драма, романтика, школа, BDRemux] [1080p] Galfimbul 3511327050032.7 GB 0 0 1463781838

01:03

21-Май-16

Аниме | HD Rips ·· Сердцу хочется петь. / Kokoro ga Sakebitagatterunda. / Kokosake [Movie] [Без хардсаба] [RUS(ext),JAP+SUB] [2015 г., драма, романтика, школа, BDRip] [720p] Galfimbul 19147534881.78 GB 0 0 1463778947

00:15

21-Май-16

Аниме | HD Rips ·· Сердцу хочется петь. / Kokoro ga Sakebitagatterunda. / Kokosake [Movie] [Без хардсаба] [JAP+SUB] [2015 г., драма, романтика, школа, BDRip] [720p] Galfimbul 17492706531.63 GB 0 0 1462678619

06:36

8-Май-16

Аниме | HD Rips ·· Сердцу хочется петь. / Kokoro ga Sakebitagatterunda. / Kokosake [Movie] [Без хардсаба] [JAP+SUB] [2015 г., драма, романтика, школа, BDRip] [1080p] Galfimbul 37566409163.5 GB 0 0 1462663612

02:26

8-Май-16

Аниме | HD Rips ·· Сердцу хочется петь. / Kokoro ga Sakebitagatterunda. / Kokosake [Movie] [Без хардсаба] [JAP+SUB] [2015 г., драма, романтика, школа, BDRip] [1080p] Galfimbul 37566412483.5 GB 0 0 1462660678

01:37

8-Май-16

Аниме | Rips ·· Песнь Сердца / Сердцу хочется петь / Kokosake / Kokoro ga Sakebitagatterunda. / The Anthem of the Heart [Movie] [Без хардсаба] [RUS(int), SUB] [2016 г., романтика, драма, школа, BDRip] [720p] Galfimbul 12801004211.19 GB 0 0 1465650807

16:13

11-Июн-16

Аниме | Rips ·· Сердцу хочется петь / Kokosake / Kokoro ga Sakebitagatterunda. / The Anthem of the Heart [Movie] [Без хардсаба] [RUS(int), JAP+SUB] [2015 г., романтика, драма, школа, BDRip] [HWP] Galfimbul 10590481381010 MB 0 0 1464964824

17:40

3-Июн-16

Еще никто не оставлял запись к записи скачать торрент Сердцу хочется петь. Kokoro ga Sakebitagatterunda. . Будь первым!

!Обратная связь