Скачать через торрент Драконий жемчуг Кай Dragon Ball Kai бесплатно Аниме Все серии на русском torrent

Если у вас наблюдаются проблемы со скриншотами, переходом по ссылками, скачиванием торрентов - проблемы в блокировщике рекламы AdBlock. #хорошегоДня!


Статистика раздачи
Размер:  2.06 GB   |    Зарегистрирован:  1 год 4 месяца   |    .torrent скачан:  60 раз   |   
Раздают:  1  
   
Загрузка...
 
Автор Сообщение

Galfimbul

avatar Galfimbul


Драконий жемчуг Кай / Dragon Ball Kai
Страна: Япония
Год выпуска: 2009 г.
Жанр: приключения, комедия, фэнтези, сёнэн
Тип: TV
Продолжительность: 98 эп, ~25 мин. серия
Режиссер: Новатари Ясухиро
Студия:
Описание: Действие аниме происходит через пять лет после свадьбы Гоку и Чичи (в 18-м томе манги). С тех пор у них родился сын, которого назвали Гохан. Начинается новая история с того, что на Землю с другой планеты прилетает таинственный воин. Он рассказывает Гоку, что является его старшим братом, и что, оказывается, Гоку тоже из внеземной расы воинов, из представителей которой сейчас в живых осталось только четверо.
Доп. информация: «Отреставрированная» версия ТВ-сериала Dragon Ball Z (1989-1996).
Если берёте субтитры, то не забывайте озвучивать и участников перевода.
Качество: BDRip
Тип релиза: Без хардсаба
Формат видео: MKV
Наличие линковки: Нет
Релиз/Автор рипа: tlacatlc6
Видео: V_MPEG4, 960x720, 2176 Кбит/сек, 23,976 кадра/сек, 8 бит
Аудио: A_AAC, 162 Кбит/сек, 48,0 КГц, 2 канала Язык Японский
Субтитры: ass, внешние Язык субтитров русский ; Перевод: Ramix (Рамикс); Редактура: mutagenb (мутаген бэ)
ОбщееУникальный идентификатор : 176073023374293982685111626403153417801 (0x84766E49AA2C0E6F8D639D3420D79649)Полное имя : M:\Trash\Anime\My_Sharing\Dragon Ball Kai (2009)\Dragon Ball Kai - 001.mkvФормат : MatroskaВерсия формата : Version 4 / Version 2Размер файла : 387 МбайтПродолжительность : 23 м.Общий поток : 2340 Кбит/секДата кодирования : UTC 2015-12-17 01:26:27Программа кодирования : mkvmerge v7.3.0 ('Nouages') 32bit built on Oct 22 2014 18:44:01Библиотека кодирования : libebml v1.3.0 + libmatroska v1.4.1

ВидеоИдентификатор : 1Формат : AVCФормат/Информация : Advanced Video CodecПрофиль формата : High@L4Параметр CABAC формата : ДаПараметр ReFrames формата : 4 кадраИдентификатор кодека : V_MPEG4/ISO/AVCПродолжительность : 23 м.Битрейт : 2176 Кбит/секШирина : 960 пикселейВысота : 720 пикселейСоотношение сторон : 4:3Режим частоты кадров : ПостоянныйЧастота кадров : 23,976 (24000/1001) кадра/секЦветовое пространство : YUVСубдискретизация насыщенности : 4:2:0Битовая глубина : 8 битТип развёртки : ПрогрессивнаяБит/(Пиксели*Кадры) : 0.131Размер потока : 360 Мбайт (93%)Библиотека кодирования : x264 core 142 r2491 24e4fedНастройки программы : opencl=1 / cabac=1 / ref=4 / deblock=1:0:0 / analyse=0x3:0x133 / me=umh / subme=9 / psy=1 / psy_rd=1.00:0.00 / mixed_ref=1 / me_range=24 / chroma_me=1 / trellis=0 / 8x8dct=1 / cqm=0 / deadzone=21,11 / fast_pskip=1 / chroma_qp_offset=-2 / threads=12 / lookahead_threads=2 / sliced_threads=0 / nr=0 / decimate=1 / interlaced=0 / bluray_compat=0 / constrained_intra=0 / bframes=8 / b_pyramid=2 / b_adapt=2 / b_bias=0 / direct=3 / weightb=1 / open_gop=0 / weightp=2 / keyint=250 / keyint_min=23 / scenecut=40 / intra_refresh=0 / rc_lookahead=60 / rc=crf / mbtree=1 / crf=18.5 / qcomp=0.60 / qpmin=0 / qpmax=69 / qpstep=4 / vbv_maxrate=25000 / vbv_bufsize=31250 / crf_max=0.0 / nal_hrd=none / filler=0 / ip_ratio=1.40 / aq=1:1.00Язык : EnglishDefault : ДаForced : НетЦветовой диапазон : LimitedОсновные цвета : BT.709Характеристики трансфера : BT.709Коэффициенты матрицы : BT.709

АудиоИдентификатор : 2Формат : AACФормат/Информация : Advanced Audio CodecПрофиль формата : LCИдентификатор кодека : A_AACПродолжительность : 23 м.Битрейт : 162 Кбит/секКаналы : 2 каналаРасположение каналов : Front: L RЧастота : 48,0 КГцЧастота кадров : 46,875 кадров/сек (1024 spf)Метод сжатия : С потерямиРазмер потока : 26,7 Мбайт (7%)Заголовок : Japanese AudioЯзык : JapaneseDefault : НетForced : Нет
01. Приближение битвы! Возвращение Сон Гоку!
02. Враг — брат Гоку?! Секрет могучих воинов-саянов!
03. Битва не на жизнь, а на смерть! Гоку и отчаянная атака Пикколо!
04. Пробежка Сона Гоку после смерти! Змеиный путь длиною в миллион километров!
05. Выживание в дикой местности! Пробуждение Гохана лунной ночью!
06. Вот и достигнута цель! Шуточное испытание уважаемого Кайо!
<a href="viewtopic.php?t=4652573" class="postLink">...4652573</a> - bdrip, альтернативный перевод
<a href="viewtopic.php?t=3529391" class="postLink">...3529391</a> - 720, альтернативный перевод
Внимание! Раздача ведётся путём добавления новых серий; при каждом добавлении создаётся новый торрент. Чтобы начать докачку новой серии, пользователям необходимо сделать следующее: (1) остановить скачивание, (2) удалить старый торрент у себя из клиента (старые серии удалять не надо), (3) скачать новый торрент и запустить его у себя в клиенте вместо старого, при этом указать клиенту путь в старую папку куда и должно происходить скачивание новых серий.
Ваш клиент при этом должен произвести хеширование (проверку) старой папки (если не производит сам - помогите ему сделать это), и будет докачивать только те серии которых у вас ещё нет. Старые серии при этом не удаляются, а продолжают раздаваться!
Если вы уже удалили старые серии, то предотвратить повторную закачку старых серий можно, убрав галочку в соответствующих местах при запуске нового торрента.
<a href="viewtopic.php?t=609808" class="postLink">Как закачать отдельный файл</a>


Трекер:  [ 18-Май-2016 00:30 ]

  

Скачать .torrent

Размер .torrent файла 22 KB


Размер: 2.06 GB
Хэш (hash) релиза: 964b2c5ec0f80613e7918db19f741d784f4d4283
Подписка на обновления:

Торренты, похожие на Драконий жемчуг Кай Dragon Ball Kai скачать торрент

Форум Название Автор Размер S L Добавлен
Аниме | HD Rips ·· Драконий жемчуг Кай / Dragon Ball Kai [TV] [1-8 из 98] [Без хардсаба] [JAP, SUB] [2009 г., приключения, комедия, фэнтези, сёнэн, BDRip] [720p] Galfimbul 29603305032.76 GB 0 0 1474231401

23:43

18-Сен-16

Аниме | HD Rips ·· Драконий жемчуг Кай / Dragon Ball Kai [TV] [1-7 из 98] [Без хардсаба] [JAP, SUB] [2009 г., приключения, комедия, фэнтези, сёнэн, BDRip] [720p] Galfimbul 25821350482.4 GB 0 0 1465332417

23:46

7-Июн-16

Аниме | HD Rips ·· Драконий жемчуг Кай / Dragon Ball Kai [TV] [1-5 из 98] [Без хардсаба] [JAP, SUB] [2009 г., приключения, комедия, фэнтези, сёнэн, BDRip] [720p] Galfimbul 18297805791.7 GB 0 0 1463007548

01:59

12-Май-16

Аниме | HD Rips ·· Драконий жемчуг Кай / Dragon Ball Kai [TV] [1 из 98] [Без хардсаба] [JAP, SUB] [2009 г., приключения, комедия, фэнтези, сёнэн, BDRip] [720p] Galfimbul 395112570377 MB 0 0 1438628741

22:05

3-Авг-15

Аниме | HD Rips ·· Драконий Жемчуг Кай / Dragon Ball Kai [1-87 из 98] [JAP+SUB][2009 г., приключения, комедия, фэнтези, сёнэн, BDRip 1080p] L 7197926109067.04 GB 0 0 1310616814

07:13

14-Июл-11

Аниме | HD Rips ·· Драконий Жемчуг Кай / Dragon Ball Kai [1-76 из 97] [JAP+SUB][2009 г., приключения, комедия, фэнтези, сёнэн, BDRip] [1080p] Galfimbul 6112381574856.93 GB 0 0 1303499196

22:06

22-Апр-11

Еще никто не оставлял запись к записи скачать торрент Драконий жемчуг Кай Dragon Ball Kai . Будь первым!

!Обратная связь