Скачать через торрент музыку Пришельцы 3: Взятие Бастилии Les Visiteurs: La Revolution бесплатно без регистрации torrent

Если у вас наблюдаются проблемы со скриншотами, переходом по ссылками, скачиванием торрентов - проблемы в блокировщике рекламы AdBlock. #хорошегоДня!


Статистика раздачи
Размер:  204 MB   |    Зарегистрирован:  1 год 4 месяца   |    .torrent скачан:  79 раз   |   
Раздают:  1  
   
Загрузка...
 
Автор Сообщение

Galfimbul

avatar Galfimbul


Пришельцы 3: Взятие Бастилии ● Les Visiteurs: La Révolution
ЖанрGenre: Score
КомпозиторComposer: Eric Lévi
Год выпуска дискаCD release: 2016
Год выпуска фильмаMovie release: 2016
Производитель дискаCD manufacturer: France
Издатель (лейбл)Label: Milan Music France
Номер по каталогуCatalog #: 399 826-2
АудиокодекCodec: FLAC (*.flac)
Тип рипаRip type: tracks+.cue
Битрейт аудиоBit rate: lossless
ПродолжительностьDuration: 00:36:19
ИсточникSource: собственный рип ● own rip
Наличие сканов в раздачeScans included: 600 dpi JPG
СсылкиLinks: Кинопоиск | IMDB | Wikipedia | SoundtrackCollector
MP3: <a href="viewtopic.php?t=5209658" class="postLink">(Score) Пришельцы 3: Взятие Бастилии / Les Visiteurs: La Revolution (by Eric Levi) - 2016, MP3 (tracks) 320 kbps</a>
Part 1: <a href="viewtopic.php?t=4916810" class="postLink">(Score) Пришельцы / Les visiteurs (by Eric Levi) - 1993, FLAC (tracks+.cue), lossless</a>
Part 2: <a href="viewtopic.php?t=4917310" class="postLink">(Score) Пришельцы 2: Коридоры времени / Les couloirs du temps: Les visiteurs II (by Eric Levi) - 1998, FLAC (tracks+.cue), lossless</a>
Just Visiting: <a href="viewtopic.php?t=5159996" class="postLink">(Score) Пришельцы в Америке / Just Visiting (by John Powell) - 2001, FLAC (tracks+.cue), lossless</a>
01. Enae volare mezzo (Electro Remix) [0:04:33.59]
02. Mélodie pour un Chevalier [0:02:23.07]
03. Voices from the Past [0:00:56.27]
04. Le Roi [0:01:01.01]
05. À moi la garde! [0:01:32.40]
06. Dies Irae [0:00:52.20] by Giuseppe Verdi
07. Adieu Gonzague [0:00:46.40]
08. Adagio in G Minor [0:02:45.07]
09. La tirade de Gonzague [0:01:34.68]
10. Conversation en Calèche [0:00:42.19]
11. Fuyons! [0:00:21.30]
12. Le Duc & la Guillotine [0:00:21.46]
13. La Mère de Dieu [0:02:02.58]
14. L'Évasion de Godefroy [0:00:40.32]
15. La Prière de Godefroy [0:00:35.62]
16. Le Règne de la Terreur [0:01:21.66]
17. Concerto pour Violon et Orchestre [0:00:30.14] by Felix Mendelssohn Bartholdy
18. C'est Diablerie [0:03:17.25]
19. Capitaine François [0:00:26.34]
20. Le Convoi et la Sorcière [0:00:54.32]
21. Your Father is Alive [0:00:14.40]
22. The Stolen Jewels [0:01:23.60]
23. Le Drapeau des Germains [0:00:36.21]
24. Les Montmirail en Danger [0:01:25.49]
25. Gonzague aux Anges [0:00:27.51]
26. Les Condamnés [0:00:17.23]
27. Chez l'Enchanteur [0:01:05.38]
28. Jacquouillet chez Gonzague [0:00:36.59]
29. Western in the Air [0:00:28.25]
30. Les Oubliettes [0:02:02.42]
Exact Audio Copy V1.1 from 23. June 2015

EAC extraction logfile from 16. April 2016, 15:20

Eric Lévi / Les Visiteurs: La Révolution

Used drive : PLEXTOR CD-R PX-230A Adapter: 1 ID: 0

Read mode : SecureUtilize accurate stream : YesDefeat audio cache : YesMake use of C2 pointers : No

Read offset correction : 738Overread into Lead-In and Lead-Out : NoFill up missing offset samples with silence : YesDelete leading and trailing silent blocks : NoNull samples used in CRC calculations : YesUsed interface : Native Win32 interface for Win NT & 2000Gap handling : Appended to previous track

Used output format : User Defined EncoderSelected bitrate : 1024 kBit/sQuality : HighAdd ID3 tag : NoCommand line compressor : C:\Program Files\Exact Audio Copy\Flac\flac.exeAdditional command line options : -6 -V -T "ARTIST=%artist%" -T "TITLE=%title%" -T "ALBUM=%albumtitle%" -T "DATE=%year%"-T "TRACKNUMBER=%tracknr%" -T "GENRE=%genre%" -T "COMMENT=%comment%" -T "ALBUMARTIST=%albuminterpret%" -T "COMPOSER=%composer%"-T "DISCNUMBER=%cdnumber%" -T "TOTALDISCS=%totalcds%" -T "TOTALTRACKS=%numtracks%" %source% -o %dest%

TOC of the extracted CD

Track | Start | Length | Start sector | End sector --------------------------------------------------------- 1 | 0:00.00 | 4:33.59 | 0 | 20533 2 | 4:33.59 | 2:23.07 | 20534 | 31265 3 | 6:56.66 | 0:56.27 | 31266 | 35492 4 | 7:53.18 | 1:01.01 | 35493 | 40068 5 | 8:54.19 | 1:32.40 | 40069 | 47008 6 | 10:26.59 | 0:52.20 | 47009 | 50928 7 | 11:19.04 | 0:46.40 | 50929 | 54418 8 | 12:05.44 | 2:45.07 | 54419 | 66800 9 | 14:50.51 | 1:34.68 | 66801 | 73918 10 | 16:25.44 | 0:42.19 | 73919 | 77087 11 | 17:07.63 | 0:21.30 | 77088 | 78692 12 | 17:29.18 | 0:21.46 | 78693 | 80313 13 | 17:50.64 | 2:02.58 | 80314 | 89521 14 | 19:53.47 | 0:40.32 | 89522 | 92553 15 | 20:34.04 | 0:35.62 | 92554 | 95240 16 | 21:09.66 | 1:21.66 | 95241 | 101381 17 | 22:31.57 | 0:30.14 | 101382 | 103645 18 | 23:01.71 | 3:17.25 | 103646 | 118445 19 | 26:19.21 | 0:26.34 | 118446 | 120429 20 | 26:45.55 | 0:54.32 | 120430 | 124511 21 | 27:40.12 | 0:14.40 | 124512 | 125601 22 | 27:54.52 | 1:23.60 | 125602 | 131886 23 | 29:18.37 | 0:36.21 | 131887 | 134607 24 | 29:54.58 | 1:25.49 | 134608 | 141031 25 | 31:20.32 | 0:27.51 | 141032 | 143107 26 | 31:48.08 | 0:17.23 | 143108 | 144405 27 | 32:05.31 | 1:05.38 | 144406 | 149318 28 | 33:10.69 | 0:36.59 | 149319 | 152077 29 | 33:47.53 | 0:28.25 | 152078 | 154202 30 | 34:16.03 | 2:02.42 | 154203 | 163394

Track 1

Filename C:\Music\01 - Enae volare mezzo (Electro Remix).wav

Pre-gap length 0:00:02.00

Peak level 98.8 % Extraction speed 4.2 X Track quality 100.0 % Test CRC 7D03C054 Copy CRC 7D03C054 Track not present in AccurateRip database Copy OK

Track 2

Filename C:\Music\02 - Mélodie pour un Chevalier.wav

Pre-gap length 0:00:02.18

Peak level 98.8 % Extraction speed 3.4 X Track quality 99.9 % Test CRC 75E9DF2F Copy CRC 75E9DF2F Track not present in AccurateRip database Copy OK

Track 3

Filename C:\Music\03 - Voices from the Past.wav

Pre-gap length 0:00:01.36

Peak level 67.6 % Extraction speed 2.7 X Track quality 100.0 % Test CRC 3F1B90D8 Copy CRC 3F1B90D8 Track not present in AccurateRip database Copy OK

Track 4

Filename C:\Music\04 - Le Roi.wav

Pre-gap length 0:00:01.37

Peak level 96.7 % Extraction speed 3.1 X Track quality 100.0 % Test CRC F4A840AF Copy CRC F4A840AF Track not present in AccurateRip database Copy OK

Track 5

Filename C:\Music\05 - À moi la garde!.wav

Pre-gap length 0:00:00.74

Peak level 98.8 % Extraction speed 3.2 X Track quality 100.0 % Test CRC E39AF484 Copy CRC E39AF484 Track not present in AccurateRip database Copy OK

Track 6

Filename C:\Music\06 - Dies Irae.wav

Pre-gap length 0:00:01.68

Peak level 98.8 % Extraction speed 3.1 X Track quality 100.0 % Test CRC 95DBB827 Copy CRC 95DBB827 Track not present in AccurateRip database Copy OK

Track 7

Filename C:\Music\07 - Adieu Gonzague.wav

Pre-gap length 0:00:02.06

Peak level 91.2 % Extraction speed 2.6 X Track quality 100.0 % Test CRC 289E6959 Copy CRC 289E6959 Track not present in AccurateRip database Copy OK

Track 8

Filename C:\Music\08 - Adagio in G Minor.wav

Peak level 68.1 % Extraction speed 3.8 X Track quality 100.0 % Test CRC A02EEE76 Copy CRC A02EEE76 Track not present in AccurateRip database Copy OK

Track 9

Filename C:\Music\09 - La tirade de Gonzague.wav

Pre-gap length 0:00:00.21

Peak level 98.8 % Extraction speed 3.0 X Track quality 99.8 % Test CRC 6EBA2E2E Copy CRC 6EBA2E2E Track not present in AccurateRip database Copy OK

Track 10

Filename C:\Music\10 - Conversation en Calèche.wav

Pre-gap length 0:00:01.16

Peak level 98.1 % Extraction speed 2.7 X Track quality 100.0 % Test CRC E7F880E8 Copy CRC E7F880E8 Track not present in AccurateRip database Copy OK

Track 11

Filename C:\Music\11 - Fuyons!.wav

Peak level 98.8 % Extraction speed 1.8 X Track quality 100.0 % Test CRC 8A70C6DF Copy CRC 8A70C6DF Track not present in AccurateRip database Copy OK

Track 12

Filename C:\Music\12 - Le Duc & la Guillotine.wav

Pre-gap length 0:00:00.47

Peak level 59.6 % Extraction speed 1.7 X Track quality 100.0 % Test CRC 49EAECCE Copy CRC 49EAECCE Track not present in AccurateRip database Copy OK

Track 13

Filename C:\Music\13 - La Mère de Dieu.wav

Peak level 98.8 % Extraction speed 3.7 X Track quality 100.0 % Test CRC 72103E00 Copy CRC 72103E00 Track not present in AccurateRip database Copy OK

Track 14

Filename C:\Music\14 - L'Évasion de Godefroy.wav

Peak level 98.8 % Extraction speed 2.2 X Track quality 100.0 % Test CRC 2C5EFB5A Copy CRC 2C5EFB5A Track not present in AccurateRip database Copy OK

Track 15

Filename C:\Music\15 - La Prière de Godefroy.wav

Peak level 84.4 % Extraction speed 1.7 X Track quality 99.7 % Test CRC 2AF39F3A Copy CRC 2AF39F3A Track not present in AccurateRip database Copy OK

Track 16

Filename C:\Music\16 - Le Règne de la Terreur.wav

Pre-gap length 0:00:00.48

Peak level 98.8 % Extraction speed 3.4 X Track quality 100.0 % Test CRC 8EE0341E Copy CRC 8EE0341E Track not present in AccurateRip database Copy OK

Track 17

Filename C:\Music\17 - Concerto pour Violon et Orchestre.wav

Pre-gap length 0:00:00.09

Peak level 98.8 % Extraction speed 1.5 X Track quality 99.6 % Test CRC 1DEF4E02 Copy CRC 1DEF4E02 Track not present in AccurateRip database Copy OK

Track 18

Filename C:\Music\18 - C'est Diablerie.wav

Pre-gap length 0:00:00.44

Peak level 99.7 % Extraction speed 4.1 X Track quality 100.0 % Test CRC 39B054F1 Copy CRC 39B054F1 Track not present in AccurateRip database Copy OK

Track 19

Filename C:\Music\19 - Capitaine François.wav

Pre-gap length 0:00:01.44

Peak level 74.3 % Extraction speed 1.9 X Track quality 100.0 % Test CRC 5AE64A7A Copy CRC 5AE64A7A Track not present in AccurateRip database Copy OK

Track 20

Filename C:\Music\20 - Le Convoi et la Sorcière.wav

Peak level 68.3 % Extraction speed 2.4 X Track quality 99.8 % Test CRC E1A11F4C Copy CRC E1A11F4C Track not present in AccurateRip database Copy OK

Track 21

Filename C:\Music\21 - Your Father is Alive.wav

Peak level 67.0 % Extraction speed 1.5 X Track quality 100.0 % Test CRC C6A598EF Copy CRC C6A598EF Track not present in AccurateRip database Copy OK

Track 22

Filename C:\Music\22 - The Stolen Jewels.wav

Pre-gap length 0:00:00.21

Peak level 98.8 % Extraction speed 3.3 X Track quality 100.0 % Test CRC 37CF0655 Copy CRC 37CF0655 Track not present in AccurateRip database Copy OK

Track 23

Filename C:\Music\23 - Le Drapeau des Germains.wav

Pre-gap length 0:00:00.32

Peak level 98.8 % Extraction speed 2.3 X Track quality 100.0 % Test CRC 4E933F13 Copy CRC 4E933F13 Track not present in AccurateRip database Copy OK

Track 24

Filename C:\Music\24 - Les Montmirail en Danger.wav

Pre-gap length 0:00:00.52

Peak level 98.8 % Extraction speed 2.8 X Track quality 99.8 % Test CRC 27CF8A0A Copy CRC 27CF8A0A Track not present in AccurateRip database Copy OK

Track 25

Filename C:\Music\25 - Gonzague aux Anges.wav

Pre-gap length 0:00:00.36

Peak level 88.1 % Extraction speed 2.2 X Track quality 100.0 % Test CRC EC55A8BE Copy CRC EC55A8BE Track not present in AccurateRip database Copy OK

Track 26

Filename C:\Music\26 - Les Condamnés.wav

Pre-gap length 0:00:00.59

Peak level 98.8 % Extraction speed 1.6 X Track quality 100.0 % Test CRC 8E30B0DC Copy CRC 8E30B0DC Track not present in AccurateRip database Copy OK

Track 27

Filename C:\Music\27 - Chez l'Enchanteur.wav

Pre-gap length 0:00:01.20

Peak level 76.4 % Extraction speed 3.1 X Track quality 100.0 % Test CRC 0FA74A73 Copy CRC 0FA74A73 Track not present in AccurateRip database Copy OK

Track 28

Filename C:\Music\28 - Jacquouillet chez Gonzague.wav

Pre-gap length 0:00:00.32

Peak level 92.8 % Extraction speed 2.3 X Track quality 100.0 % Test CRC F618474F Copy CRC F618474F Track not present in AccurateRip database Copy OK

Track 29

Filename C:\Music\29 - Western in the Air.wav

Pre-gap length 0:00:00.44

Peak level 60.2 % Extraction speed 2.0 X Track quality 100.0 % Test CRC 3B890284 Copy CRC 3B890284 Track not present in AccurateRip database Copy OK

Track 30

Filename C:\Music\30 - Les Oubliettes.wav

Pre-gap length 0:00:00.37

Peak level 99.9 % Extraction speed 3.6 X Track quality 100.0 % Test CRC 42EFADA4 Copy CRC 42EFADA4 Track not present in AccurateRip database Copy OK

None of the tracks are present in the AccurateRip database

No errors occurred

End of status report

---- CUETools DB Plugin V2.1.6

[CTDB TOCID: MQwZyp.9JSvvozh5Iqv3tJD7ENs-] disk not present in databaseSubmit result: MQwZyp.9JSvvozh5Iqv3tJD7ENs- has been uploaded

==== Log checksum 2E54EF2BD8A402A5F456F854EC739B26DCE6D7DFF2B790C377EB6B9EC892388B ====
REM GENRE SoundtrackREM DATE 2016REM DISCID BC08821EREM COMMENT "ExactAudioCopy v1.1"PERFORMER "Eric Levi"TITLE "Les Visiteurs: La Revolution"FILE "01 - Enae volare mezzo (Electro Remix).wav" WAVE TRACK 01 AUDIO TITLE "Enae volare mezzo (Electro Remix)" PERFORMER "Eric Levi" INDEX 01 00:00:00 TRACK 02 AUDIO TITLE "Melodie pour un Chevalier" PERFORMER "Eric Levi" INDEX 00 04:31:41FILE "02 - Melodie pour un Chevalier.wav" WAVE INDEX 01 00:00:00 TRACK 03 AUDIO TITLE "Voices from the Past" PERFORMER "Eric Levi" INDEX 00 02:21:46FILE "03 - Voices from the Past.wav" WAVE INDEX 01 00:00:00 TRACK 04 AUDIO TITLE "Le Roi" PERFORMER "Eric Levi" INDEX 00 00:54:65FILE "04 - Le Roi.wav" WAVE INDEX 01 00:00:00 TRACK 05 AUDIO TITLE "А moi la garde!" PERFORMER "Eric Levi" INDEX 00 01:00:02FILE "05 - A moi la garde!.wav" WAVE INDEX 01 00:00:00 TRACK 06 AUDIO TITLE "Dies Irae" PERFORMER "Eric Levi" INDEX 00 01:30:47FILE "06 - Dies Irae.wav" WAVE INDEX 01 00:00:00 TRACK 07 AUDIO TITLE "Adieu Gonzague" PERFORMER "Eric Levi" INDEX 00 00:50:14FILE "07 - Adieu Gonzague.wav" WAVE INDEX 01 00:00:00FILE "08 - Adagio in G Minor.wav" WAVE TRACK 08 AUDIO TITLE "Adagio in G Minor" PERFORMER "Eric Levi" INDEX 01 00:00:00 TRACK 09 AUDIO TITLE "La tirade de Gonzague" PERFORMER "Eric Levi" INDEX 00 02:44:61FILE "09 - La tirade de Gonzague.wav" WAVE INDEX 01 00:00:00 TRACK 10 AUDIO TITLE "Conversation en Caleche" PERFORMER "Eric Levi" INDEX 00 01:33:52FILE "10 - Conversation en Caleche.wav" WAVE INDEX 01 00:00:00FILE "11 - Fuyons!.wav" WAVE TRACK 11 AUDIO TITLE "Fuyons!" PERFORMER "Eric Levi" INDEX 01 00:00:00 TRACK 12 AUDIO TITLE "Le Duc & la Guillotine" PERFORMER "Eric Levi" INDEX 00 00:20:58FILE "12 - Le Duc & la Guillotine.wav" WAVE INDEX 01 00:00:00FILE "13 - La Mere de Dieu.wav" WAVE TRACK 13 AUDIO TITLE "La Mere de Dieu" PERFORMER "Eric Levi" INDEX 01 00:00:00FILE "14 - L'Evasion de Godefroy.wav" WAVE TRACK 14 AUDIO TITLE "L'Evasion de Godefroy" PERFORMER "Eric Levi" INDEX 01 00:00:00FILE "15 - La Priere de Godefroy.wav" WAVE TRACK 15 AUDIO TITLE "La Priere de Godefroy" PERFORMER "Eric Levi" INDEX 01 00:00:00 TRACK 16 AUDIO TITLE "Le Regne de la Terreur" PERFORMER "Eric Levi" INDEX 00 00:35:14FILE "16 - Le Regne de la Terreur.wav" WAVE INDEX 01 00:00:00 TRACK 17 AUDIO TITLE "Concerto pour Violon et Orchestre" PERFORMER "Eric Levi" INDEX 00 01:21:57FILE "17 - Concerto pour Violon et Orchestre.wav" WAVE INDEX 01 00:00:00 TRACK 18 AUDIO TITLE "C'est Diablerie" PERFORMER "Eric Levi" INDEX 00 00:29:45FILE "18 - C'est Diablerie.wav" WAVE INDEX 01 00:00:00 TRACK 19 AUDIO TITLE "Capitaine Francois" PERFORMER "Eric Levi" INDEX 00 03:15:56FILE "19 - Capitaine Francois.wav" WAVE INDEX 01 00:00:00FILE "20 - Le Convoi et la Sorciere.wav" WAVE TRACK 20 AUDIO TITLE "Le Convoi et la Sorciere" PERFORMER "Eric Levi" INDEX 01 00:00:00FILE "21 - Your Father is Alive.wav" WAVE TRACK 21 AUDIO TITLE "Your Father is Alive" PERFORMER "Eric Levi" INDEX 01 00:00:00 TRACK 22 AUDIO TITLE "The Stolen Jewels" PERFORMER "Eric Levi" INDEX 00 00:14:19FILE "22 - The Stolen Jewels.wav" WAVE INDEX 01 00:00:00 TRACK 23 AUDIO TITLE "Le Drapeau des Germains" PERFORMER "Eric Levi" INDEX 00 01:23:28FILE "23 - Le Drapeau des Germains.wav" WAVE INDEX 01 00:00:00 TRACK 24 AUDIO TITLE "Les Montmirail en Danger" PERFORMER "Eric Levi" INDEX 00 00:35:44FILE "24 - Les Montmirail en Danger.wav" WAVE INDEX 01 00:00:00 TRACK 25 AUDIO TITLE "Gonzague aux Anges" PERFORMER "Eric Levi" INDEX 00 01:25:13FILE "25 - Gonzague aux Anges.wav" WAVE INDEX 01 00:00:00 TRACK 26 AUDIO TITLE "Les Condamnes" PERFORMER "Eric Levi" INDEX 00 00:26:67FILE "26 - Les Condamnes.wav" WAVE INDEX 01 00:00:00 TRACK 27 AUDIO TITLE "Chez l'Enchanteur" PERFORMER "Eric Levi" INDEX 00 00:16:03FILE "27 - Chez l'Enchanteur.wav" WAVE INDEX 01 00:00:00 TRACK 28 AUDIO TITLE "Jacquouillet chez Gonzague" PERFORMER "Eric Levi" INDEX 00 01:05:06FILE "28 - Jacquouillet chez Gonzague.wav" WAVE INDEX 01 00:00:00 TRACK 29 AUDIO TITLE "Western in the Air" PERFORMER "Eric Levi" INDEX 00 00:36:15FILE "29 - Western in the Air.wav" WAVE INDEX 01 00:00:00 TRACK 30 AUDIO TITLE "Les Oubliettes" PERFORMER "Eric Levi" INDEX 00 00:27:63FILE "30 - Les Oubliettes.wav" WAVE INDEX 01 00:00:00


Трекер:  [ 14-Май-2016 13:30 ]

  

Скачать .torrent

Размер .torrent файла 10 KB


Размер: 204 MB
Хэш (hash) релиза: af9ade5167d9138dfe920cf979eaf07ee656462e

Торренты, похожие на Пришельцы 3: Взятие Бастилии Les Visiteurs: La Revolution скачать торрент

Форум Название Автор Размер S L Добавлен
Саундтреки к фильмам и мультфильмам (mp3) ·· (Score) Пришельцы 3: Взятие Бастилии / Les Visiteurs: La Revolution (by Eric Levi) - 2016, MP3 (tracks) 320 kbps Galfimbul 9127416787 MB 0 0 1460821956

18:52

16-Апр-16

Саундтреки к фильмам и мультфильмам (lossless) ·· (Score) Пришельцы 3: Взятие Бастилии / Les Visiteurs: La Revolution (by Eric Levi) - 2016, FLAC (tracks+.cue), lossless Galfimbul 192403602183 MB 0 0 1460819683

18:14

16-Апр-16

Еще никто не оставлял запись к записи скачать торрент Пришельцы 3: Взятие Бастилии Les Visiteurs: La Revolution . Будь первым!

!Обратная связь