Скачать через торрент музыку Демоны Санкт-Петербурга The Demons Of St. Petersburg бесплатно без регистрации torrent

Если у вас наблюдаются проблемы со скриншотами, переходом по ссылками, скачиванием торрентов - проблемы в блокировщике рекламы AdBlock. #хорошегоДня!


Статистика раздачи
Размер:  289 MB   |    Зарегистрирован:  1 год 4 месяца   |    .torrent скачан:  59 раз   |   
Раздают:  1  
   
Загрузка...
 
Автор Сообщение

Galfimbul

avatar Galfimbul


Демоны Санкт-Петербурга / The Demons Of St. Petersburg (I Demoni Di San Pietroburgo)

Жанр: Score
Композитор: Ennio Morricone
Год выпуска диска: 2014
Год выпуска фильма: 2008
Производитель диска: Russia
Издатель (лейбл): KeepMoving Records
Номер по каталогу: KMRCD 028

Аудиокодек: FLAC (*.flac)
Тип рипа: image+.cue
Битрейт аудио: lossless
Продолжительность: 57.12
Источник: собственный рип
Наличие сканов в содержимом раздачи: да (600 dpi)
01. New Attack (Nuovo Attentato) [03:01.14]
02. Painful Eternity (Dolorosamente Sempre) [02:52.31]
03. The Publisher (L'Editore) [02:16.13]
04. Painful Love I (Dolorosamente Amore I) [04:16.39]
05. Interview (Colloquio) [03:34.69]
06. A Story (Una Storia) [03:44.12]
07. Painful Love Ii (Dolorosamente Amore II) [03:49.13]
08. In The Underground (Nel Sotterraneo) [04:07.36]
09. After The Meeting (Dopo L'Incontro) [04:40.30]
10. Siberia [02:11.28]
11. For Three (Per Tre) [01:48.56]
12. Pursued (Inseguito) [02:13.14]
13. The Flag (La Bandiera) [01:10.71]
14. Shot (Fucilato) [04:22.45]
15. On The River (Sul Fiume) [04:15.24]
16. For My Father (A Mio Padre) [08:46.55]
Exact Audio Copy V1.0 beta 3 from 29. August 2011

EAC extraction logfile from 29. January 2014, 18:04

Ennio Morricone / The Demons Of St. Petersburg

Used drive : TSSTcorpCDDVDW SH-S202H Adapter: 0 ID: 0

Read mode : SecureUtilize accurate stream : YesDefeat audio cache : YesMake use of C2 pointers : No

Read offset correction : 6Overread into Lead-In and Lead-Out : NoFill up missing offset samples with silence : YesDelete leading and trailing silent blocks : NoNull samples used in CRC calculations : YesUsed interface : Native Win32 interface for Win NT & 2000

Used output format : Internal WAV RoutinesSample format : 44.100 Hz; 16 Bit; Stereo

TOC of the extracted CD

Track | Start | Length | Start sector | End sector --------------------------------------------------------- 1 | 0:00.00 | 3:01.14 | 0 | 13588 2 | 3:01.14 | 2:52.31 | 13589 | 26519 3 | 5:53.45 | 2:16.13 | 26520 | 36732 4 | 8:09.58 | 4:16.39 | 36733 | 55971 5 | 12:26.22 | 3:34.69 | 55972 | 72090 6 | 16:01.16 | 3:44.12 | 72091 | 88902 7 | 19:45.28 | 3:49.13 | 88903 | 106090 8 | 23:34.41 | 4:07.36 | 106091 | 124651 9 | 27:42.02 | 4:40.30 | 124652 | 145681 10 | 32:22.32 | 2:11.28 | 145682 | 155534 11 | 34:33.60 | 1:48.56 | 155535 | 163690 12 | 36:22.41 | 2:13.14 | 163691 | 173679 13 | 38:35.55 | 1:10.71 | 173680 | 179000 14 | 39:46.51 | 4:22.45 | 179001 | 198695 15 | 44:09.21 | 4:15.24 | 198696 | 217844 16 | 48:24.45 | 8:46.55 | 217845 | 257349

Range status and errors

Selected range

Filename D:\Ennio Morricone - The Demons Of St. Petersburg\Ennio Morricone - The Demons Of St. Petersburg.wav

Peak level 88.7 % Extraction speed 7.7 X Range quality 100.0 % Test CRC D0A23847 Copy CRC D0A23847 Copy OK

No errors occurred

AccurateRip summary

Track 1 not present in databaseTrack 2 not present in databaseTrack 3 not present in databaseTrack 4 not present in databaseTrack 5 not present in databaseTrack 6 not present in databaseTrack 7 not present in databaseTrack 8 not present in databaseTrack 9 not present in databaseTrack 10 not present in databaseTrack 11 not present in databaseTrack 12 not present in databaseTrack 13 not present in databaseTrack 14 not present in databaseTrack 15 not present in databaseTrack 16 not present in database

None of the tracks are present in the AccurateRip database

End of status report

==== Log checksum B348BFD36AE714AE428686B96FD2E8578088BBCEDED711DD8265307FC3ADB1CB ====
Еще одна "новинка". На сей раз вниманию почтенной публики предлагается более поздняя работа легендарного Эннио Морриконе.
Фильм рассказывает нам об истории создания романа "Игроки". Однако реальная история является лишь фоном для выдуманной, где Достоевскому приходится вести сложную игру, пытаясь найти террористов, устроивших охоту на царскую семью. Писателю необходимо уговорить их остановить безумие и прекратить кровопролитие...
Изначально альбом вышел в январе 2014 года и практически за месяц весь тираж (500 экз.) был распродан. Поэтому уже в августе итальянский лейбл Beat Records перевыпустил диск. Данное издание - то самое, первое и оригинальное.



Трекер:  [ 30-Апр-2016 15:30 ]

  

Скачать .torrent

Размер .torrent файла 12 KB


Размер: 289 MB
Хэш (hash) релиза: 4ca5447039197e6930bf46209e9c673fd222cb62

Торренты, похожие на Демоны Санкт-Петербурга The Demons Of St. Petersburg скачать торрент

Форум Название Автор Размер S L Добавлен
Саундтреки к фильмам и мультфильмам (mp3) ·· (Score) Демоны Санкт-Петербурга / The Demons Of St. Petersburg (I Demoni Di San Pietroburgo) (by Ennio Morricone) - 2014 (2008), MP3, 320 kbps Galfimbul 139121429133 MB 0 0 1462025820

17:17

30-Апр-16

Еще никто не оставлял запись к записи скачать торрент Демоны Санкт-Петербурга The Demons Of St. Petersburg . Будь первым!

!Обратная связь