Скачать через торрент музыку Звездные войны: Эпизод 1 – Скрытая угроза Star Wars: Episode I - The Phantom Menace бесплатно без регистрации torrent

Если у вас наблюдаются проблемы со скриншотами, переходом по ссылками, скачиванием торрентов - проблемы в блокировщике рекламы AdBlock. #хорошегоДня!


Статистика раздачи
Размер:  340 MB   |    Зарегистрирован:  1 год 4 месяца   |    .torrent скачан:  21 раз   |   
Раздают:  1  
   
Загрузка...
 
Автор Сообщение

Galfimbul

avatar Galfimbul


.
.Звездные войны: Эпизод 1 – Скрытая угроза
Star Wars: Episode I - The Phantom Menace.Название альбома:
A Tribute to the Star Wars Saga Episode I
Жанр: Score
Композитор: John Williams
Год выпуска диска: 1999
Год выпуска фильма: 1999
Страна-производитель диска: Europe
Издатель (лейбл): Elap Music
Номер по каталогу: 50163442
Аудиокодек: FLAC (*.flac)
Тип рипа: image+.cue
Битрейт аудио: lossless
Продолжительность: 01:13:32
Источник: собственный рип
Наличие сканов в содержимом раздачи: да - 600 dpi.
.
.Треклист:

01. Star Wars Main Title and The Arrival at Naboo.
02. Duel of the Fates.
03. Anakin's Theme.
04. Jar Jar's Introduction - The Swim to Otoh Gunga.
05. The Sith Spacecraft - The Droid Battle.
06. The Trip to the Naboo Temple - The Audience with Boss Nass.
07. The Arrival at Tatooine - The Flag Parade.
08. He Is the Chosen One.
09. Anakin Defeats Sebulba.
10. Passage Through the Planet Core.
11. Watto's Deal - Kids at Play.
12. Panaka And The Queen's Protectors.
13. Queen Amidala - The Naboo Palace.
14. The Droid Invasion - The Appearance of Darth Maul.
15. Qui-Gon's Noble End.
16. The High Council Meeting - Qui-Gon's Funeral.
17. Augie's Great Municipal Band - End Credits.
Exact Audio Copy V1.1 from 23. June 2015

Отчёт EAC об извлечении, выполненном 24. апреля 2016, 23:43

Hollywood Symphony Orchestra / A Tribute To Star Wars Saga - Episode 1

Дисковод: PLEXTOR DVDR PX-712A Adapter: 6 ID: 0

Режим чтения : ДостоверностьИспользование точного потока : ДаОтключение кэша аудио : ДаИспользование указателей C2 : Нет

Коррекция смещения при чтении : 30Способность читать области Lead-in и Lead-out : НетЗаполнение пропущенных сэмплов тишиной : ДаУдаление блоков с тишиной в начале и конце : НетПри вычислениях CRC использовались нулевые сэмплы : ДаИнтерфейс : Установленный внешний ASPI-интерфейс

Выходной формат : Пользовательский кодировщикВыбранный битрейт : 128 kBit/sКачество : ВысокийДобавление ID3-тега : НетУтилита сжатия : C:\Program Files\Exact Audio Copy\Flac\flac.exeДополнительные параметры : -V -8 -T "Genre=%genre%" -T "Artist=%artist%" -T "Title=%title%" -T "Album=%albumtitle%" -T "Date=%year%" -T "Tracknumber=%tracknr%" -T "Comment=%comment%" %source%

TOC извлечённого CD

Трек | Старт | Длительность | Начальный сектор | Конечный сектор --------------------------------------------------------------------- 1 | 0:00.00 | 2:54.45 | 0 | 13094 2 | 2:54.45 | 4:16.30 | 13095 | 32324 3 | 7:11.00 | 3:07.55 | 32325 | 46404 4 | 10:18.55 | 5:07.55 | 46405 | 69484 5 | 15:26.35 | 2:39.05 | 69485 | 81414 6 | 18:05.40 | 4:10.14 | 81415 | 100178 7 | 22:15.54 | 4:05.43 | 100179 | 118596 8 | 26:21.22 | 3:52.38 | 118597 | 136034 9 | 30:13.60 | 4:21.00 | 136035 | 155609 10 | 34:34.60 | 4:39.42 | 155610 | 176576 11 | 39:14.27 | 4:55.70 | 176577 | 198771 12 | 44:10.22 | 3:13.73 | 198772 | 213319 13 | 47:24.20 | 3:59.00 | 213320 | 231244 14 | 51:23.20 | 5:23.00 | 231245 | 255469 15 | 56:46.20 | 3:52.55 | 255470 | 272924 16 | 60:39.00 | 3:07.32 | 272925 | 286981 17 | 63:46.32 | 9:45.60 | 286982 | 330916

Характеристики диапазона извлечения и сообщения об ошибках

Выбранный диапазон

Имя файла I:\MOI_RAZDACI\Hollywood Symphony Orchestra\Hollywood.Symphony.Orchestra_A.Tribute.To.Star.Wars.Saga_Episode.1_1999\Hollywood Symphony Orchestra - A Tribute To Star Wars Saga - Episode 1.wav

Пиковый уровень 100.0 % Скорость извлечения 14.0 X Качество диапазона 100.0 % CRC теста 6C5BDBBF CRC копии 6C5BDBBF Копирование... OK

Ошибок не произошло

AccurateRip: сводка

Трек 1 отсутствует в базе данныхТрек 2 отсутствует в базе данныхТрек 3 отсутствует в базе данныхТрек 4 отсутствует в базе данныхТрек 5 отсутствует в базе данныхТрек 6 отсутствует в базе данныхТрек 7 отсутствует в базе данныхТрек 8 отсутствует в базе данныхТрек 9 отсутствует в базе данныхТрек 10 отсутствует в базе данныхТрек 11 отсутствует в базе данныхТрек 12 отсутствует в базе данныхТрек 13 отсутствует в базе данныхТрек 14 отсутствует в базе данныхТрек 15 отсутствует в базе данныхТрек 16 отсутствует в базе данныхТрек 17 отсутствует в базе данных

Ни одного трека нет в базе AccurateRip

Конец отчёта

---- CUETools DB Plugin V2.1.6

[CTDB TOCID: nyzQfKgTQg.pel2TTtx7tepiyZ0-] foundSubmit result: nyzQfKgTQg.pel2TTtx7tepiyZ0- has been confirmedTrack | CTDB Status 1 | (6/6) Accurately ripped 2 | (6/6) Accurately ripped 3 | (6/6) Accurately ripped 4 | (6/6) Accurately ripped 5 | (6/6) Accurately ripped 6 | (6/6) Accurately ripped 7 | (6/6) Accurately ripped 8 | (6/6) Accurately ripped 9 | (6/6) Accurately ripped 10 | (6/6) Accurately ripped 11 | (6/6) Accurately ripped 12 | (6/6) Accurately ripped 13 | (6/6) Accurately ripped 14 | (6/6) Accurately ripped 15 | (6/6) Accurately ripped 16 | (6/6) Accurately ripped 17 | (6/6) Accurately ripped

==== Контрольная сумма отчёта 1337EAE9A84972835917F896DDAAECF49BA85A90C81D52B60D7FB1F8008186A2 ====
REM GENRE SoundtrackREM DATE 1999REM DISCID F7113C11REM COMMENT "ExactAudioCopy v1.1"CATALOG 0000000000000PERFORMER "Hollywood Symphony Orchestra"TITLE "A Tribute To Star Wars Saga - Episode 1"FILE "Hollywood Symphony Orchestra - A Tribute To Star Wars Saga - Episode 1.flac" WAVE TRACK 01 AUDIO TITLE "Star Wars Main Title and The Arrival at Naboo" PERFORMER "Hollywood Symphony Orchestra" INDEX 01 00:00:00 TRACK 02 AUDIO TITLE "Duel of the Fates" PERFORMER "Hollywood Symphony Orchestra" INDEX 00 02:52:51 INDEX 01 02:54:45 TRACK 03 AUDIO TITLE "Anakin's Theme" PERFORMER "Hollywood Symphony Orchestra" INDEX 00 07:08:57 INDEX 01 07:11:00 TRACK 04 AUDIO TITLE "Jar Jar's Introduction - The Swim to Otoh Gunga" PERFORMER "Hollywood Symphony Orchestra" INDEX 00 10:16:43 INDEX 01 10:18:55 TRACK 05 AUDIO TITLE "The Sith Spacecraft - The Droid Battle" PERFORMER "Hollywood Symphony Orchestra" INDEX 00 15:24:17 INDEX 01 15:26:35 TRACK 06 AUDIO TITLE "The Trip to the Naboo Temple - The Audience with Boss Nass" PERFORMER "Hollywood Symphony Orchestra" INDEX 00 18:03:50 INDEX 01 18:05:40 TRACK 07 AUDIO TITLE "The Arrival at Tatooine - The Flag Parade" PERFORMER "Hollywood Symphony Orchestra" INDEX 00 22:13:69 INDEX 01 22:15:54 TRACK 08 AUDIO TITLE "He Is the Chosen One" PERFORMER "Hollywood Symphony Orchestra" INDEX 00 26:19:18 INDEX 01 26:21:22 TRACK 09 AUDIO TITLE "Anakin Defeats Sebulba" PERFORMER "Hollywood Symphony Orchestra" INDEX 00 30:11:31 INDEX 01 30:13:60 TRACK 10 AUDIO TITLE "Passage Through the Planet Core" PERFORMER "Hollywood Symphony Orchestra" INDEX 00 34:32:72 INDEX 01 34:34:60 TRACK 11 AUDIO TITLE "Watto's Deal - Kids at Play" PERFORMER "Hollywood Symphony Orchestra" INDEX 00 39:12:46 INDEX 01 39:14:27 TRACK 12 AUDIO TITLE "Panaka And The Queen's Protectors" PERFORMER "Hollywood Symphony Orchestra" INDEX 00 44:08:39 INDEX 01 44:10:22 TRACK 13 AUDIO TITLE "Queen Amidala - The Naboo Palace" PERFORMER "Hollywood Symphony Orchestra" INDEX 00 47:22:53 INDEX 01 47:24:20 TRACK 14 AUDIO TITLE "The Droid Invasion - The Appearance of Darth Maul" PERFORMER "Hollywood Symphony Orchestra" INDEX 00 51:22:04 INDEX 01 51:23:20 TRACK 15 AUDIO TITLE "Qui-Gon's Noble End" PERFORMER "Hollywood Symphony Orchestra" INDEX 00 56:44:64 INDEX 01 56:46:20 TRACK 16 AUDIO TITLE "The High Council Meeting - Qui-Gon's Funeral" PERFORMER "Hollywood Symphony Orchestra" INDEX 00 60:37:31 INDEX 01 60:39:00 TRACK 17 AUDIO TITLE "Augie's Great Municipal Band - End Credits" PERFORMER "Hollywood Symphony Orchestra" INDEX 00 63:44:11 INDEX 01 63:46:32
-----------------------

DON'T MODIFY THIS FILE

-----------------------

PERFORMER: auCDtect Task Manager, ver. 1.5.1RC6 build 1.5.1.7Copyright (c) 2008-2010 y-soft. All rights reservedhttp://y-soft.org

ANALYZER: auCDtect: CD records authenticity detector, version 0.8.2Copyright (c) 2004 Oleg Berngardt. All rights reserved.Copyright (c) 2004 Alexander Djourik. All rights reserved.

FILE: Hollywood Symphony Orchestra - A Tribute To Star Wars Saga - Episode 1.flac Size: 336080568 Hash: C4DABB5D4E3C78BC5E04735219E41376 Accuracy: -m0 Conclusion: CDDA 100% Signature: D87C5409781EDA5F23A09C1E57162ED65990374C
Прямые кликабельные ссылки на раздачи.
Direct clickable links to hand.
<a href="viewtopic.php?t=3886193" class="postLink"> </a> <a href="viewtopic.php?t=3898686" class="postLink"> </a> <a href="viewtopic.php?t=4027822" class="postLink"> </a>
<a href="viewtopic.php?t=4486495" class="postLink"> </a> <a href="viewtopic.php?t=4489542" class="postLink"> </a> <a href="viewtopic.php?t=4490808" class="postLink"> </a>
<a href="viewtopic.php?t=4494077" class="postLink"> </a> <a href="viewtopic.php?t=4494610" class="postLink"> </a> <a href="viewtopic.php?t=4974565" class="postLink"> </a>
<a href="viewtopic.php?t=4984682" class="postLink"> </a> <a href="viewtopic.php?t=4990491" class="postLink"> </a> <a href="viewtopic.php?t=5008322" class="postLink"> </a>
<a href="viewtopic.php?t=3896686" class="postLink"> </a> <a href="viewtopic.php?t=3926259" class="postLink"> </a> <a href="viewtopic.php?t=3927849" class="postLink"> </a>
<a href="viewtopic.php?t=3930258" class="postLink"> </a> <a href="viewtopic.php?t=4003636" class="postLink"> </a> <a href="viewtopic.php?t=4005463" class="postLink"> </a>
<a href="viewtopic.php?t=4009130" class="postLink"> </a> <a href="viewtopic.php?t=4009775" class="postLink"> </a> <a href="viewtopic.php?t=4485742" class="postLink"> </a>
<a href="viewtopic.php?t=4492215" class="postLink"> </a> <a href="viewtopic.php?t=4509116" class="postLink"> </a> <a href="viewtopic.php?t=4664278" class="postLink"> </a>
<a href="viewtopic.php?t=4974101" class="postLink"> </a> <a href="viewtopic.php?t=4974270" class="postLink"> </a> <a href="viewtopic.php?t=4974788" class="postLink"> </a>
<a href="viewtopic.php?t=4980321" class="postLink"> </a> <a href="viewtopic.php?t=4984890" class="postLink"> </a> <a href="viewtopic.php?t=4985431" class="postLink"> </a>
<a href="viewtopic.php?t=4995033" class="postLink"> </a> <a href="viewtopic.php?t=5003969" class="postLink"> </a> <a href="viewtopic.php?t=5008766" class="postLink"> </a>
<a href="viewtopic.php?t=4074391" class="postLink"> </a> <a href="viewtopic.php?t=4075381" class="postLink"> </a> <a href="viewtopic.php?t=5053684" class="postLink"> </a>
<a href="viewtopic.php?t=5058920" class="postLink"> </a> <a href="viewtopic.php?t=5060687" class="postLink"> </a> <a href="viewtopic.php?t=5060635" class="postLink"> </a>
<a href="viewtopic.php?t=5061612" class="postLink"> </a> <a href="viewtopic.php?t=5065886" class="postLink"> </a> <a href="viewtopic.php?t=5066189" class="postLink"> </a>
Прямые кликабельные ссылки на раздачи.
Direct clickable links to hand.
<a href="viewtopic.php?t=3894616" class="postLink"> </a> <a href="viewtopic.php?t=3897343" class="postLink"> </a> <a href="viewtopic.php?t=3899710" class="postLink"> </a>
<a href="viewtopic.php?t=3920006" class="postLink"> </a> <a href="viewtopic.php?t=3927165" class="postLink"> </a> <a href="viewtopic.php?t=3942868" class="postLink"> </a>
<a href="viewtopic.php?t=3970111" class="postLink"> </a> <a href="viewtopic.php?t=3978285" class="postLink"> </a> <a href="viewtopic.php?t=4028884" class="postLink"> </a>
<a href="viewtopic.php?t=4066017" class="postLink"> </a> <a href="viewtopic.php?t=4369135" class="postLink"> </a> <a href="viewtopic.php?t=4480229" class="postLink"> </a>
<a href="viewtopic.php?t=4481514" class="postLink"> </a> <a href="viewtopic.php?t=4488488" class="postLink"> </a> <a href="viewtopic.php?t=4999239" class="postLink"> </a>
<a href="viewtopic.php?t=5004427" class="postLink"> </a> <a href="viewtopic.php?t=5004762" class="postLink"> </a> <a href="viewtopic.php?t=5006455" class="postLink"> </a>
<a href="viewtopic.php?t=5008115" class="postLink"> </a> <a href="viewtopic.php?t=4484373" class="postLink"> </a> <a href="viewtopic.php?t=3885744" class="postLink"> </a>
<a href="viewtopic.php?t=4662756" class="postLink"> </a> <a href="viewtopic.php?t=4370184" class="postLink"> </a> <a href="viewtopic.php?t=3872233" class="postLink"> </a>
<a href="viewtopic.php?t=3877520" class="postLink"> </a> <a href="viewtopic.php?t=3895557" class="postLink"> </a> <a href="viewtopic.php?t=3904217" class="postLink"> </a>
<a href="viewtopic.php?t=3925588" class="postLink"> </a> <a href="viewtopic.php?t=3944898" class="postLink"> </a> <a href="viewtopic.php?t=3947502" class="postLink"> </a>
<a href="viewtopic.php?t=3953181" class="postLink"> </a> <a href="viewtopic.php?t=4036288" class="postLink"> </a> <a href="viewtopic.php?t=4037974" class="postLink"> </a>
<a href="viewtopic.php?t=4039130" class="postLink"> </a> <a href="viewtopic.php?t=4040315" class="postLink"> </a> <a href="viewtopic.php?t=4043537" class="postLink"> </a>
<a href="viewtopic.php?t=4071275" class="postLink"> </a> <a href="viewtopic.php?t=4422972" class="postLink"> </a> <a href="viewtopic.php?t=4660192" class="postLink"> </a>
<a href="viewtopic.php?t=5057274" class="postLink"> </a> <a href="viewtopic.php?t=5058803" class="postLink"> </a> <a href="viewtopic.php?t=5037599" class="postLink"> </a>
<a href="viewtopic.php?t=5061526" class="postLink"> </a> <a href="viewtopic.php?t=5062166" class="postLink"> </a> <a href="viewtopic.php?t=5062774" class="postLink"> </a>
<a href="viewtopic.php?t=5062271" class="postLink"> </a> <a href="viewtopic.php?t=5063394" class="postLink"> </a> <a href="viewtopic.php?t=5063217" class="postLink"> </a>
Прямые кликабельные ссылки на раздачи.
Direct clickable links to hand.
<a href="viewtopic.php?t=3880181" class="postLink"> </a> <a href="viewtopic.php?t=3889895" class="postLink"> </a> <a href="viewtopic.php?t=4026654" class="postLink"> </a>
<a href="viewtopic.php?t=4028262" class="postLink"> </a> <a href="viewtopic.php?t=4489277" class="postLink"> </a> <a href="viewtopic.php?t=4508860" class="postLink"> </a>
<a href="viewtopic.php?t=4513148" class="postLink"> </a> <a href="viewtopic.php?t=4515421" class="postLink"> </a> <a href="viewtopic.php?t=4161266" class="postLink"> </a>
<a href="viewtopic.php?t=4482773" class="postLink"> </a> <a href="viewtopic.php?t=4514792" class="postLink"> </a> <a href="viewtopic.php?t=5009451" class="postLink"> </a>
<a href="viewtopic.php?t=3902999" class="postLink"> </a> <a href="viewtopic.php?t=3938325" class="postLink"> </a> <a href="viewtopic.php?t=4491842" class="postLink"> </a>
<a href="viewtopic.php?t=4493076" class="postLink"> </a> <a href="viewtopic.php?t=4493275" class="postLink"> </a> <a href="viewtopic.php?t=4498461" class="postLink"> </a>
<a href="viewtopic.php?t=4500077" class="postLink"> </a> <a href="viewtopic.php?t=4510998" class="postLink"> </a> <a href="viewtopic.php?t=4514221" class="postLink"> </a>
<a href="viewtopic.php?t=5004282" class="postLink"> </a> <a href="viewtopic.php?t=4486421" class="postLink"> </a> <a href="viewtopic.php?t=4510121" class="postLink"> </a>
<a href="viewtopic.php?t=3945898" class="postLink"> </a> <a href="viewtopic.php?t=4525849" class="postLink"> </a> <a href="viewtopic.php?t=4977292" class="postLink"> </a>
<a href="viewtopic.php?t=5037978" class="postLink"> </a> <a href="viewtopic.php?t=5038043" class="postLink"> </a> <a href="viewtopic.php?t=4975284" class="postLink"> </a>
<a href="viewtopic.php?t=4666379" class="postLink"> </a> <a href="viewtopic.php?t=4521947" class="postLink"> </a> <a href="viewtopic.php?t=4496870" class="postLink"> </a>
<a href="viewtopic.php?t=3907507" class="postLink"> </a> <a href="viewtopic.php?t=4511741" class="postLink"> </a> <a href="viewtopic.php?t=4487630" class="postLink"> </a>
<a href="viewtopic.php?t=5063004" class="postLink"> </a>


Трекер:  [ 27-Апр-2016 23:00 ]

  

Скачать .torrent

Размер .torrent файла 14 KB


Размер: 340 MB
Хэш (hash) релиза: 33b13f858bb030baa3acdb51240b04fac7fe350d

Еще никто не оставлял запись к записи скачать торрент Звездные войны: Эпизод 1 – Скрытая угроза Star Wars: Episode I - The Phantom Menace . Будь первым!

!Обратная связь