Скачать через торрент музыку Белоснежка и Охотник 2 The Huntsman: Winters War бесплатно без регистрации torrent

Если у вас наблюдаются проблемы со скриншотами, переходом по ссылками, скачиванием торрентов - проблемы в блокировщике рекламы AdBlock. #хорошегоДня!


Статистика раздачи
Размер:  399 MB   |    Зарегистрирован:  1 год 4 месяца   |    .torrent скачан:  27 раз   |   
Раздают:  1  
   
Загрузка...
 
Автор Сообщение

Galfimbul

avatar Galfimbul


Белоснежка и Охотник 2 ● The Huntsman: Winter's War
ЖанрGenre: Score
КомпозиторComposer: James Newton Howard
Год выпуска дискаCD release: 2016
Год выпуска фильмаMovie release: 2016
Производитель дискаCD manufacturer: USA
Издатель (лейбл)Label: Back Lot Music
Номер по каталогуCatalog #: BLM0638
АудиокодекCodec: FLAC (*.flac)
Тип рипаRip type: tracks+.cue
Битрейт аудиоBit rate: lossless
ПродолжительностьDuration: 01:14:28
ИсточникSource: собственный рип ● own rip
Наличие сканов в раздачeScans included: 600 dpi JPG
СсылкиLinks: Кинопоиск | IMDB | <a href="https://en.wikipedia.org/wiki/The_Huntsman:_Winter's_War" class="postLink">Wikipedia</a> | SoundtrackCollector
MP3: <a href="viewtopic.php?t=5215010" class="postLink">(Score) The Huntsman: Winter's War / Белоснежка и Охотник 2 (James Newton Howard) - 2016, mp3 (tracks) 320 kbps</a>
James Newton Howard: <a href="tracker.php?f=786&nm=James+Newton+Howard" class="postLink">lossless</a> | <a href="tracker.php?f=785&nm=James+Newton+Howard" class="postLink">lossy</a>
01. The Huntsman [0:03:48.32]
02. Lacrimosa [0:00:53.08]
03. You're Carrying His Child [0:02:17.10]
04. The Children Arrive [0:05:03.47]
05. You Shouldn't Walk in Shadows [0:03:23.29]
06. Freya's Spell [0:05:22.16]
07. Freya Prepares for War [0:01:51.51]
08. Tavern Brawl [0:02:08.13]
09. That's Not What Happened [0:03:35.09]
10. Where's My Horse? [0:01:47.60]
11. The Proposition [0:02:10.38]
12. The Goblin Forest [0:03:45.36]
13. Goblin King [0:02:05.51]
14. The Goblin Fight [0:03:15.28]
15. We Are Worthy of Each Other [0:01:52.70]
16. Have you been True? [0:02:33.55]
17. Kill Him [0:04:24.39]
18. Ravenna Returns [0:04:13.62]
19. This is My Kingdom [0:03:42.70]
20. Stand or Fall Together [0:08:22.43]
21. Ravenna's Embrace [0:03:27.55]
22. Castle [0:04:20.60] performed by Halsey
Exact Audio Copy V1.1 from 23. June 2015

EAC extraction logfile from 27. April 2016, 13:19

James Newton Howard / The Huntsman: Winter's War

Used drive : PLEXTOR CD-R PX-230A Adapter: 1 ID: 0

Read mode : SecureUtilize accurate stream : YesDefeat audio cache : YesMake use of C2 pointers : No

Read offset correction : 738Overread into Lead-In and Lead-Out : NoFill up missing offset samples with silence : YesDelete leading and trailing silent blocks : NoNull samples used in CRC calculations : YesUsed interface : Native Win32 interface for Win NT & 2000Gap handling : Appended to previous track

Used output format : User Defined EncoderSelected bitrate : 1024 kBit/sQuality : HighAdd ID3 tag : NoCommand line compressor : C:\Program Files\Exact Audio Copy\Flac\flac.exeAdditional command line options : -6 -V -T "ARTIST=%artist%" -T "TITLE=%title%" -T "ALBUM=%albumtitle%" -T "DATE=%year%"-T "TRACKNUMBER=%tracknr%" -T "GENRE=%genre%" -T "COMMENT=%comment%" -T "ALBUMARTIST=%albuminterpret%" -T "COMPOSER=%composer%"-T "DISCNUMBER=%cdnumber%" -T "TOTALDISCS=%totalcds%" -T "TOTALTRACKS=%numtracks%" %source% -o %dest%

TOC of the extracted CD

Track | Start | Length | Start sector | End sector --------------------------------------------------------- 1 | 0:00.00 | 3:48.32 | 0 | 17131 2 | 3:48.32 | 0:53.08 | 17132 | 21114 3 | 4:41.40 | 2:17.10 | 21115 | 31399 4 | 6:58.50 | 5:03.47 | 31400 | 54171 5 | 12:02.22 | 3:23.29 | 54172 | 69425 6 | 15:25.51 | 5:22.16 | 69426 | 93591 7 | 20:47.67 | 1:51.51 | 93592 | 101967 8 | 22:39.43 | 2:08.13 | 101968 | 111580 9 | 24:47.56 | 3:35.09 | 111581 | 127714 10 | 28:22.65 | 1:47.60 | 127715 | 135799 11 | 30:10.50 | 2:10.38 | 135800 | 145587 12 | 32:21.13 | 3:45.36 | 145588 | 162498 13 | 36:06.49 | 2:05.51 | 162499 | 171924 14 | 38:12.25 | 3:15.28 | 171925 | 186577 15 | 41:27.53 | 1:52.70 | 186578 | 195047 16 | 43:20.48 | 2:33.55 | 195048 | 206577 17 | 45:54.28 | 4:24.39 | 206578 | 226416 18 | 50:18.67 | 4:13.62 | 226417 | 245453 19 | 54:32.54 | 3:42.70 | 245454 | 262173 20 | 58:15.49 | 8:22.43 | 262174 | 299866 21 | 66:38.17 | 3:27.55 | 299867 | 315446 22 | 70:05.72 | 4:20.60 | 315447 | 335006

Track 1

Filename C:\Music\01 - The Huntsman.wav

Pre-gap length 0:00:02.00

Peak level 94.4 % Extraction speed 3.7 X Track quality 99.9 % Test CRC E8F5FC51 Copy CRC E8F5FC51 Track not present in AccurateRip database Copy OK

Track 2

Filename C:\Music\02 - Lacrimosa.wav

Peak level 33.1 % Extraction speed 2.5 X Track quality 99.7 % Test CRC FCEB6CA9 Copy CRC FCEB6CA9 Track not present in AccurateRip database Copy OK

Track 3

Filename C:\Music\03 - You're Carrying His Child.wav

Peak level 17.7 % Extraction speed 3.2 X Track quality 99.9 % Test CRC EE9AE099 Copy CRC EE9AE099 Track not present in AccurateRip database Copy OK

Track 4

Filename C:\Music\04 - The Children Arrive.wav

Peak level 94.5 % Extraction speed 4.4 X Track quality 100.0 % Test CRC 6775CBE8 Copy CRC 6775CBE8 Track not present in AccurateRip database Copy OK

Track 5

Filename C:\Music\05 - You Shouldn't Walk in Shadows.wav

Peak level 50.2 % Extraction speed 4.1 X Track quality 100.0 % Test CRC B0770B08 Copy CRC B0770B08 Track not present in AccurateRip database Copy OK

Track 6

Filename C:\Music\06 - Freya's Spell.wav

Peak level 95.0 % Extraction speed 4.0 X Track quality 100.0 % Test CRC 9514CE09 Copy CRC 9514CE09 Track not present in AccurateRip database Copy OK

Track 7

Filename C:\Music\07 - Freya Prepares for War.wav

Peak level 64.8 % Extraction speed 2.9 X Track quality 100.0 % Test CRC F2D5CD1F Copy CRC F2D5CD1F Track not present in AccurateRip database Copy OK

Track 8

Filename C:\Music\08 - Tavern Brawl.wav

Peak level 94.5 % Extraction speed 2.9 X Track quality 100.0 % Test CRC 9E70DB43 Copy CRC 9E70DB43 Track not present in AccurateRip database Copy OK

Track 9

Filename C:\Music\09 - That's Not What Happened.wav

Peak level 68.8 % Extraction speed 2.8 X Track quality 99.9 % Test CRC B4EC666C Copy CRC B4EC666C Track not present in AccurateRip database Copy OK

Track 10

Filename C:\Music\10 - Where's My Horse.wav

Peak level 17.9 % Extraction speed 2.8 X Track quality 100.0 % Test CRC 0420F353 Copy CRC 0420F353 Track not present in AccurateRip database Copy OK

Track 11

Filename C:\Music\11 - The Proposition.wav

Peak level 23.9 % Extraction speed 2.9 X Track quality 100.0 % Test CRC F59132F4 Copy CRC F59132F4 Track not present in AccurateRip database Copy OK

Track 12

Filename C:\Music\12 - The Goblin Forest.wav

Peak level 94.4 % Extraction speed 3.1 X Track quality 100.0 % Test CRC E1F48303 Copy CRC E1F48303 Track not present in AccurateRip database Copy OK

Track 13

Filename C:\Music\13 - Goblin King.wav

Peak level 95.0 % Extraction speed 2.9 X Track quality 100.0 % Test CRC 633EF98A Copy CRC 633EF98A Track not present in AccurateRip database Copy OK

Track 14

Filename C:\Music\14 - The Goblin Fight.wav

Peak level 94.4 % Extraction speed 3.0 X Track quality 100.0 % Test CRC A295B8D5 Copy CRC A295B8D5 Track not present in AccurateRip database Copy OK

Track 15

Filename C:\Music\15 - We Are Worthy of Each Other.wav

Peak level 29.1 % Extraction speed 2.8 X Track quality 100.0 % Test CRC E044814B Copy CRC E044814B Track not present in AccurateRip database Copy OK

Track 16

Filename C:\Music\16 - Have you been True.wav

Peak level 79.9 % Extraction speed 2.9 X Track quality 100.0 % Test CRC 2D13AEF2 Copy CRC 2D13AEF2 Track not present in AccurateRip database Copy OK

Track 17

Filename C:\Music\17 - Kill Him.wav

Peak level 99.2 % Extraction speed 3.2 X Track quality 100.0 % Test CRC F2274BD9 Copy CRC F2274BD9 Track not present in AccurateRip database Copy OK

Track 18

Filename C:\Music\18 - Ravenna Returns.wav

Peak level 76.1 % Extraction speed 3.1 X Track quality 100.0 % Test CRC DADB77A4 Copy CRC DADB77A4 Track not present in AccurateRip database Copy OK

Track 19

Filename C:\Music\19 - This is My Kingdom.wav

Peak level 94.6 % Extraction speed 3.5 X Track quality 100.0 % Test CRC 164A2317 Copy CRC 164A2317 Track not present in AccurateRip database Copy OK

Track 20

Filename C:\Music\20 - Stand or Fall Together.wav

Peak level 94.6 % Extraction speed 3.7 X Track quality 100.0 % Test CRC D0118392 Copy CRC D0118392 Track not present in AccurateRip database Copy OK

Track 21

Filename C:\Music\21 - Ravenna's Embrace.wav

Peak level 71.9 % Extraction speed 3.6 X Track quality 100.0 % Test CRC 6C6F3B2D Copy CRC 6C6F3B2D Track not present in AccurateRip database Copy OK

Track 22

Filename C:\Music\22 - Castle.wav

Peak level 95.0 % Extraction speed 3.7 X Track quality 100.0 % Test CRC A5D0E6C0 Copy CRC A5D0E6C0 Track not present in AccurateRip database Copy OK

None of the tracks are present in the AccurateRip database

No errors occurred

End of status report

---- CUETools DB Plugin V2.1.6

[CTDB TOCID: 1MlJ1puBxHhl1rCSR_a_iBsWq0w-] foundSubmit result: 1MlJ1puBxHhl1rCSR_a_iBsWq0w- has been confirmedTrack | CTDB Status 1 | (1/1) Accurately ripped 2 | (1/1) Accurately ripped 3 | (1/1) Accurately ripped 4 | (1/1) Accurately ripped 5 | (1/1) Accurately ripped 6 | (1/1) Accurately ripped 7 | (1/1) Accurately ripped 8 | (1/1) Accurately ripped 9 | (1/1) Accurately ripped 10 | (1/1) Accurately ripped 11 | (1/1) Accurately ripped 12 | (1/1) Accurately ripped 13 | (1/1) Accurately ripped 14 | (1/1) Accurately ripped 15 | (1/1) Accurately ripped 16 | (1/1) Accurately ripped 17 | (1/1) Accurately ripped 18 | (1/1) Accurately ripped 19 | (1/1) Accurately ripped 20 | (1/1) Accurately ripped 21 | (1/1) Accurately ripped 22 | (1/1) Accurately ripped

==== Log checksum 29C28763EC27F29ACF2BD4233AB82775D7109E26A4AD45641732C04300D9BD62 ====
REM GENRE SoundtrackREM DATE 2016REM DISCID 28117216REM COMMENT "ExactAudioCopy v1.1"PERFORMER "James Newton Howard"TITLE "The Huntsman: Winter's War"FILE "01 - The Huntsman.wav" WAVE TRACK 01 AUDIO TITLE "The Huntsman" PERFORMER "James Newton Howard" INDEX 01 00:00:00FILE "02 - Lacrimosa.wav" WAVE TRACK 02 AUDIO TITLE "Lacrimosa" PERFORMER "James Newton Howard" INDEX 01 00:00:00FILE "03 - You're Carrying His Child.wav" WAVE TRACK 03 AUDIO TITLE "You're Carrying His Child" PERFORMER "James Newton Howard" INDEX 01 00:00:00FILE "04 - The Children Arrive.wav" WAVE TRACK 04 AUDIO TITLE "The Children Arrive" PERFORMER "James Newton Howard" INDEX 01 00:00:00FILE "05 - You Shouldn't Walk in Shadows.wav" WAVE TRACK 05 AUDIO TITLE "You Shouldn't Walk in Shadows" PERFORMER "James Newton Howard" INDEX 01 00:00:00FILE "06 - Freya's Spell.wav" WAVE TRACK 06 AUDIO TITLE "Freya's Spell" PERFORMER "James Newton Howard" INDEX 01 00:00:00FILE "07 - Freya Prepares for War.wav" WAVE TRACK 07 AUDIO TITLE "Freya Prepares for War" PERFORMER "James Newton Howard" INDEX 01 00:00:00FILE "08 - Tavern Brawl.wav" WAVE TRACK 08 AUDIO TITLE "Tavern Brawl" PERFORMER "James Newton Howard" INDEX 01 00:00:00FILE "09 - That's Not What Happened.wav" WAVE TRACK 09 AUDIO TITLE "That's Not What Happened" PERFORMER "James Newton Howard" INDEX 01 00:00:00FILE "10 - Where's My Horse.wav" WAVE TRACK 10 AUDIO TITLE "Where's My Horse?" PERFORMER "James Newton Howard" INDEX 01 00:00:00FILE "11 - The Proposition.wav" WAVE TRACK 11 AUDIO TITLE "The Proposition" PERFORMER "James Newton Howard" INDEX 01 00:00:00FILE "12 - The Goblin Forest.wav" WAVE TRACK 12 AUDIO TITLE "The Goblin Forest" PERFORMER "James Newton Howard" INDEX 01 00:00:00FILE "13 - Goblin King.wav" WAVE TRACK 13 AUDIO TITLE "Goblin King" PERFORMER "James Newton Howard" INDEX 01 00:00:00FILE "14 - The Goblin Fight.wav" WAVE TRACK 14 AUDIO TITLE "The Goblin Fight" PERFORMER "James Newton Howard" INDEX 01 00:00:00FILE "15 - We Are Worthy of Each Other.wav" WAVE TRACK 15 AUDIO TITLE "We Are Worthy of Each Other" PERFORMER "James Newton Howard" INDEX 01 00:00:00FILE "16 - Have you been True.wav" WAVE TRACK 16 AUDIO TITLE "Have you been True?" PERFORMER "James Newton Howard" INDEX 01 00:00:00FILE "17 - Kill Him.wav" WAVE TRACK 17 AUDIO TITLE "Kill Him" PERFORMER "James Newton Howard" INDEX 01 00:00:00FILE "18 - Ravenna Returns.wav" WAVE TRACK 18 AUDIO TITLE "Ravenna Returns" PERFORMER "James Newton Howard" INDEX 01 00:00:00FILE "19 - This is My Kingdom.wav" WAVE TRACK 19 AUDIO TITLE "This is My Kingdom" PERFORMER "James Newton Howard" INDEX 01 00:00:00FILE "20 - Stand or Fall Together.wav" WAVE TRACK 20 AUDIO TITLE "Stand or Fall Together" PERFORMER "James Newton Howard" INDEX 01 00:00:00FILE "21 - Ravenna's Embrace.wav" WAVE TRACK 21 AUDIO TITLE "Ravenna's Embrace" PERFORMER "James Newton Howard" INDEX 01 00:00:00FILE "22 - Castle.wav" WAVE TRACK 22 AUDIO TITLE "Castle" PERFORMER "James Newton Howard" INDEX 01 00:00:00


Трекер:  [ 27-Апр-2016 16:30 ]

  

Скачать .torrent

Размер .torrent файла 18 KB


Размер: 399 MB
Хэш (hash) релиза: 0c4d92d56b11d254fda21decddee266995a0f76f

Торренты, похожие на Белоснежка и Охотник 2 The Huntsman: Winters War скачать торрент

Форум Название Автор Размер S L Добавлен
Саундтреки к фильмам и мультфильмам (mp3) ·· (Score) The Huntsman: Winter's War / Белоснежка и Охотник 2 (James Newton Howard) - 2016, mp3 (tracks) 320 kbps Galfimbul 181430077173 MB 0 0 1461601174

19:19

25-Апр-16

Еще никто не оставлял запись к записи скачать торрент Белоснежка и Охотник 2 The Huntsman: Winters War . Будь первым!

!Обратная связь