Скачать через торрент Приказ, изменивший мир Big Order бесплатно Аниме Все серии на русском torrent

Если у вас наблюдаются проблемы со скриншотами, переходом по ссылками, скачиванием торрентов - проблемы в блокировщике рекламы AdBlock. #хорошегоДня!


Статистика раздачи
Размер:  1.05 GB   |    Зарегистрирован:  1 год 7 месяцев   |    .torrent скачан:  18 раз   |   
Раздают:  1  
   
Загрузка...
 
Автор Сообщение

Galfimbul

avatar Galfimbul


Приказ, изменивший мир / Big Order / Большой Заказ

Страна: Япония
Год выпуска: 2016 г.
Жанр: сверхъестественное, сёнэн, романтика, школа, повседневность, психология, боевик
Тип: TV
Продолжительность: (>16 эп.), 25 мин.
Режиссер: Каманака Нобухару
Студия: asread

Описание: Ордеры - Люди наделенные силой исполнять их желание. Главный герой нашей истории - Хошимия Эйджи один из таких Ордеров.
В детстве восхищаясь своим любимым аниме героем он захотел захватить мир, чтобы изменить его к лучшему.
Но не осознав какую силу получил в свои руки Эйджи практически уничтожил его.
Прошло десять лет, мир догадывается, что Великая катастрофа случилась по вине какого-то Ордера, но никто не знает кого.
Но однажды в классе Эйджи появляется новая ученица...

Доп. информация: серии будут добавляться по мере их выхода

Качество: HDTVRip
Тип релиза: Без хардсаба
Формат видео: MP4
Наличие линковки: Нет
Видео: AVC, 1280x720, 3343 kbps, 23.976 fps
Аудио: AAC, 48.0 KHz, 192 kbps, 2 ch Язык Японский
Субтитры: ass, внешние Язык субтитров русский ; Перевод: Veles [Raging Potatoes]
General

Format : MPEG-4Format profile : Base MediaCodec ID : isomFile size : 620 MiBDuration : 24mn 29sOverall bit rate mode : VariableOverall bit rate : 3 538 KbpsEncoded date : UTC 2016-04-17 06:33:07Tagged date : UTC 2016-04-17 06:33:07

VideoID : 1Format : AVCFormat/Info : Advanced Video CodecFormat profile : High@L4.1Format settings, CABAC : YesFormat settings, ReFrames : 4 framesCodec ID : avc1Codec ID/Info : Advanced Video CodingDuration : 24mn 29sBit rate : 3 343 KbpsMaximum bit rate : 10.7 MbpsWidth : 1 280 pixelsHeight : 720 pixelsDisplay aspect ratio : 16:9Frame rate mode : ConstantFrame rate : 23.976 fpsColor space : YUVChroma subsampling : 4:2:0Bit depth : 8 bitsScan type : ProgressiveBits/(Pixel*Frame) : 0.151Stream size : 586 MiB (94%)Title : 264:fps=23.976@GPAC0.5.1-DEV-rev4929Writing library : x264 core 129 r2245+729M 1a52e03Encoding settings : cabac=1 / ref=4 / deblock=1:1:-1 / analyse=0x3:0x113 / me=umh / subme=9 / psy=1 / fade_compensate=0.00 / psy_rd=1.00:0.00 / mixed_ref=1 / me_range=24 / chroma_me=1 / trellis=2 / 8x8dct=1 / cqm=0 / deadzone=21,11 / fast_pskip=1 / chroma_qp_offset=-2 / threads=8 / lookahead_threads=1 / sliced_threads=0 / nr=0 / decimate=1 / interlaced=0 / bluray_compat=0 / constrained_intra=0 / fgo=0 / bframes=9 / b_pyramid=2 / b_adapt=2 / b_bias=0 / direct=1 / weightb=1 / open_gop=0 / weightp=2 / keyint=240 / keyint_min=24 / scenecut=40 / intra_refresh=0 / rc=crf / mbtree=0 / crf=17.0 / qcomp=0.72 / qpmin=0 / qpmax=69 / qpstep=4 / ip_ratio=1.40 / pb_ratio=1.30 / aq=1:0.85Encoded date : UTC 2016-04-17 06:33:07Tagged date : UTC 2016-04-17 06:33:10Color primaries : BT.709Transfer characteristics : BT.709Matrix coefficients : BT.709

AudioID : 2Format : AACFormat/Info : Advanced Audio CodecFormat profile : LCCodec ID : 40Duration : 24mn 29sBit rate mode : VariableBit rate : 192 KbpsMaximum bit rate : 226 KbpsChannel(s) : 2 channelsChannel positions : Front: L RSampling rate : 48.0 KHzCompression mode : LossyStream size : 33.6 MiB (5%)Language : JapaneseEncoded date : UTC 2016-04-16 19:21:27Tagged date : UTC 2016-04-17 06:33:10


Трекер:  [ 27-Апр-2016 16:30 ]

  

Скачать .torrent

Размер .torrent файла 11 KB


Размер: 1.05 GB
Хэш (hash) релиза: 3e4cc79ffb9882b6f53267bb41d955dbbe7fab9d
Подписка на обновления:

Еще никто не оставлял запись к записи скачать торрент Приказ, изменивший мир Big Order . Будь первым!

!Обратная связь