Скачать через торрент музыку Альтамира Altamira бесплатно без регистрации torrent

Если у вас наблюдаются проблемы со скриншотами, переходом по ссылками, скачиванием торрентов - проблемы в блокировщике рекламы AdBlock. #хорошегоДня!


Статистика раздачи
Размер:  116 MB   |    Зарегистрирован:  1 год 6 месяцев   |    .torrent скачан:  14 раз   |   
Раздают:  1  
   
Загрузка...
 
Автор Сообщение

Galfimbul

avatar Galfimbul


Альтамира ● Altamira
ЖанрGenre: Score
КомпозиторComposer: Mark Knopfler
Год выпуска дискаCD release: 2016
Год выпуска фильмаMovie release: 2016
Производитель дискаCD manufacturer: EU
Издатель (лейбл)Label: Mercury Records
Номер по каталогуCatalog #: 547 573-4
АудиокодекCodec: FLAC (*.flac)
Тип рипаRip type: tracks+.cue
Битрейт аудиоBit rate: lossless
ПродолжительностьDuration: 00:26:00
ИсточникSource: собственный рип ● own rip
Наличие сканов в раздачeScans included: нет ● no (coming later)
СсылкиLinks: Кинопоиск | IMDB | Wikipedia | SoundtrackCollector
MP3: <a href="viewtopic.php?t=5200051" class="postLink">(Score) Альтамира / Altamira (Mark Knopfler & Evelyn Glennie) - 2016, MP3 (tracks), 320 kbps</a>
Mark Knopfler (Soundtracks): <a href="tracker.php?f=786&nm=Mark+Knopfler" class="postLink">lossless</a> | <a href="tracker.php?f=785&nm=Mark+Knopfler" class="postLink">lossy</a>
01. Altamira [0:02:59.16]
02. Maria [0:03:34.07]
03. Dream of the Bison [0:02:52.48]
04. Mark Knopfler / By the Grave [0:02:00.36]
05. Onward [0:02:01.37]
06. Mark Knopfler / Marcelino's Despair [0:02:27.56]
07. Farewell to the Bison [0:02:22.47]
08. This Is Science [0:01:59.51]
09. Glory of the Cave [0:02:07.16]
10. Farewell to Altamira [0:03:35.17]
Exact Audio Copy V1.1 from 23. June 2015

EAC extraction logfile from 23. April 2016, 13:17

Evelyn Glennie and Mark Knopfler / Altamira

Used drive : PLEXTOR CD-R PX-230A Adapter: 1 ID: 0

Read mode : SecureUtilize accurate stream : YesDefeat audio cache : YesMake use of C2 pointers : No

Read offset correction : 738Overread into Lead-In and Lead-Out : NoFill up missing offset samples with silence : YesDelete leading and trailing silent blocks : NoNull samples used in CRC calculations : YesUsed interface : Native Win32 interface for Win NT & 2000Gap handling : Appended to previous track

Used output format : User Defined EncoderSelected bitrate : 1024 kBit/sQuality : HighAdd ID3 tag : NoCommand line compressor : C:\Program Files\Exact Audio Copy\Flac\flac.exeAdditional command line options : -6 -V -T "ARTIST=%artist%" -T "TITLE=%title%" -T "ALBUM=%albumtitle%" -T "DATE=%year%"-T "TRACKNUMBER=%tracknr%" -T "GENRE=%genre%" -T "COMMENT=%comment%" -T "ALBUMARTIST=%albuminterpret%" -T "COMPOSER=%composer%"-T "DISCNUMBER=%cdnumber%" -T "TOTALDISCS=%totalcds%" -T "TOTALTRACKS=%numtracks%" %source% -o %dest%

TOC of the extracted CD

Track | Start | Length | Start sector | End sector --------------------------------------------------------- 1 | 0:00.00 | 2:59.16 | 0 | 13440 2 | 2:59.16 | 3:34.07 | 13441 | 29497 3 | 6:33.23 | 2:52.48 | 29498 | 42445 4 | 9:25.71 | 2:00.36 | 42446 | 51481 5 | 11:26.32 | 2:01.37 | 51482 | 60593 6 | 13:27.69 | 2:27.56 | 60594 | 71674 7 | 15:55.50 | 2:22.47 | 71675 | 82371 8 | 18:18.22 | 1:59.51 | 82372 | 91347 9 | 20:17.73 | 2:07.16 | 91348 | 100888 10 | 22:25.14 | 3:35.17 | 100889 | 117030

Track 1

Filename C:\Music\01 - Evelyn Glennie and Mark Knopfler - Altamira.wav

Pre-gap length 0:00:02.00

Peak level 98.8 % Extraction speed 5.0 X Track quality 100.0 % Test CRC 59A76E70 Copy CRC 59A76E70 Track not present in AccurateRip database Copy OK

Track 2

Filename C:\Music\02 - Evelyn Glennie and Mark Knopfler - Maria.wav

Peak level 98.8 % Extraction speed 5.0 X Track quality 99.9 % Test CRC 2649BACA Copy CRC 2649BACA Track not present in AccurateRip database Copy OK

Track 3

Filename C:\Music\03 - Evelyn Glennie and Mark Knopfler - Dream of the Bison.wav

Peak level 98.7 % Extraction speed 5.0 X Track quality 99.9 % Test CRC 9C24CC4A Copy CRC 9C24CC4A Track not present in AccurateRip database Copy OK

Track 4

Filename C:\Music\04 - Mark Knopfler - By the Grave.wav

Peak level 89.0 % Extraction speed 4.7 X Track quality 99.9 % Test CRC 6822C323 Copy CRC 6822C323 Track not present in AccurateRip database Copy OK

Track 5

Filename C:\Music\05 - Evelyn Glennie and Mark Knopfler - Onward.wav

Peak level 98.8 % Extraction speed 5.0 X Track quality 99.9 % Test CRC D20236B6 Copy CRC D20236B6 Track not present in AccurateRip database Copy OK

Track 6

Filename C:\Music\06 - Mark Knopfler - Marcelino's Despair.wav

Peak level 82.8 % Extraction speed 5.4 X Track quality 99.9 % Test CRC E2E5E61D Copy CRC E2E5E61D Track not present in AccurateRip database Copy OK

Track 7

Filename C:\Music\07 - Evelyn Glennie and Mark Knopfler - Farewell to the Bison.wav

Peak level 98.8 % Extraction speed 6.6 X Track quality 100.0 % Test CRC 9276A3EC Copy CRC 9276A3EC Track not present in AccurateRip database Copy OK

Track 8

Filename C:\Music\08 - Evelyn Glennie and Mark Knopfler - This Is Science.wav

Peak level 92.6 % Extraction speed 6.6 X Track quality 100.0 % Test CRC 251565F5 Copy CRC 251565F5 Track not present in AccurateRip database Copy OK

Track 9

Filename C:\Music\09 - Evelyn Glennie and Mark Knopfler - Glory of the Cave.wav

Peak level 85.4 % Extraction speed 6.8 X Track quality 100.0 % Test CRC 21959097 Copy CRC 21959097 Track not present in AccurateRip database Copy OK

Track 10

Filename C:\Music\10 - Evelyn Glennie and Mark Knopfler - Farewell to Altamira.wav

Peak level 59.5 % Extraction speed 7.4 X Track quality 100.0 % Test CRC CA4497BF Copy CRC CA4497BF Track not present in AccurateRip database Copy OK

None of the tracks are present in the AccurateRip database

No errors occurred

End of status report

---- CUETools DB Plugin V2.1.6

[CTDB TOCID: LZA4oWN1H6fXDftKqNFPROTjMFE-] foundSubmit result: LZA4oWN1H6fXDftKqNFPROTjMFE- has been confirmedTrack | CTDB Status 1 | (3/3) Accurately ripped 2 | (3/3) Accurately ripped 3 | (3/3) Accurately ripped 4 | (3/3) Accurately ripped 5 | (3/3) Accurately ripped 6 | (3/3) Accurately ripped 7 | (3/3) Accurately ripped 8 | (3/3) Accurately ripped 9 | (3/3) Accurately ripped 10 | (3/3) Accurately ripped

==== Log checksum BF6F920980EF4A7DA335EBF94314E899F8A7D9AC2C6C1B83F645370B4E5FED38 ====
REM GENRE SoundtrackREM DATE 2016REM DISCID 8906180AREM COMMENT "ExactAudioCopy v1.1"PERFORMER "Mark Knopfler and Evelyn Glennie"TITLE "Altamira"FILE "01 - Mark Knopfler and Evelyn Glennie - Altamira.wav" WAVE TRACK 01 AUDIO TITLE "Altamira" PERFORMER "Mark Knopfler and Evelyn Glennie" INDEX 01 00:00:00FILE "02 - Mark Knopfler and Evelyn Glennie - Maria.wav" WAVE TRACK 02 AUDIO TITLE "Maria" PERFORMER "Mark Knopfler and Evelyn Glennie" INDEX 01 00:00:00FILE "03 - Mark Knopfler and Evelyn Glennie - Dream of the Bison.wav" WAVE TRACK 03 AUDIO TITLE "Dream of the Bison" PERFORMER "Mark Knopfler and Evelyn Glennie" INDEX 01 00:00:00FILE "04 - Mark Knopfler - By the Grave.wav" WAVE TRACK 04 AUDIO TITLE "By the Grave" PERFORMER "Mark Knopfler" INDEX 01 00:00:00FILE "05 - Mark Knopfler and Evelyn Glennie - Onward.wav" WAVE TRACK 05 AUDIO TITLE "Onward" PERFORMER "Mark Knopfler and Evelyn Glennie" INDEX 01 00:00:00FILE "06 - Mark Knopfler - Marcelino's Despair.wav" WAVE TRACK 06 AUDIO TITLE "Marcelino's Despair" PERFORMER "Mark Knopfler" INDEX 01 00:00:00FILE "07 - Mark Knopfler and Evelyn Glennie - Farewell to the Bison.wav" WAVE TRACK 07 AUDIO TITLE "Farewell to the Bison" PERFORMER "Mark Knopfler and Evelyn Glennie" INDEX 01 00:00:00FILE "08 - Mark Knopfler and Evelyn Glennie - This Is Science.wav" WAVE TRACK 08 AUDIO TITLE "This Is Science" PERFORMER "Mark Knopfler and Evelyn Glennie" INDEX 01 00:00:00FILE "09 - Mark Knopfler and Evelyn Glennie - Glory of the Cave.wav" WAVE TRACK 09 AUDIO TITLE "Glory of the Cave" PERFORMER "Mark Knopfler and Evelyn Glennie" INDEX 01 00:00:00FILE "10 - Mark Knopfler and Evelyn Glennie - Farewell to Altamira.wav" WAVE TRACK 10 AUDIO TITLE "Farewell to Altamira" PERFORMER "Mark Knopfler and Evelyn Glennie" INDEX 01 00:00:00


Трекер:  [ 23-Апр-2016 16:30 ]

  

Скачать .torrent

Размер .torrent файла 6 KB


Размер: 116 MB
Хэш (hash) релиза: 3a915c5affb999b691f36d5b23e595cf1304616c

Торренты, похожие на Альтамира Altamira скачать торрент

Форум Название Автор Размер S L Добавлен
Саундтреки к фильмам и мультфильмам (lossless) ·· (Score) Альтамира / Altamira (by Mark Knopfler & Evelyn Glennie) - 2016, FLAC (tracks+.cue), lossless Galfimbul 151427606144 MB 0 0 1463220895

13:14

14-Май-16

Саундтреки к фильмам и мультфильмам (mp3) ·· (Score) Альтамира / Altamira (Mark Knopfler & Evelyn Glennie) - 2016, MP3 (tracks), 320 kbps Galfimbul 6292186660 MB 0 0 1459498461

11:14

1-Апр-16

Еще никто не оставлял запись к записи скачать торрент Альтамира Altamira . Будь первым!

!Обратная связь