Скачать через торрент Ярость Бахамута: Истоки Shingeki no Bahamut: Genesis бесплатно Аниме Все серии на русском torrent

Если у вас наблюдаются проблемы со скриншотами, переходом по ссылками, скачиванием торрентов - проблемы в блокировщике рекламы AdBlock. #хорошегоДня!


Статистика раздачи
Размер:  6.66 GB   |    Зарегистрирован:  1 год 5 месяцев   |    .torrent скачан:  29 раз   |   
Раздают:  1  
   
Загрузка...
 
Автор Сообщение

Galfimbul

avatar Galfimbul


Ярость Бахамута: Истоки / Shingeki no Bahamut: Genesis / Rage of Bahamut: Genesis

Страна: Япония
Год выпуска: 2014 г.
Жанр: приключения, фэнтези
Тип: TV+Special
Продолжительность: 12 эп, по ~24 мин
Озвучка:
Двухголосная (муж./жен.) Absurd & Eladiel Onibaku Group
Трехголосная SHIZA Project участники: Azazel, NesTea (1-12), Shuuma (1-3), Karkazik (4-12)
Субтитры:
русские (внешние) ASS полные/надписи
Timecraft
Перевод: Zottig, Редактура: AleX_MytH
Режиссер: Сато Кэйити
Студия:

Описание:
Когда-то давно боги, демоны и люди объединились, чтобы одолеть и запечатать огненного дракона Бахамута, угрожавшего самому бытию магического мира Мистарции. Ключ от узилища древнего зверя был разделен на две части – одну на хранение приняли боги, другую – демоны. Дальше союз распался, и каждая раса тысячи лет занималась своими делами, понемногу враждуя с другими, пока в один прекрасный день обладатели Силы не узнали, что ключ богов был украден. Как следствие, печать Бахамута зашаталась, и все в мире пришло в движение…

А вот Фаваро Леоне, молодой охотник за головами, весельчак, хвастун и бабник, не думал о судьбах мира. Вместо этого, вволю поиздевавшись над другом-соперником Кайсаром, Фаваро отмечал успешное дело, и тут судьба свела его с таинственной Амирой, которая очень убедительно попросила показать ей путь в далекий Хельхейм. Еще веселее парню стало, когда он узнал, что Амира – обладатель исчезнувшего ключа, и очень многие желают с ней тесно пообщаться. Ангелы и демоны, короли и живые святые, некроманты и вечно пьяный бог Бахус – все они и много кто еще ждут героев на пути к темнице дракона!
© Hollow, World Art
Звуковые дорожки 1-6 от Onibaku Group и SHIZA Project из релиза -FuegoAlma-
Спэшл является кратким пересказом первых шесть эпизодов и не включен в раздачу

Качество: BDRip
Тип релиза: Без хардсаба
Формат видео: MKV
Наличие линковки: Нет
Релиз/Автор рипа: Mawaru
Видео: x264, 1280x720, (16/9), 1862 Кбит/сек, 23,976fps, 10 bit
Аудио: AAC, 2 ch, 402 кбит/с, 48000Hz Язык Японский
Аудио 2: AC3 (01-06 эп.) / AAC, 2 ch, 128 (09-12 эп.) / 192кбит/с, 48000Hz Язык Русский (внешним файлом) ; Озвучка 2: Onibaku Group
Аудио 3: AC3 (01-06 эп.) / AAC, 2 ch, 192кбит/с, 48000Hz Язык Русский (внешним файлом) ; Озвучка 3: SHIZA Project
Аудио 4: AAC, 2 ch, 353 кбит/с, 48000Hz комментарии в серия 2, 5, 7, 12
Субтитры: ASS полные/надписи Язык субтитров русский ; Перевод: Timecraft (Перевод: Zottig, Редактура: AleX_MytH)
ОбщееУникальный идентификатор : 208428387125103637821482486021278382622 (0x9CCDD8E2429ED062ABADA22D7A37BA1E)Полное имя : D:\Видео\Shingeki no Bahamut Genesis\v2\Shingeki no Bahamut Genesis [BDRip 720p 10bit AAC]\Shingeki no Bahamut Genesis - 01 [BDRip 720p 10bit AAC].mkvФормат : MatroskaВерсия формата : Version 4 / Version 2Размер файла : 384 МбайтПродолжительность : 23 м.Общий поток : 2269 Кбит/секНазвание фильма : Rage of Bahamut: Genesis - 01 - Encounter WytearpДата кодирования : UTC 2016-04-21 18:38:46Программа кодирования : mkvmerge v9.0.1 ('Obstacles') 64bitБиблиотека кодирования : libebml v1.3.3 + libmatroska v1.4.4Attachments : Poster

ВидеоИдентификатор : 1Формат : AVCФормат/Информация : Advanced Video CodecПрофиль формата : High 4:4:4 Predictive@L5Параметр CABAC формата : ДаПараметр ReFrames формата : 16 кадровИдентификатор кодека : V_MPEG4/ISO/AVCПродолжительность : 23 м.Битрейт : 1862 Кбит/секШирина : 1280 пикселейВысота : 720 пикселейСоотношение сторон : 16:9Режим частоты кадров : ПостоянныйЧастота кадров : 23,976 (24000/1001) кадра/секЦветовое пространство : YUVСубдискретизация насыщенности : 4:4:4Битовая глубина : 10 битТип развёртки : ПрогрессивнаяБит/(Пиксели*Кадры) : 0.084Размер потока : 315 Мбайт (82%)Библиотека кодирования : x264 core 142 r2431+42 c69a006 tMod [10-bit@all X86_64]Настройки программы : cabac=1 / ref=16 / deblock=1:1:1 / analyse=0x3:0x133 / me=umh / subme=10 / psy=1 / fade_compensate=0.00 / psy_rd=0.40:0.00 / mixed_ref=1 / me_range=24 / chroma_me=1 / trellis=2 / 8x8dct=1 / cqm=0 / deadzone=21,11 / fast_pskip=1 / chroma_qp_offset=4 / threads=6 / lookahead_threads=1 / sliced_threads=0 / nr=0 / decimate=1 / interlaced=0 / bluray_compat=0 / constrained_intra=0 / fgo=0 / bframes=10 / b_pyramid=2 / b_adapt=2 / b_bias=0 / direct=3 / weightb=1 / open_gop=0 / weightp=2 / keyint=250 / keyint_min=23 / scenecut=40 / intra_refresh=0 / rc_lookahead=60 / rc=crf / mbtree=1 / crf=16.5000 / qcomp=0.60 / qpmin=0:0:0 / qpmax=81:81:81 / qpstep=4 / ip_ratio=1.40 / aq=3:0.70 / aq-sensitivity=10.00 / aq-factor=1.00:1.00:1.00 / aq2=0 / aq3=0Язык : JapaneseDefault : ДаForced : Нет

АудиоИдентификатор : 2Формат : AACФормат/Информация : Advanced Audio CodecПрофиль формата : LCИдентификатор кодека : A_AACПродолжительность : 23 м.Битрейт : 402 Кбит/секКаналы : 2 каналаРасположение каналов : Front: L RЧастота : 48,0 КГцЧастота кадров : 46,875 кадров/сек (1024 spf)Метод сжатия : С потерямиЗадержка видео : 9 мс.Размер потока : 68,0 Мбайт (18%)Язык : JapaneseDefault : ДаForced : Нет

Меню00:00:00.041 : en:Prologue00:02:18.065 : en:Part A00:10:38.982 : en:Part B00:21:55.491 : en:Credits00:23:24.997 : en:Preview
File: D:\Видео\Shingeki no Bahamut Genesis\Shingeki no Bahamut Genesis [BDRip 720p 10bit AAC]\Shingeki no Bahamut Genesis - 01 [BDRip 720p 10bit AAC].mkv Duration: 00:23:41 (1421.11) Track #1: video lang: jpn (2) codc: V_MPEG4/ISO/AVC -> H264/AVC (22) reso: 1280x720 -> 16:9 fram: 23.976 fps rate: 1862 kbps (1862.19) dura: 00:23:41 (1421.05) size: 315.46 MB (330781325) Track #2: audio lang: jpn -> Japanese (2) codc: A_AAC -> AAC (9) chan: 2 -> Stereo samp: 48000 Hz rate: 402 kbps (402.06) dura: 00:23:41 (1421.06) size: 68.11 MB (71418953) Sizes: (check sanity) disk: 384.34 MB (403008902) atts: 474.80 KB (486192) trac: 383.57 MB (402200278) [based on track size] bitr: 383.57 MB (402199591) [based on bitrate] tdif: 314.88 KB (322432) 0.08% bdif: 315.55 KB (323118) 0.08%
01. Схватка в Уайеттэрпе
02. Побег из Ливиана
03. Туман Нэбельвилла
04. Воссоединение в Есменпорте
05. Спасение в Долине Мечей
06. Анате, часть первая: Легендарный Святой
06.5. Сводка (пересказ первых шести эпизодов)
07. Анате, часть вторая: Буря свирепствует
08. Анате, часть третья: После бури
09. Решение в Воющем лесу
10. Хельхейм, земля обмана
11. Все дороги ведут в Абос
12. Ярость Бахамута
<a href="viewtopic.php?t=5138925" class="postLink">...5138925</a>
<a href="viewtopic.php?t=4979982" class="postLink">...4979982</a>
-BDRip 720p 10bit, битрейт видео и аудио

<a href="viewtopic.php?t=4979979" class="postLink">...4979979</a> - не обновлялась 7 месяцев, битрейт видео и аудио


Трекер:  [ 21-Апр-2016 22:00 ]

  

Скачать .torrent

Размер .torrent файла 23 KB


Размер: 6.66 GB
Хэш (hash) релиза: 4f687c74609ebaf70f82ff40a289315c100186f1
Подписка на обновления:

Торренты, похожие на Ярость Бахамута: Истоки Shingeki no Bahamut: Genesis скачать торрент

Форум Название Автор Размер S L Добавлен
Аниме | HD Rips ·· Ярость Бахамута: Истоки / Shingeki no Bahamut: Genesis / Rage of Bahamut: Genesis (Сато Кэйити) [TV+Special] [12+0 из 12+1] [без хардсаба] [RUS(ext),JAP+SUB] [2014 г., приключения, фэнтези, BDRip] [1080p] Galfimbul 1756678539516.36 GB 0 0 1451030069

10:54

25-Дек-15

Аниме | HD Rips ·· Ярость Бахамута: Истоки / Shingeki no Bahamut: Genesis / Rage of Bahamut: Genesis [TV] [3 из 12] [Без хардсаба] [RUS(ext), JAP+SUB] [2014 г., приключения, BDRip] [1080p] Galfimbul 1377996757512.83 GB 0 0 1428498637

16:10

8-Апр-15

Аниме | HD Rips ·· Ярость Бахамута: Истоки / Shingeki no Bahamut: Genesis / Rage of Bahamut: Genesis [TV] [3 из 12] [Без хардсаба] [RUS(ext), JAP+SUB] [2014 г., приключения, BDRip] [720p] Galfimbul 33800520373.15 GB 0 0 1428436016

22:46

7-Апр-15

Аниме | HD Rips ·· Ярость Бахамута: Истоки / Shingeki no Bahamut: Genesis / Rage of Bahamut: Genesis [TV] [1 из 12] [Без хардсаба] [JAP+SUB] [2014 г., приключения, BDRip] [720p] Galfimbul 865472793825 MB 0 0 1428360273

01:44

7-Апр-15

Аниме | HD Rips ·· Ярость Бахамута: Истоки / Shingeki no Bahamut: Genesis / Rage of Bahamut: Genesis [TV] [1 из 12] [Без хардсаба] [JAP+SUB] [2014 г., приключения, BDRip] [1080p] Galfimbul 39809164023.71 GB 0 0 1428358344

01:12

7-Апр-15

Аниме | Rips ·· Ярость Бахамута: Истоки / Shingeki no Bahamut: Genesis / Rage of Bahamut: Genesis [TV] [01-02 из >12] [Без хардсаба] [RUS(int), JAP+SUB] [2014 г., приключения, фэнтези, HDTVRip] [HWP] Galfimbul 722633221689 MB 0 0 1413446688

11:04

16-Окт-14

Аниме | Rips ·· Ярость Бахамута: Истоки / Shingeki no Bahamut: Genesis / Rage of Bahamut: Genesis [TV] [01 из >12] [Без хардсаба] [RUS(int), JAP+SUB] [2014 г., приключения, фэнтези, HDTVRip] [HWP] Galfimbul 349362821333 MB 0 0 1413093894

09:04

12-Окт-14

Еще никто не оставлял запись к записи скачать торрент Ярость Бахамута: Истоки Shingeki no Bahamut: Genesis . Будь первым!

!Обратная связь