Скачать через торрент музыку Светлана Лобода - Песни высшей пробы - 2010, FLAC бесплатно без регистрации torrent

Если у вас наблюдаются проблемы со скриншотами, переходом по ссылками, скачиванием торрентов - проблемы в блокировщике рекламы AdBlock. #хорошегоДня!


Статистика раздачи
Размер:  571 MB   |    Зарегистрирован:  6 лет 3 месяца   |    .torrent скачан:  238 раз   |   
Раздают:  1  
   
Загрузка...
 
Автор Сообщение

L


Светлана Лобода / Песни высшей пробы

Жанр: Pop
Страна-производитель диска: Украина
Год издания диска: 2010
Издатель (лейбл): MOON records
Номер по каталогу: MR 4813-2
Страна: Украина
Аудио кодек: FLAC (*.flac)
Тип рипа: tracks+.cue
Битрейт аудио: lossless
Наличие сканов в содержимом раздачи: да
Треклист:
01. Революция
02. Жить легко
03. Сердце бьётся (дуэт с Максом Барских)
04. За что?
05. Мишка, гадкий мальчишка
06. Я забуду тебя
07. By your side
08. Парень, ты ниЧё!
09. Счастье
10. Чёрный ангел
11. Ты не забудешь
12. Чёрно-белая зима
13. Возьми
14. Там, за облаками
15. Я тебя не помню
16. Назначаю своим
17. Be my Valentine (anti-crisis girl)
18. Революция (вгиин вги by DJ Litique)
19. Жить легко (remix by DJ Litique)
20. За что? (rock version)
 
Exact Audio Copy V0.99 prebeta 5 from 4. May 2009

Отчёт EAC об извлечении, выполненном 15. мая 2011, 1:07

Светлана Лобода / Песни высше пробы

Дисковод: HL-DT-STDVDRAM GH22NS40 Adapter: 2 ID: 1

Режим чтения : ДостоверностьИспользование точного потока : ДаОтключение кэша аудио : НетИспользование указателей C2 : Нет

Коррекция смещения при чтении : 667Способность читать области Lead-in и Lead-out : НетЗаполнение пропущенных сэмплов тишиной : ДаУдаление блоков с тишиной в начале и конце : НетПри вычислениях CRC использовались нулевые сэмплы : ДаИнтерфейс : Встроенный Win32-интерфейс для Win NT/2000Обработка зазоров : Исключено

Выходной формат : Пользовательский кодировщикВыбранный битрейт : 768 kBit/sКачество : ВысокийДобавление ID3-тэга : НетУтилита сжатия : C:\Program Files (x86)\Exact Audio Copy\FLAC\FLAC.EXEДополнительные параметры : -6 -V -T "ARTIST=%a" -T "TITLE=%t" -T "ALBUM=%g" -T "DATE=%y" -T "TRACKNUMBER=%n" -T "GENRE=%m" -T "COMMENT=%e" %s -o %d

TOC извлечённого CD

Трек | Старт | Длительность | Начальный сектор | Конечный сектор --------------------------------------------------------------------- 1 | 0:00.00 | 3:37.54 | 0 | 16328 2 | 3:37.54 | 3:53.20 | 16329 | 33823 3 | 7:30.74 | 3:28.34 | 33824 | 49457 4 | 10:59.33 | 3:41.48 | 49458 | 66080 5 | 14:41.06 | 3:35.51 | 66081 | 82256 6 | 18:16.57 | 4:05.50 | 82257 | 100681 7 | 22:22.32 | 3:28.48 | 100682 | 116329 8 | 25:51.05 | 3:00.42 | 116330 | 129871 9 | 28:51.47 | 4:22.02 | 129872 | 149523 10 | 33:13.49 | 3:55.73 | 149524 | 167221 11 | 37:09.47 | 4:00.61 | 167222 | 185282 12 | 41:10.33 | 3:14.30 | 185283 | 199862 13 | 44:24.63 | 3:48.12 | 199863 | 216974 14 | 48:13.00 | 3:38.72 | 216975 | 233396 15 | 51:51.72 | 4:01.01 | 233397 | 251472 16 | 55:52.73 | 3:40.19 | 251473 | 267991 17 | 59:33.17 | 3:00.43 | 267992 | 281534 18 | 62:33.60 | 3:49.34 | 281535 | 298743 19 | 66:23.19 | 8:05.53 | 298744 | 335171 20 | 69:46.51 | 4:42.21 | 314001 | 335171

Трек 1

Имя файла F:\www.http://рутраскер\Светлана Лобода - Песни высшей пробы (2010)\01 Светлана Лобода - Революция.wav

Длина предзазора 0:00:02.00

Пиковый уровень 79.9 % Качество трека 100.0 % CRC теста C8D8AB0C CRC копии C8D8AB0C Трек не обнаружен в базе AccurateRip Копирование... OK

Трек 2

Имя файла F:\www.http://рутраскер\Светлана Лобода - Песни высшей пробы (2010)\02 Светлана Лобода - Жить легко.wav

Пиковый уровень 89.3 % Качество трека 100.0 % CRC теста 64AE86BC CRC копии 64AE86BC Трек не обнаружен в базе AccurateRip Копирование... OK

Трек 3

Имя файла F:\www.http://рутраскер\Светлана Лобода - Песни высшей пробы (2010)\03 Светлана Лобода - Сердце бьётся (дуэт с Максом Барских).wav

Пиковый уровень 84.4 % Качество трека 100.0 % CRC теста CBD35B37 CRC копии CBD35B37 Трек не обнаружен в базе AccurateRip Копирование... OK

Трек 4

Имя файла F:\www.http://рутраскер\Светлана Лобода - Песни высшей пробы (2010)\04 Светлана Лобода - За что.wav

Пиковый уровень 66.9 % Качество трека 100.0 % CRC теста AEAD8777 CRC копии AEAD8777 Трек не обнаружен в базе AccurateRip Копирование... OK

Трек 5

Имя файла F:\www.http://рутраскер\Светлана Лобода - Песни высшей пробы (2010)\05 Светлана Лобода - Мишка, гадкий мальчишка.wav

Пиковый уровень 77.8 % Качество трека 100.0 % CRC теста 8A63A0F7 CRC копии 8A63A0F7 Трек не обнаружен в базе AccurateRip Копирование... OK

Трек 6

Имя файла F:\www.http://рутраскер\Светлана Лобода - Песни высшей пробы (2010)\06 Светлана Лобода - Я забуду тебя.wav

Пиковый уровень 87.3 % Качество трека 100.0 % CRC теста 61AD04F7 CRC копии 61AD04F7 Трек не обнаружен в базе AccurateRip Копирование... OK

Трек 7

Имя файла F:\www.http://рутраскер\Светлана Лобода - Песни высшей пробы (2010)\07 Светлана Лобода - By your side.wav

Пиковый уровень 80.1 % Качество трека 100.0 % CRC теста 1170B050 CRC копии 1170B050 Трек не обнаружен в базе AccurateRip Копирование... OK

Трек 8

Имя файла F:\www.http://рутраскер\Светлана Лобода - Песни высшей пробы (2010)\08 Светлана Лобода - Парень, ты ниЧё!.wav

Пиковый уровень 77.2 % Качество трека 100.0 % CRC теста 0273DED8 CRC копии 0273DED8 Трек не обнаружен в базе AccurateRip Копирование... OK

Трек 9

Имя файла F:\www.http://рутраскер\Светлана Лобода - Песни высшей пробы (2010)\09 Светлана Лобода - Счастье.wav

Пиковый уровень 95.6 % Качество трека 100.0 % CRC теста FABDE24D CRC копии FABDE24D Трек не обнаружен в базе AccurateRip Копирование... OK

Трек 10

Имя файла F:\www.http://рутраскер\Светлана Лобода - Песни высшей пробы (2010)\10 Светлана Лобода - Чёрный ангел.wav

Пиковый уровень 84.1 % Качество трека 100.0 % CRC теста 36183030 CRC копии 36183030 Трек не обнаружен в базе AccurateRip Копирование... OK

Трек 11

Имя файла F:\www.http://рутраскер\Светлана Лобода - Песни высшей пробы (2010)\11 Светлана Лобода - Ты не забудешь.wav

Пиковый уровень 90.1 % Качество трека 100.0 % CRC теста E820D072 CRC копии E820D072 Трек не обнаружен в базе AccurateRip Копирование... OK

Трек 12

Имя файла F:\www.http://рутраскер\Светлана Лобода - Песни высшей пробы (2010)\12 Светлана Лобода - Чёрно-белая зима.wav

Пиковый уровень 73.1 % Качество трека 100.0 % CRC теста 3A954177 CRC копии 3A954177 Трек не обнаружен в базе AccurateRip Копирование... OK

Трек 13

Имя файла F:\www.http://рутраскер\Светлана Лобода - Песни высшей пробы (2010)\13 Светлана Лобода - Возьми.wav

Пиковый уровень 85.4 % Качество трека 100.0 % CRC теста 35308299 CRC копии 35308299 Трек не обнаружен в базе AccurateRip Копирование... OK

Трек 14

Имя файла F:\www.http://рутраскер\Светлана Лобода - Песни высшей пробы (2010)\14 Светлана Лобода - Там, за облаками.wav

Пиковый уровень 85.1 % Качество трека 100.0 % CRC теста 2AAEE39B CRC копии 2AAEE39B Трек не обнаружен в базе AccurateRip Копирование... OK

Трек 15

Имя файла F:\www.http://рутраскер\Светлана Лобода - Песни высшей пробы (2010)\15 Светлана Лобода - Я тебя не помню.wav

Пиковый уровень 84.6 % Качество трека 100.0 % CRC теста 26C62928 CRC копии 26C62928 Трек не обнаружен в базе AccurateRip Копирование... OK

Трек 16

Имя файла F:\www.http://рутраскер\Светлана Лобода - Песни высшей пробы (2010)\16 Светлана Лобода - Назначаю своим.wav

Пиковый уровень 81.0 % Качество трека 100.0 % CRC теста 6497277B CRC копии 6497277B Трек не обнаружен в базе AccurateRip Копирование... OK

Трек 17

Имя файла F:\www.http://рутраскер\Светлана Лобода - Песни высшей пробы (2010)\17 Светлана Лобода - Be my Valentine (anti-crisis girl).wav

Пиковый уровень 77.3 % Качество трека 100.0 % CRC теста EFDB157A CRC копии EFDB157A Трек не обнаружен в базе AccurateRip Копирование... OK

Трек 18

Имя файла F:\www.http://рутраскер\Светлана Лобода - Песни высшей пробы (2010)\18 Светлана Лобода - Революция (dubby dub by DJ Litique).wav

Пиковый уровень 75.7 % Качество трека 99.9 % CRC теста 4AEB87C2 CRC копии 4AEB87C2 Трек не обнаружен в базе AccurateRip Копирование... OK

Трек 19

Имя файла F:\www.http://рутраскер\Светлана Лобода - Песни высшей пробы (2010)\19 Светлана Лобода - Жить легко! (remix by DJ Litique).wav

Пиковый уровень 96.4 % Качество трека 98.1 % CRC теста 91EDF570 CRC копии 56A75A56 Трек не обнаружен в базе AccurateRip Копирование завершено

Трек 20

Имя файла F:\www.http://рутраскер\Светлана Лобода - Песни высшей пробы (2010)\20 Светлана Лобода - За что (rock version).wav

Длина предзазора -0:04:42.21

Пиковый уровень 95.7 % Качество трека 99.9 % CRC теста 733F8AB7 CRC копии 733F8AB7 Трек не обнаружен в базе AccurateRip Копирование... OK

Ни одного трека нет в базе AccurateRip

Были ошибки

Конец отчёта
 
REM GENRE PopREM DATE 2010REM DISCID 3C117414REM COMMENT "ExactAudioCopy v0.99pb5"PERFORMER "Светлана Лобода"TITLE "Песни высше пробы"FILE "01 Светлана Лобода - Революция.flac" WAVE TRACK 01 AUDIO TITLE "Революция" PERFORMER "Светлана Лобода" FLAGS DCP INDEX 01 00:00:00FILE "02 Светлана Лобода - Жить легко.flac" WAVE TRACK 02 AUDIO TITLE "Жить легко" PERFORMER "Светлана Лобода" FLAGS DCP INDEX 01 00:00:00FILE "03 Светлана Лобода - Сердце бьётся (дуэт с Максом Барских).flac" WAVE TRACK 03 AUDIO TITLE "Сердце бьётся (дуэт с Максом Барских)" PERFORMER "Светлана Лобода" FLAGS DCP INDEX 01 00:00:00FILE "04 Светлана Лобода - За что?.flac" WAVE TRACK 04 AUDIO TITLE "За что" PERFORMER "Светлана Лобода" FLAGS DCP INDEX 01 00:00:00FILE "05 Светлана Лобода - Мишка, гадкий мальчишка.flac" WAVE TRACK 05 AUDIO TITLE "Мишка, гадкий мальчишка" PERFORMER "Светлана Лобода" FLAGS DCP INDEX 01 00:00:00FILE "06 Светлана Лобода - Я забуду тебя.flac" WAVE TRACK 06 AUDIO TITLE "Я забуду тебя" PERFORMER "Светлана Лобода" FLAGS DCP INDEX 01 00:00:00FILE "07 Светлана Лобода - By your side.flac" WAVE TRACK 07 AUDIO TITLE "By your side" PERFORMER "Светлана Лобода" FLAGS DCP INDEX 01 00:00:00FILE "08 Светлана Лобода - Парень, ты ниЧё!.flac" WAVE TRACK 08 AUDIO TITLE "Парень, ты ниЧё!" PERFORMER "Светлана Лобода" FLAGS DCP INDEX 01 00:00:00FILE "09 Светлана Лобода - Счастье.flac" WAVE TRACK 09 AUDIO TITLE "Счастье" PERFORMER "Светлана Лобода" FLAGS DCP INDEX 01 00:00:00FILE "10 Светлана Лобода - Чёрный ангел.flac" WAVE TRACK 10 AUDIO TITLE "Чёрный ангел" PERFORMER "Светлана Лобода" FLAGS DCP INDEX 01 00:00:00FILE "11 Светлана Лобода - Ты не забудешь.flac" WAVE TRACK 11 AUDIO TITLE "Ты не забудешь" PERFORMER "Светлана Лобода" FLAGS DCP INDEX 01 00:00:00FILE "12 Светлана Лобода - Чёрно-белая зима.flac" WAVE TRACK 12 AUDIO TITLE "Чёрно-белая зима" PERFORMER "Светлана Лобода" FLAGS DCP INDEX 01 00:00:00FILE "13 Светлана Лобода - Возьми.flac" WAVE TRACK 13 AUDIO TITLE "Возьми" PERFORMER "Светлана Лобода" FLAGS DCP INDEX 01 00:00:00FILE "14 Светлана Лобода - Там, за облаками.flac" WAVE TRACK 14 AUDIO TITLE "Там, за облаками" PERFORMER "Светлана Лобода" FLAGS DCP INDEX 01 00:00:00FILE "15 Светлана Лобода - Я тебя не помню.flac" WAVE TRACK 15 AUDIO TITLE "Я тебя не помню" PERFORMER "Светлана Лобода" FLAGS DCP INDEX 01 00:00:00FILE "16 Светлана Лобода - Назначаю своим.flac" WAVE TRACK 16 AUDIO TITLE "Назначаю своим" PERFORMER "Светлана Лобода" FLAGS DCP INDEX 01 00:00:00FILE "17 Светлана Лобода - Be my Valentine (anti-crisis girl).flac" WAVE TRACK 17 AUDIO TITLE "Be my Valentine (anti-crisis girl)" PERFORMER "Светлана Лобода" FLAGS DCP INDEX 01 00:00:00FILE "18 Светлана Лобода - Революция (dubby dub by DJ Litique).flac" WAVE TRACK 18 AUDIO TITLE "Революция (dubby dub by DJ Litique)" PERFORMER "Светлана Лобода" FLAGS DCP INDEX 01 00:00:00FILE "19 Светлана Лобода - Жить легко! (remix by DJ Litique).flac" WAVE TRACK 19 AUDIO TITLE "Жить легко! (remix by DJ Litique)" PERFORMER "Светлана Лобода" FLAGS DCP INDEX 01 00:00:00FILE "20 Светлана Лобода - За что (rock version).flac" WAVE TRACK 20 AUDIO TITLE "За что? (rock version)" PERFORMER "Светлана Лобода" FLAGS DCP INDEX 01 00:00:00


Трекер:  [ 15-Май-2011 11:34 ]

  

Скачать .torrent

Размер .torrent файла 14 KB


Размер: 571 MB
Хэш (hash) релиза: d1d5f84f02e339a46f0e5140a586eafe26708810

Еще никто не оставлял запись к записи скачать торрент Светлана Лобода - Песни высшей пробы - 2010, FLAC . Будь первым!

!Обратная связь