Скачать через торрент музыку Книга джунглей The Jungle Book бесплатно без регистрации torrent

Если у вас наблюдаются проблемы со скриншотами, переходом по ссылками, скачиванием торрентов - проблемы в блокировщике рекламы AdBlock. #хорошегоДня!


Статистика раздачи
Размер:  357 MB   |    Зарегистрирован:  1 год 7 месяцев   |    .torrent скачан:  28 раз   |   
Раздают:  1  
   
Загрузка...
 
Автор Сообщение

Galfimbul

avatar Galfimbul


Книга джунглей ● The Jungle Book
ЖанрGenre: Score
КомпозиторComposer: John Debney
Год выпуска дискаCD release: 2016
Год выпуска фильмаMovie release: 2016
Производитель дискаCD manufacturer: EU
Издатель (лейбл)Label: Walt Disney Records
Номер по каталогуCatalog #: 00050087344368
АудиокодекCodec: FLAC (*.flac)
Тип рипаRip type: tracks+.cue
Битрейт аудиоBit rate: lossless
ПродолжительностьDuration: 01:14:17
ИсточникSource: собственный рип ● own rip
Наличие сканов в раздачeScans included: нет ● no (coming later)
СсылкиLinks: Кинопоиск | IMDB | Wikipedia | SoundtrackCollector
MP3: <a href="viewtopic.php?t=5211443" class="postLink">(Score) Книга джунглей / The Jungle Book (by John Debney) - 2016, MP3 (tracks) 320 kbps</a>
John Debney: <a href="tracker.php?f=786&nm=John+Debney" class="postLink">lossless</a> | <a href="tracker.php?f=785&nm=John+Debney" class="postLink">lossy</a>
01. Dr. John and The Nite Trippers / The Bare Necessities [0:03:35.71]
02. Scarlett Johansson / Trust in Me [0:02:55.37]
03. Main Titles - Jungle Run [0:02:26.68]
04. Wolves - Law of the Jungle [0:02:15.71]
05. Water Truce [0:03:39.66]
06. The Rains Return [0:01:45.46]
07. Mowgli's Leaving - Elephant Theme [0:03:28.29]
08. Shere Khan Attacks - Stampede [0:02:06.03]
09. Kaa - Baloo to the Rescue [0:05:21.20]
10. Honeycomb Climb [0:03:31.12]
11. The Man Village [0:02:58.63]
12. Mowgli and the Pit [0:03:25.55]
13. Monkeys Kidnap Mowgli [0:01:52.05]
14. Arrival at King Louie's Temple [0:04:35.25]
15. Cold Lair Chase [0:04:02.56]
16. The Red Flower [0:03:15.35]
17. To the River [0:03:04.45]
18. Shere Khan's War Theme [0:02:37.28]
19. Shere Khan and the Fire [0:04:52.20]
20. Elephant Waterfall [0:03:27.13]
21. Mowgli Wins the Race [0:00:40.42]
22. The Jungle Book Closes [0:02:16.02]
23. Christopher Walken / I Wan'na Be Like You (2016) [0:03:02.19]
24. Bill Murray & Kermit Ruffins / The Bare Necessities [0:03:00.53]
Exact Audio Copy V1.1 from 23. June 2015

EAC extraction logfile from 19. April 2016, 19:46

John Debney / Jungle Book

Used drive : PLEXTOR CD-R PX-230A Adapter: 1 ID: 0

Read mode : SecureUtilize accurate stream : YesDefeat audio cache : YesMake use of C2 pointers : No

Read offset correction : 738Overread into Lead-In and Lead-Out : NoFill up missing offset samples with silence : YesDelete leading and trailing silent blocks : NoNull samples used in CRC calculations : YesUsed interface : Native Win32 interface for Win NT & 2000Gap handling : Appended to previous track

Used output format : User Defined EncoderSelected bitrate : 1024 kBit/sQuality : HighAdd ID3 tag : NoCommand line compressor : C:\Program Files\Exact Audio Copy\Flac\flac.exeAdditional command line options : -6 -V -T "ARTIST=%artist%" -T "TITLE=%title%" -T "ALBUM=%albumtitle%" -T "DATE=%year%"-T "TRACKNUMBER=%tracknr%" -T "GENRE=%genre%" -T "COMMENT=%comment%" -T "ALBUMARTIST=%albuminterpret%" -T "COMPOSER=%composer%"-T "DISCNUMBER=%cdnumber%" -T "TOTALDISCS=%totalcds%" -T "TOTALTRACKS=%numtracks%" %source% -o %dest%

TOC of the extracted CD

Track | Start | Length | Start sector | End sector --------------------------------------------------------- 1 | 0:00.00 | 3:35.71 | 0 | 16195 2 | 3:35.71 | 2:55.37 | 16196 | 29357 3 | 6:31.33 | 2:26.68 | 29358 | 40375 4 | 8:58.26 | 2:15.71 | 40376 | 50571 5 | 11:14.22 | 3:39.66 | 50572 | 67062 6 | 14:54.13 | 1:45.46 | 67063 | 74983 7 | 16:39.59 | 3:28.29 | 74984 | 90612 8 | 20:08.13 | 2:06.03 | 90613 | 100065 9 | 22:14.16 | 5:21.20 | 100066 | 124160 10 | 27:35.36 | 3:31.12 | 124161 | 139997 11 | 31:06.48 | 2:58.63 | 139998 | 153410 12 | 34:05.36 | 3:25.55 | 153411 | 168840 13 | 37:31.16 | 1:52.05 | 168841 | 177245 14 | 39:23.21 | 4:35.25 | 177246 | 197895 15 | 43:58.46 | 4:02.56 | 197896 | 216101 16 | 48:01.27 | 3:15.35 | 216102 | 230761 17 | 51:16.62 | 3:04.45 | 230762 | 244606 18 | 54:21.32 | 2:37.28 | 244607 | 256409 19 | 56:58.60 | 4:52.20 | 256410 | 278329 20 | 61:51.05 | 3:27.13 | 278330 | 293867 21 | 65:18.18 | 0:40.42 | 293868 | 296909 22 | 65:58.60 | 2:16.02 | 296910 | 307111 23 | 68:14.62 | 3:02.19 | 307112 | 320780 24 | 71:17.06 | 3:00.53 | 320781 | 334333

Track 1

Filename C:\Music\01 - Dr. John and The Nite Trippers - The Bare Necessities.wav

Pre-gap length 0:00:02.00

Peak level 97.8 % Extraction speed 3.9 X Track quality 100.0 % Test CRC 1D90AAA5 Copy CRC 1D90AAA5 Track not present in AccurateRip database Copy OK

Track 2

Filename C:\Music\02 - Scarlett Johansson - Trust in Me.wav

Pre-gap length 0:00:01.08

Peak level 86.8 % Extraction speed 3.9 X Track quality 100.0 % Test CRC 41C4D332 Copy CRC 41C4D332 Track not present in AccurateRip database Copy OK

Track 3

Filename C:\Music\03 - John Debney - Main Titles - Jungle Run.wav

Pre-gap length 0:00:00.49

Peak level 98.8 % Extraction speed 4.1 X Track quality 100.0 % Test CRC 16C56071 Copy CRC 16C56071 Track not present in AccurateRip database Copy OK

Track 4

Filename C:\Music\04 - John Debney - Wolves - Law of the Jungle.wav

Pre-gap length 0:00:00.72

Peak level 73.2 % Extraction speed 4.1 X Track quality 100.0 % Test CRC 72FDB0CC Copy CRC 72FDB0CC Track not present in AccurateRip database Copy OK

Track 5

Filename C:\Music\05 - John Debney - Water Truce.wav

Peak level 59.9 % Extraction speed 3.9 X Track quality 100.0 % Test CRC 993B1463 Copy CRC 993B1463 Track not present in AccurateRip database Copy OK

Track 6

Filename C:\Music\06 - John Debney - The Rains Return.wav

Pre-gap length 0:00:01.33

Peak level 34.0 % Extraction speed 3.8 X Track quality 100.0 % Test CRC 2F42F135 Copy CRC 2F42F135 Track not present in AccurateRip database Copy OK

Track 7

Filename C:\Music\07 - John Debney - Mowgli's Leaving - Elephant Theme.wav

Pre-gap length 0:00:01.33

Peak level 83.6 % Extraction speed 4.0 X Track quality 100.0 % Test CRC 9A15D8D3 Copy CRC 9A15D8D3 Track not present in AccurateRip database Copy OK

Track 8

Filename C:\Music\08 - John Debney - Shere Khan Attacks - Stampede.wav

Pre-gap length 0:00:00.71

Peak level 98.1 % Extraction speed 3.9 X Track quality 100.0 % Test CRC D66A349F Copy CRC D66A349F Track not present in AccurateRip database Copy OK

Track 9

Filename C:\Music\09 - John Debney - Kaa - Baloo to the Rescue.wav

Pre-gap length 0:00:00.24

Peak level 94.3 % Extraction speed 4.4 X Track quality 100.0 % Test CRC 4934B4D1 Copy CRC 4934B4D1 Track not present in AccurateRip database Copy OK

Track 10

Filename C:\Music\10 - John Debney - Honeycomb Climb.wav

Pre-gap length 0:00:01.14

Peak level 94.6 % Extraction speed 3.6 X Track quality 99.9 % Test CRC C1E70F14 Copy CRC C1E70F14 Track not present in AccurateRip database Copy OK

Track 11

Filename C:\Music\11 - John Debney - The Man Village.wav

Pre-gap length 0:00:01.33

Peak level 30.2 % Extraction speed 4.0 X Track quality 100.0 % Test CRC EF859654 Copy CRC EF859654 Track not present in AccurateRip database Copy OK

Track 12

Filename C:\Music\12 - John Debney - Mowgli and the Pit.wav

Pre-gap length 0:00:00.71

Peak level 94.3 % Extraction speed 3.9 X Track quality 100.0 % Test CRC 759CF5B8 Copy CRC 759CF5B8 Track not present in AccurateRip database Copy OK

Track 13

Filename C:\Music\13 - John Debney - Monkeys Kidnap Mowgli.wav

Pre-gap length 0:00:01.33

Peak level 94.4 % Extraction speed 3.8 X Track quality 100.0 % Test CRC 8A49E051 Copy CRC 8A49E051 Track not present in AccurateRip database Copy OK

Track 14

Filename C:\Music\14 - John Debney - Arrival at King Louie's Temple.wav

Pre-gap length 0:00:01.34

Peak level 94.3 % Extraction speed 4.0 X Track quality 100.0 % Test CRC 6F1FC50E Copy CRC 6F1FC50E Track not present in AccurateRip database Copy OK

Track 15

Filename C:\Music\15 - John Debney - Cold Lair Chase.wav

Pre-gap length 0:00:00.71

Peak level 94.6 % Extraction speed 3.8 X Track quality 100.0 % Test CRC 82727C97 Copy CRC 82727C97 Track not present in AccurateRip database Copy OK

Track 16

Filename C:\Music\16 - John Debney - The Red Flower.wav

Pre-gap length 0:00:02.00

Peak level 94.4 % Extraction speed 3.6 X Track quality 100.0 % Test CRC 8655A469 Copy CRC 8655A469 Track not present in AccurateRip database Copy OK

Track 17

Filename C:\Music\17 - John Debney - To the River.wav

Pre-gap length 0:00:00.33

Peak level 94.3 % Extraction speed 3.4 X Track quality 99.9 % Test CRC 4C78D180 Copy CRC 4C78D180 Track not present in AccurateRip database Copy OK

Track 18

Filename C:\Music\18 - John Debney - Shere Khan's War Theme.wav

Pre-gap length 0:00:00.33

Peak level 94.3 % Extraction speed 3.2 X Track quality 99.9 % Test CRC D6D3F328 Copy CRC D6D3F328 Track not present in AccurateRip database Copy OK

Track 19

Filename C:\Music\19 - John Debney - Shere Khan and the Fire.wav

Pre-gap length 0:00:01.33

Peak level 94.4 % Extraction speed 3.8 X Track quality 100.0 % Test CRC 63514F35 Copy CRC 63514F35 Track not present in AccurateRip database Copy OK

Track 20

Filename C:\Music\20 - John Debney - Elephant Waterfall.wav

Pre-gap length 0:00:01.33

Peak level 94.4 % Extraction speed 3.1 X Track quality 99.9 % Test CRC F1B5ACC8 Copy CRC F1B5ACC8 Track not present in AccurateRip database Copy OK

Track 21

Filename C:\Music\21 - John Debney - Mowgli Wins the Race.wav

Pre-gap length 0:00:00.52

Peak level 94.4 % Extraction speed 2.4 X Track quality 100.0 % Test CRC 9F57EE36 Copy CRC 9F57EE36 Track not present in AccurateRip database Copy OK

Track 22

Filename C:\Music\22 - John Debney - The Jungle Book Closes.wav

Pre-gap length 0:00:00.38

Peak level 95.7 % Extraction speed 3.3 X Track quality 100.0 % Test CRC A3B25FC4 Copy CRC A3B25FC4 Track not present in AccurateRip database Copy OK

Track 23

Filename C:\Music\23 - Christopher Walken - I Wan'na Be Like You (2016).wav

Pre-gap length 0:00:02.34

Peak level 94.4 % Extraction speed 3.5 X Track quality 99.9 % Test CRC 12DD0B73 Copy CRC 12DD0B73 Track not present in AccurateRip database Copy OK

Track 24

Filename C:\Music\24 - Bill Murray & Kermit Ruffins - The Bare Necessities.wav

Pre-gap length 0:00:01.17

Peak level 94.4 % Extraction speed 3.3 X Track quality 100.0 % Test CRC 7DDC5C9E Copy CRC 7DDC5C9E Track not present in AccurateRip database Copy OK

None of the tracks are present in the AccurateRip database

No errors occurred

End of status report

---- CUETools DB Plugin V2.1.6

[CTDB TOCID: 5U9S8bbVwcRCq2oMHe6oTTonDOY-] disk not present in databaseSubmit result: 5U9S8bbVwcRCq2oMHe6oTTonDOY- has been uploaded

==== Log checksum 1FBA5E1F590512000351A33412E88503DE7FE31C04489E0F8E483A9E8F0E9ACD ====
REM GENRE SoundtrackREM DATE 2016REM DISCID 56116918REM COMMENT "ExactAudioCopy v1.1"PERFORMER "John Debney"TITLE "Jungle Book"FILE "01 - Dr. John and The Nite Trippers - The Bare Necessities.wav" WAVE TRACK 01 AUDIO TITLE "The Bare Necessities" PERFORMER "Dr. John and The Nite Trippers" INDEX 01 00:00:00 TRACK 02 AUDIO TITLE "Trust in Me" PERFORMER "Scarlett Johansson" INDEX 00 03:34:63FILE "02 - Scarlett Johansson - Trust in Me.wav" WAVE INDEX 01 00:00:00 TRACK 03 AUDIO TITLE "Main Titles - Jungle Run" PERFORMER "John Debney" INDEX 00 02:54:63FILE "03 - John Debney - Main Titles - Jungle Run.wav" WAVE INDEX 01 00:00:00 TRACK 04 AUDIO TITLE "Wolves - Law of the Jungle" PERFORMER "John Debney" INDEX 00 02:25:71FILE "04 - John Debney - Wolves - Law of the Jungle.wav" WAVE INDEX 01 00:00:00FILE "05 - John Debney - Water Truce.wav" WAVE TRACK 05 AUDIO TITLE "Water Truce" PERFORMER "John Debney" INDEX 01 00:00:00 TRACK 06 AUDIO TITLE "The Rains Return" PERFORMER "John Debney" INDEX 00 03:38:33FILE "06 - John Debney - The Rains Return.wav" WAVE INDEX 01 00:00:00 TRACK 07 AUDIO TITLE "Mowgli's Leaving - Elephant Theme" PERFORMER "John Debney" INDEX 00 01:44:13FILE "07 - John Debney - Mowgli's Leaving - Elephant Theme.wav" WAVE INDEX 01 00:00:00 TRACK 08 AUDIO TITLE "Shere Khan Attacks - Stampede" PERFORMER "John Debney" INDEX 00 03:27:33FILE "08 - John Debney - Shere Khan Attacks - Stampede.wav" WAVE INDEX 01 00:00:00 TRACK 09 AUDIO TITLE "Kaa - Baloo to the Rescue" PERFORMER "John Debney" INDEX 00 02:05:54FILE "09 - John Debney - Kaa - Baloo to the Rescue.wav" WAVE INDEX 01 00:00:00 TRACK 10 AUDIO TITLE "Honeycomb Climb" PERFORMER "John Debney" INDEX 00 05:20:06FILE "10 - John Debney - Honeycomb Climb.wav" WAVE INDEX 01 00:00:00 TRACK 11 AUDIO TITLE "The Man Village" PERFORMER "John Debney" INDEX 00 03:29:54FILE "11 - John Debney - The Man Village.wav" WAVE INDEX 01 00:00:00 TRACK 12 AUDIO TITLE "Mowgli and the Pit" PERFORMER "John Debney" INDEX 00 02:57:67FILE "12 - John Debney - Mowgli and the Pit.wav" WAVE INDEX 01 00:00:00 TRACK 13 AUDIO TITLE "Monkeys Kidnap Mowgli" PERFORMER "John Debney" INDEX 00 03:24:22FILE "13 - John Debney - Monkeys Kidnap Mowgli.wav" WAVE INDEX 01 00:00:00 TRACK 14 AUDIO TITLE "Arrival at King Louie's Temple" PERFORMER "John Debney" INDEX 00 01:50:46FILE "14 - John Debney - Arrival at King Louie's Temple.wav" WAVE INDEX 01 00:00:00 TRACK 15 AUDIO TITLE "Cold Lair Chase" PERFORMER "John Debney" INDEX 00 04:34:29FILE "15 - John Debney - Cold Lair Chase.wav" WAVE INDEX 01 00:00:00 TRACK 16 AUDIO TITLE "The Red Flower" PERFORMER "John Debney" INDEX 00 04:00:56FILE "16 - John Debney - The Red Flower.wav" WAVE INDEX 01 00:00:00 TRACK 17 AUDIO TITLE "To the River" PERFORMER "John Debney" INDEX 00 03:15:02FILE "17 - John Debney - To the River.wav" WAVE INDEX 01 00:00:00 TRACK 18 AUDIO TITLE "Shere Khan's War Theme" PERFORMER "John Debney" INDEX 00 03:04:12FILE "18 - John Debney - Shere Khan's War Theme.wav" WAVE INDEX 01 00:00:00 TRACK 19 AUDIO TITLE "Shere Khan and the Fire" PERFORMER "John Debney" INDEX 00 02:35:70FILE "19 - John Debney - Shere Khan and the Fire.wav" WAVE INDEX 01 00:00:00 TRACK 20 AUDIO TITLE "Elephant Waterfall" PERFORMER "John Debney" INDEX 00 04:50:62FILE "20 - John Debney - Elephant Waterfall.wav" WAVE INDEX 01 00:00:00 TRACK 21 AUDIO TITLE "Mowgli Wins the Race" PERFORMER "John Debney" INDEX 00 03:26:36FILE "21 - John Debney - Mowgli Wins the Race.wav" WAVE INDEX 01 00:00:00 TRACK 22 AUDIO TITLE "The Jungle Book Closes" PERFORMER "John Debney" INDEX 00 00:40:04FILE "22 - John Debney - The Jungle Book Closes.wav" WAVE INDEX 01 00:00:00 TRACK 23 AUDIO TITLE "I Wan'na Be Like You (2016)" PERFORMER "Christopher Walken" INDEX 00 02:13:43FILE "23 - Christopher Walken - I Wan'na Be Like You (2016).wav" WAVE INDEX 01 00:00:00 TRACK 24 AUDIO TITLE "The Bare Necessities" PERFORMER "Bill Murray & Kermit Ruffins" INDEX 00 03:01:02FILE "24 - Bill Murray & Kermit Ruffins - The Bare Necessities.wav" WAVE INDEX 01 00:00:00


Трекер:  [ 19-Апр-2016 21:00 ]

  

Скачать .torrent

Размер .torrent файла 16 KB


Размер: 357 MB
Хэш (hash) релиза: 02ac126aace9acc4d2cbdd40d963396941c8be3f

Еще никто не оставлял запись к записи скачать торрент Книга джунглей The Jungle Book . Будь первым!

!Обратная связь