Скачать через торрент Блэк Джек Лучший Альбом Black Jack Best Album бесплатно Аниме Все серии на русском torrent

Статистика раздачи
Размер:  1.3 GB   |    Зарегистрирован:  1 год 1 месяц   |    .torrent скачан:  42 раза   |   
Раздают:  1  
   
 
Автор Сообщение

Galfimbul

avatar Galfimbul


Блэк Джек Лучший Альбом / Black Jack Best Album (Bonus DVD)

Страна: Япония
Год выпуска: 2006 г.
Жанр: Саундтрек
Тип: TV
Лейбл: Avex Mode
Продолжительность: 17:20

Описание: Бонусный DVD диск к двухдисковому изданию Black Jack Best Album с чистыми опенингами и эндингами к TV сериалам о Блэк Джеке (Black Jack, Black Jack 21 и к полнометражке Black Jack - Futari no Kuroi Isha).

Качество: DVD5
Формат экрана: 16:9
Система / Разрешение: NTSC (720x480)
Средний битрейт: 7950 Kbps
Аудио: LPCM, 1536 kbps, 48000 Hz, 2 ch
Язык: Японский
GeneralComplete name : J:\Black Jack Best Album (Bonus DVD)\VIDEO_TS\VIDEO_TS.IFOFormat : DVD VideoFormat profile : MenuFile size : 12.0 KiBOverall bit rate mode : Variable

VideoID : 224 (0xE0)Format : MPEG VideoFormat version : Version 2Bit rate mode : VariableWidth : 720 pixelsHeight : 480 pixelsDisplay aspect ratio : 16:9Frame rate : 29.970 fpsStandard : NTSCCompression mode : Lossy

AudioFormat : PCMChannel(s) : 2 channelsSampling rate : 48.0 KHz

TextFormat : RLEFormat/Info : Run-length encodingBit depth : 2 bits
GeneralComplete name : J:\Black Jack Best Album (Bonus DVD)\VIDEO_TS\VTS_01_1.VOBFormat : MPEG-PSFile size : 1 024 MiBDuration : 2mn 16sOverall bit rate : 63.1 Mbps

VideoID : 224 (0xE0)Format : MPEG VideoFormat version : Version 2Format profile : Main@MainFormat settings, BVOP : YesFormat settings, Matrix : CustomFormat settings, GOP : VariableFormat settings, picture struc : FrameDuration : 2mn 16sBit rate : 60.3 MbpsMaximum bit rate : 7 950 KbpsWidth : 720 pixelsHeight : 480 pixelsDisplay aspect ratio : 16:9Frame rate : 29.970 fpsStandard : NTSCColor space : YUVChroma subsampling : 4:2:0Bit depth : 8 bitsScan type : InterlacedScan order : Top Field FirstCompression mode : LossyBits/(Pixel*Frame) : 5.820Time code of first frame : 00:06:00;02Time code source : Group of pictures headerGOP, Open/Closed : OpenGOP, Open/Closed of first fram : ClosedStream size : 979 MiB (96%)

AudioID : 189 (0xBD)-160 (0xA0)Format : PCMFormat settings, Endianness : BigFormat settings, Sign : SignedMuxing mode : DVD-VideoDuration : 2mn 15sBit rate mode : ConstantBit rate : 1 536 KbpsChannel(s) : 2 channelsSampling rate : 48.0 KHzBit depth : 16 bitsStream size : 24.9 MiB (2%)

Menu
01. Janne Da Arc - Gekkou Hana (OP)
02. Ai Otsuka - Kuroge Wagyuukamishio Tan Yaki 680 En (ED)
03. Globe - Here I Am (OP)
04. Hiro - Clover (ED)
05. Ami Suzuki - Fantastic (OP)
06. Exile - Careless Breath (ED)
07. Hitomi Shimatani - Destiny - Taiyou no Hana - (OP)
08. TRF - Silence Whispers (ED)
09. Tourbillon - Mouichido Kimi Ni (ED)


Трекер:  [ 19-Апр-2016 18:30 ]

  

Скачать .torrent

Размер .torrent файла 14 KB


Размер: 1.3 GB
Хэш (hash) релиза: 37c3b01ffd848992e4ec7510e3acd4c036285b93
Подписка на обновления:

Еще никто не оставлял запись к записи скачать торрент Блэк Джек Лучший Альбом Black Jack Best Album . Будь первым!

!Обратная связь