Скачать через торрент музыку Камелот Camelot бесплатно без регистрации torrent

Если у вас наблюдаются проблемы со скриншотами, переходом по ссылками, скачиванием торрентов - проблемы в блокировщике рекламы AdBlock. #хорошегоДня!


Статистика раздачи
Размер:  239 MB   |    Зарегистрирован:  6 лет 6 месяцев   |    .torrent скачан:  82 раза   |   
Раздают:  1  
   
Загрузка...
 
Автор Сообщение

L


Камелот / Camelot
Music by Jeff Danna and Mychael Danna


Жанр: Score
Год выпуска диска: 2011
Издатель (лейбл): Varese Sarabande
Номер по каталогу: 302 067 089 2
Аудио кодек: FLAC (*.flac)
Тип рипа: tracks+.cue
Битрейт аудио: lossless
Продолжительность: 00:48:52
Источник: LzTr (nazgul68)
01. Camelot Main Titles (1:35)
02. Kay's Vision Of His Father (3:00)
03. Gawain And Arthur Duel (0:56)
04. Justice Compared (2:55)
05. Coronation Of King Arthur (1:43)
06. Drowning Of Excalibur (3:52)
07. Lady Ector's Funeral (1:48)
08. Riding To Camelot (1:27)
09. Sword Of Destiny (0:39)
10. Be My Light (3:20)
11. Morgan And The Nun (0:42)
12. Arwen's Tale Of The Fire (2:02)
13. The Great Hall At Camelot (1:46)
14. View From The Battlements (1:15)
15. The Beach (2:56)
16. The Nun Arrives (0:58)
17. Did They Spare Her? (3:13)
18. Death Of Guinivere's Father (2:27)
19. Morgan's Council (2:24)
20. A Village Protected (1:58)
21. Court At Pendragon (2:30)
22. Souls Of The Departed (1:45)
23. Merlin's Story Of The Sword (1:55)
24. Kay Arrives At His Father's House (1:45)
 
Exact Audio Copy V0.99 prebeta 5 from 4. May 2009

EAC extraction logfile from 11. May 2011, 19:28

Mychael and Jeff Danna / Camelot

Used drive : Optiarc DVD RW AD-7241S Adapter: 1 ID: 0

Read mode : SecureUtilize accurate stream : YesDefeat audio cache : YesMake use of C2 pointers : No

Read offset correction : 48Overread into Lead-In and Lead-Out : NoFill up missing offset samples with silence : YesDelete leading and trailing silent blocks : NoNull samples used in CRC calculations : YesUsed interface : Native Win32 interface for Win NT & 2000Gap handling : Appended to previous track

Used output format : User Defined EncoderSelected bitrate : 128 kBit/sQuality : HighAdd ID3 tag : NoCommand line compressor : C:\Program Files (x86)\Exact Audio Copy\Flac\flac.exeAdditional command line options : -8 -V -T "artist=%a" -T "title=%t" -T "album=%g" -T "date=%y" -T "tracknumber=%n" -T "genre=%m" %s

TOC of the extracted CD

Track | Start | Length | Start sector | End sector --------------------------------------------------------- 1 | 0:05.31 | 1:35.07 | 406 | 7537 2 | 1:40.38 | 2:59.41 | 7538 | 21003 3 | 4:40.04 | 0:56.33 | 21004 | 25236 4 | 5:36.37 | 2:55.09 | 25237 | 38370 5 | 8:31.46 | 1:43.15 | 38371 | 46110 6 | 10:14.61 | 3:52.26 | 46111 | 63536 7 | 14:07.12 | 1:48.14 | 63537 | 71650 8 | 15:55.26 | 1:27.01 | 71651 | 78176 9 | 17:22.27 | 0:39.28 | 78177 | 81129 10 | 18:01.55 | 3:19.49 | 81130 | 96103 11 | 21:21.29 | 0:41.48 | 96104 | 99226 12 | 22:03.02 | 2:02.31 | 99227 | 108407 13 | 24:05.33 | 1:46.19 | 108408 | 116376 14 | 25:51.52 | 1:14.44 | 116377 | 121970 15 | 27:06.21 | 2:56.30 | 121971 | 135200 16 | 30:02.51 | 0:58.15 | 135201 | 139565 17 | 31:00.66 | 3:13.11 | 139566 | 154051 18 | 34:14.02 | 2:27.37 | 154052 | 165113 19 | 36:41.39 | 2:24.01 | 165114 | 175914 20 | 39:05.40 | 1:58.07 | 175915 | 184771 21 | 41:03.47 | 2:30.33 | 184772 | 196054 22 | 43:34.05 | 1:45.31 | 196055 | 203960 23 | 45:19.36 | 1:55.33 | 203961 | 212618 24 | 47:14.69 | 1:44.64 | 212619 | 220482

Track 1

Filename C:\Users\chris\Desktop\Rips\01 - Camelot Main Titles.wav

Pre-gap length 0:00:07.31

Peak level 94.4 % Track quality 100.0 % Test CRC 0D4B2EFA Copy CRC 0D4B2EFA Track not present in AccurateRip database Copy OK

Track 2

Filename C:\Users\chris\Desktop\Rips\02 - Kay's Vision Of His Father.wav

Peak level 94.4 % Track quality 100.0 % Test CRC CDB37667 Copy CRC CDB37667 Track not present in AccurateRip database Copy OK

Track 3

Filename C:\Users\chris\Desktop\Rips\03 - Gawain And Arthur Duel.wav

Peak level 95.0 % Track quality 99.8 % Test CRC 2B5D1DAA Copy CRC 2B5D1DAA Track not present in AccurateRip database Copy OK

Track 4

Filename C:\Users\chris\Desktop\Rips\04 - Justice Compared.wav

Pre-gap length 0:00:00.26

Peak level 94.7 % Track quality 100.0 % Test CRC 60A88FD2 Copy CRC 60A88FD2 Track not present in AccurateRip database Copy OK

Track 5

Filename C:\Users\chris\Desktop\Rips\05 - Coronation Of King Arthur.wav

Pre-gap length 0:00:00.22

Peak level 94.4 % Track quality 100.0 % Test CRC 169CB871 Copy CRC 169CB871 Track not present in AccurateRip database Copy OK

Track 6

Filename C:\Users\chris\Desktop\Rips\06 - Drowning Of Excalibur.wav

Pre-gap length 0:00:00.07

Peak level 84.5 % Track quality 100.0 % Test CRC E234A787 Copy CRC E234A787 Track not present in AccurateRip database Copy OK

Track 7

Filename C:\Users\chris\Desktop\Rips\07 - Lady Ector's Funeral.wav

Pre-gap length 0:00:02.61

Peak level 94.4 % Track quality 100.0 % Test CRC 98584174 Copy CRC 98584174 Track not present in AccurateRip database Copy OK

Track 8

Filename C:\Users\chris\Desktop\Rips\08 - Riding To Camelot.wav

Peak level 99.3 % Track quality 99.8 % Test CRC C4EBBE82 Copy CRC C4EBBE82 Track not present in AccurateRip database Copy OK

Track 9

Filename C:\Users\chris\Desktop\Rips\09 - Sword Of Destiny.wav

Pre-gap length 0:00:01.66

Peak level 94.4 % Track quality 100.0 % Test CRC B74EE63E Copy CRC B74EE63E Track not present in AccurateRip database Copy OK

Track 10

Filename C:\Users\chris\Desktop\Rips\10 - Be My Light.wav

Peak level 94.4 % Track quality 100.0 % Test CRC F863F695 Copy CRC F863F695 Track not present in AccurateRip database Copy OK

Track 11

Filename C:\Users\chris\Desktop\Rips\11 - Morgan And The Nun.wav

Peak level 75.2 % Track quality 100.0 % Test CRC 163F53D4 Copy CRC 163F53D4 Track not present in AccurateRip database Copy OK

Track 12

Filename C:\Users\chris\Desktop\Rips\12 - Arwen's Tale Of The Fire.wav

Pre-gap length 0:00:01.52

Peak level 94.4 % Track quality 100.0 % Test CRC 4983DF30 Copy CRC 4983DF30 Track not present in AccurateRip database Copy OK

Track 13

Filename C:\Users\chris\Desktop\Rips\13 - The Great Hall At Camelot.wav

Pre-gap length 0:00:02.12

Peak level 94.7 % Track quality 99.8 % Test CRC 1F1D4FA8 Copy CRC 1F1D4FA8 Track not present in AccurateRip database Copy OK

Track 14

Filename C:\Users\chris\Desktop\Rips\14 - View From The Battlements.wav

Peak level 74.9 % Track quality 100.0 % Test CRC BF133C8E Copy CRC BF133C8E Track not present in AccurateRip database Copy OK

Track 15

Filename C:\Users\chris\Desktop\Rips\15 - The Beach.wav

Peak level 94.4 % Track quality 100.0 % Test CRC 9452E5F9 Copy CRC 9452E5F9 Track not present in AccurateRip database Copy OK

Track 16

Filename C:\Users\chris\Desktop\Rips\16 - The Nun Arrives.wav

Peak level 94.4 % Track quality 100.0 % Test CRC 8238CE62 Copy CRC 8238CE62 Track not present in AccurateRip database Copy OK

Track 17

Filename C:\Users\chris\Desktop\Rips\17 - Did They Spare Her .wav

Pre-gap length 0:00:02.67

Peak level 94.4 % Track quality 100.0 % Test CRC 5137E448 Copy CRC 5137E448 Track not present in AccurateRip database Copy OK

Track 18

Filename C:\Users\chris\Desktop\Rips\18 - Death Of Guinivere's Father.wav

Pre-gap length 0:00:04.37

Peak level 82.4 % Track quality 100.0 % Test CRC 22972B3C Copy CRC 22972B3C Track not present in AccurateRip database Copy OK

Track 19

Filename C:\Users\chris\Desktop\Rips\19 - Morgan's Council.wav

Pre-gap length 0:00:01.43

Peak level 83.6 % Track quality 100.0 % Test CRC 02B4DA29 Copy CRC 02B4DA29 Track not present in AccurateRip database Copy OK

Track 20

Filename C:\Users\chris\Desktop\Rips\20 - A Village Protected.wav

Pre-gap length 0:00:01.66

Peak level 94.4 % Track quality 100.0 % Test CRC 7181E982 Copy CRC 7181E982 Track not present in AccurateRip database Copy OK

Track 21

Filename C:\Users\chris\Desktop\Rips\21 - Court At Pendragon.wav

Pre-gap length 0:00:01.66

Peak level 96.5 % Track quality 99.9 % Test CRC CC7BCC07 Copy CRC CC7BCC07 Track not present in AccurateRip database Copy OK

Track 22

Filename C:\Users\chris\Desktop\Rips\22 - Souls Of The Departed.wav

Pre-gap length 0:00:01.66

Peak level 96.5 % Track quality 100.0 % Test CRC 4CFEC6C5 Copy CRC 4CFEC6C5 Track not present in AccurateRip database Copy OK

Track 23

Filename C:\Users\chris\Desktop\Rips\23 - Merlin's Story Of The Sword.wav

Peak level 94.4 % Track quality 100.0 % Test CRC 3C18AAAC Copy CRC 3C18AAAC Track not present in AccurateRip database Copy OK

Track 24

Filename C:\Users\chris\Desktop\Rips\24 - Kay Arrives At His Father's House.wav

Pre-gap length 0:00:03.53

Peak level 79.3 % Track quality 100.0 % Test CRC DA505E8F Copy CRC DA505E8F Track not present in AccurateRip database Copy OK

None of the tracks are present in the AccurateRip database

No errors occurred

End of status report
 
REM GENRE SoundtrackREM DATE 2011REM DISCID 430B7618REM COMMENT "ExactAudioCopy v0.99pb5"PERFORMER "Mychael and Jeff Danna"TITLE "Camelot"FILE "01 - Camelot Main Titles.wav" WAVE TRACK 01 AUDIO TITLE "Camelot Main Titles" PERFORMER "Mychael and Jeff Danna" PREGAP 00:05:31 INDEX 01 00:00:00FILE "02 - Kay's Vision Of His Father.wav" WAVE TRACK 02 AUDIO TITLE "Kay's Vision Of His Father" PERFORMER "Mychael and Jeff Danna" INDEX 01 00:00:00FILE "03 - Gawain And Arthur Duel.wav" WAVE TRACK 03 AUDIO TITLE "Gawain And Arthur Duel" PERFORMER "Mychael and Jeff Danna" INDEX 01 00:00:00 TRACK 04 AUDIO TITLE "Justice Compared" PERFORMER "Mychael and Jeff Danna" INDEX 00 00:56:07FILE "04 - Justice Compared.wav" WAVE INDEX 01 00:00:00 TRACK 05 AUDIO TITLE "Coronation Of King Arthur" PERFORMER "Mychael and Jeff Danna" INDEX 00 02:54:62FILE "05 - Coronation Of King Arthur.wav" WAVE INDEX 01 00:00:00 TRACK 06 AUDIO TITLE "Drowning Of Excalibur" PERFORMER "Mychael and Jeff Danna" INDEX 00 01:43:08FILE "06 - Drowning Of Excalibur.wav" WAVE INDEX 01 00:00:00 TRACK 07 AUDIO TITLE "Lady Ector's Funeral" PERFORMER "Mychael and Jeff Danna" INDEX 00 03:49:40FILE "07 - Lady Ector's Funeral.wav" WAVE INDEX 01 00:00:00FILE "08 - Riding To Camelot.wav" WAVE TRACK 08 AUDIO TITLE "Riding To Camelot" PERFORMER "Mychael and Jeff Danna" INDEX 01 00:00:00 TRACK 09 AUDIO TITLE "Sword Of Destiny" PERFORMER "Mychael and Jeff Danna" INDEX 00 01:25:10FILE "09 - Sword Of Destiny.wav" WAVE INDEX 01 00:00:00FILE "10 - Be My Light.wav" WAVE TRACK 10 AUDIO TITLE "Be My Light" PERFORMER "Mychael and Jeff Danna" INDEX 01 00:00:00FILE "11 - Morgan And The Nun.wav" WAVE TRACK 11 AUDIO TITLE "Morgan And The Nun" PERFORMER "Mychael and Jeff Danna" INDEX 01 00:00:00 TRACK 12 AUDIO TITLE "Arwen's Tale Of The Fire" PERFORMER "Mychael and Jeff Danna" INDEX 00 00:39:71FILE "12 - Arwen's Tale Of The Fire.wav" WAVE INDEX 01 00:00:00 TRACK 13 AUDIO TITLE "The Great Hall At Camelot" PERFORMER "Mychael and Jeff Danna" INDEX 00 02:00:19FILE "13 - The Great Hall At Camelot.wav" WAVE INDEX 01 00:00:00FILE "14 - View From The Battlements.wav" WAVE TRACK 14 AUDIO TITLE "View From The Battlements" PERFORMER "Mychael and Jeff Danna" INDEX 01 00:00:00FILE "15 - The Beach.wav" WAVE TRACK 15 AUDIO TITLE "The Beach" PERFORMER "Mychael and Jeff Danna" INDEX 01 00:00:00FILE "16 - The Nun Arrives.wav" WAVE TRACK 16 AUDIO TITLE "The Nun Arrives" PERFORMER "Mychael and Jeff Danna" INDEX 01 00:00:00 TRACK 17 AUDIO TITLE "Did They Spare Her?" PERFORMER "Mychael and Jeff Danna" INDEX 00 00:55:23FILE "17 - Did They Spare Her .wav" WAVE INDEX 01 00:00:00 TRACK 18 AUDIO TITLE "Death Of Guinivere's Father" PERFORMER "Mychael and Jeff Danna" INDEX 00 03:08:49FILE "18 - Death Of Guinivere's Father.wav" WAVE INDEX 01 00:00:00 TRACK 19 AUDIO TITLE "Morgan's Council" PERFORMER "Mychael and Jeff Danna" INDEX 00 02:25:69FILE "19 - Morgan's Council.wav" WAVE INDEX 01 00:00:00 TRACK 20 AUDIO TITLE "A Village Protected" PERFORMER "Mychael and Jeff Danna" INDEX 00 02:22:10FILE "20 - A Village Protected.wav" WAVE INDEX 01 00:00:00 TRACK 21 AUDIO TITLE "Court At Pendragon" PERFORMER "Mychael and Jeff Danna" INDEX 00 01:56:16FILE "21 - Court At Pendragon.wav" WAVE INDEX 01 00:00:00 TRACK 22 AUDIO TITLE "Souls Of The Departed" PERFORMER "Mychael and Jeff Danna" INDEX 00 02:28:42FILE "22 - Souls Of The Departed.wav" WAVE INDEX 01 00:00:00FILE "23 - Merlin's Story Of The Sword.wav" WAVE TRACK 23 AUDIO TITLE "Merlin's Story Of The Sword" PERFORMER "Mychael and Jeff Danna" INDEX 01 00:00:00 TRACK 24 AUDIO TITLE "Kay Arrives At His Father's House" PERFORMER "Mychael and Jeff Danna" INDEX 00 01:51:55FILE "24 - Kay Arrives At His Father's House.wav" WAVE INDEX 01 00:00:00


Трекер:  [ 12-Май-2011 22:32 ]

  

Скачать .torrent

Размер .torrent файла 11 KB


Размер: 239 MB
Хэш (hash) релиза: 9ddcf4f96892a21409c9e8a6315c87252b3e36fb

Еще никто не оставлял запись к записи скачать торрент Камелот Camelot . Будь первым!

!Обратная связь