Скачать через торрент музыку Инквизитор: Колодец и маятник The Pit And The Pendulum бесплатно без регистрации torrent

Если у вас наблюдаются проблемы со скриншотами, переходом по ссылками, скачиванием торрентов - проблемы в блокировщике рекламы AdBlock. #хорошегоДня!


Статистика раздачи
Размер:  390 MB   |    Зарегистрирован:  1 год 7 месяцев   |    .torrent скачан:  8 раз   |   
Раздают:  1  
   
Загрузка...
 
Автор Сообщение

Galfimbul

avatar Galfimbul


Инквизитор: Колодец и маятник / The Pit And The Pendulum [Expanded]
Жанр: Score
Композитор: Richard Band
Год выпуска диска: 2014
Год выпуска фильма: 1991
Производитель диска: USA
Издатель (лейбл): Perseverance Records
Номер по каталогу: PRD 072
Аудиокодек: FLAC (*.flac)
Тип рипа: tracks+.cue
Битрейт аудио: lossless
Продолжительность: 01:03:57
Источник: собственный рип
Наличие сканов в содержимом раздачи: да, 600 dpi
Ссылки: Кинопоиск | IMDB | Wikipedia | SoundtrackCollector
MP3: <a href="viewtopic.php?t=5208481" class="postLink">(Score) Инквизитор: Колодец и маятник / The Pit And The Pendulum [Expanded] (by Richard Band) - 2014 (1991), MP3 (tracks) 320 kbps</a>
Original Score: <a href="viewtopic.php?t=5206027" class="postLink">(Score) Инквизитор: Колодец и маятник / The Pit And The Pendulum (by Richard Band) - 1991, FLAC (tracks+.cue), lossless</a>
Richard Band: <a href="tracker.php?f=786&nm=Richard+Band" class="postLink">lossless</a> | <a href="tracker.php?f=785&nm=Richard+Band" class="postLink">lossy</a>
01. The Crypt [0:01:00.67]
02. The Whipping [0:01:00.57]
03. Main Title [0:04:00.68]
04. Maria & Antonio [0:00:16.47]
05. The Chase [0:02:19.66]
06. Auto Da Fe [0:02:34.54]
07. Torquemada Meets Maria [0:01:17.20]
08. Antonio's Disbelief [0:00:20.64]
09. Maria Is Searched [0:01:09.48]
10. Torquemada's Flogging [0:01:04.61]
11. Under The Cart [0:00:59.27]
12. Antonio Searcehs Dungeon [0:01:39.41]
13. The Meadow [0:01:32.47]
14. Torquemada Takes Maria [0:01:16.08]
15. Maria Is Shown Chamber [0:01:27.35]
16. Antonio Breaks Loose [0:04:03.09]
17. The Pope's Envoy [0:02:14.73]
18. The Rape Of Maria [0:06:00.26]
19. Torquemada Cuts Out Maria's Tongue [0:02:26.25]
20. Esmeralda Comforts Maria [0:01:41.27]
21. Maria Is Buried In The Crypt [0:00:40.58]
22. Esmeralda's Auto Da Fe [0:00:33.56]
23. Esmeralda's Curse [0:02:57.64]
24. Mendoza Sees Torquemada By Maria's Crypt [0:01:16.74]
25. The Pit And The Pendulum [0:08:44.66]
26. Maria Rises From Crypt [0:05:20.39]
27. Finale & End Titles [0:05:53.37]
Exact Audio Copy V1.1 from 23. June 2015

EAC extraction logfile from 13. April 2016, 0:00

Richard Band / The Pit And The Pendulum

Used drive : PLEXTOR CD-R PX-230A Adapter: 1 ID: 2

Read mode : SecureUtilize accurate stream : YesDefeat audio cache : YesMake use of C2 pointers : No

Read offset correction : 738Overread into Lead-In and Lead-Out : NoFill up missing offset samples with silence : YesDelete leading and trailing silent blocks : NoNull samples used in CRC calculations : YesUsed interface : Native Win32 interface for Win NT & 2000Gap handling : Appended to previous track

Used output format : User Defined EncoderSelected bitrate : 1024 kBit/sQuality : HighAdd ID3 tag : NoCommand line compressor : C:\Program Files (x86)\Exact Audio Copy\FLAC\FLAC.EXEAdditional command line options : -6 -V -T "ARTIST=%artist%" -T "TITLE=%title%" -T "ALBUM=%albumtitle%" -T "DATE=%year%"-T "TRACKNUMBER=%tracknr%" -T "GENRE=%genre%" -T "COMMENT=%comment%" -T "ALBUMARTIST=%albuminterpret%" -T "COMPOSER=%composer%"-T "DISCNUMBER=%cdnumber%" -T "TOTALDISCS=%totalcds%" -T "TOTALTRACKS=%numtracks%" %source% -o %dest%

TOC of the extracted CD

Track | Start | Length | Start sector | End sector --------------------------------------------------------- 1 | 0:00.00 | 1:00.67 | 0 | 4566 2 | 1:00.67 | 1:00.57 | 4567 | 9123 3 | 2:01.49 | 4:00.68 | 9124 | 27191 4 | 6:02.42 | 0:16.47 | 27192 | 28438 5 | 6:19.14 | 2:19.66 | 28439 | 38929 6 | 8:39.05 | 2:34.54 | 38930 | 50533 7 | 11:13.59 | 1:17.20 | 50534 | 56328 8 | 12:31.04 | 0:20.64 | 56329 | 57892 9 | 12:51.68 | 1:09.48 | 57893 | 63115 10 | 14:01.41 | 1:04.61 | 63116 | 67976 11 | 15:06.27 | 0:59.27 | 67977 | 72428 12 | 16:05.54 | 1:39.41 | 72429 | 79894 13 | 17:45.20 | 1:32.47 | 79895 | 86841 14 | 19:17.67 | 1:16.08 | 86842 | 92549 15 | 20:34.00 | 1:27.35 | 92550 | 99109 16 | 22:01.35 | 4:03.09 | 99110 | 117343 17 | 26:04.44 | 2:14.73 | 117344 | 127466 18 | 28:19.42 | 6:00.26 | 127467 | 154492 19 | 34:19.68 | 2:26.25 | 154493 | 165467 20 | 36:46.18 | 1:41.27 | 165468 | 173069 21 | 38:27.45 | 0:40.58 | 173070 | 176127 22 | 39:08.28 | 0:33.56 | 176128 | 178658 23 | 39:42.09 | 2:57.64 | 178659 | 191997 24 | 42:39.73 | 1:16.74 | 191998 | 197771 25 | 43:56.72 | 8:44.66 | 197772 | 237137 26 | 52:41.63 | 5:20.39 | 237138 | 261176 27 | 58:02.27 | 5:53.37 | 261177 | 287688

Track 1

Filename C:\Music\01 - Richard Band - The Crypt.wav

Pre-gap length 0:00:02.00

Peak level 96.3 % Extraction speed 3.5 X Track quality 100.0 % Test CRC 55CCC339 Copy CRC 55CCC339 Accurately ripped (confidence 2) [870FAD50] (AR v2) Copy OK

Track 2

Filename C:\Music\02 - Richard Band - The Whipping.wav

Peak level 88.8 % Extraction speed 2.8 X Track quality 99.8 % Test CRC 55355F41 Copy CRC 55355F41 Accurately ripped (confidence 2) [9B92B7AF] (AR v2) Copy OK

Track 3

Filename C:\Music\03 - Richard Band - Main Title.wav

Peak level 96.6 % Extraction speed 5.3 X Track quality 100.0 % Test CRC 40C712C7 Copy CRC 40C712C7 Accurately ripped (confidence 2) [067D681D] (AR v2) Copy OK

Track 4

Filename C:\Music\04 - Richard Band - Maria & Antonio.wav

Peak level 47.3 % Extraction speed 1.7 X Track quality 100.0 % Test CRC C705489B Copy CRC C705489B Accurately ripped (confidence 2) [AD02E1FE] (AR v2) Copy OK

Track 5

Filename C:\Music\05 - Richard Band - The Chase.wav

Peak level 94.4 % Extraction speed 4.9 X Track quality 100.0 % Test CRC 7C16AA2E Copy CRC 7C16AA2E Accurately ripped (confidence 2) [78444F22] (AR v2) Copy OK

Track 6

Filename C:\Music\06 - Richard Band - Auto Da Fe.wav

Pre-gap length 0:00:00.31

Peak level 96.6 % Extraction speed 4.1 X Track quality 99.9 % Test CRC E1F961DE Copy CRC E1F961DE Accurately ripped (confidence 2) [3273E2CC] (AR v2) Copy OK

Track 7

Filename C:\Music\07 - Richard Band - Torquemada Meets Maria.wav

Peak level 96.6 % Extraction speed 4.1 X Track quality 100.0 % Test CRC 9BE8F9FF Copy CRC 9BE8F9FF Accurately ripped (confidence 2) [49CA88F4] (AR v2) Copy OK

Track 8

Filename C:\Music\08 - Richard Band - Antonio's Disbelief.wav

Peak level 79.1 % Extraction speed 2.2 X Track quality 100.0 % Test CRC 954C66F0 Copy CRC 954C66F0 Accurately ripped (confidence 2) [F4B927EA] (AR v2) Copy OK

Track 9

Filename C:\Music\09 - Richard Band - Maria Is Searched.wav

Peak level 96.6 % Extraction speed 4.0 X Track quality 100.0 % Test CRC BFB5287E Copy CRC BFB5287E Accurately ripped (confidence 2) [1FBC4112] (AR v2) Copy OK

Track 10

Filename C:\Music\10 - Richard Band - Torquemada's Flogging.wav

Peak level 79.1 % Extraction speed 3.9 X Track quality 100.0 % Test CRC 1EB7A24A Copy CRC 1EB7A24A Accurately ripped (confidence 2) [2FB7850D] (AR v2) Copy OK

Track 11

Filename C:\Music\11 - Richard Band - Under The Cart.wav

Peak level 92.0 % Extraction speed 3.8 X Track quality 100.0 % Test CRC D1871839 Copy CRC D1871839 Accurately ripped (confidence 2) [37A31262] (AR v2) Copy OK

Track 12

Filename C:\Music\12 - Richard Band - Antonio Searcehs Dungeon.wav

Peak level 96.6 % Extraction speed 4.5 X Track quality 100.0 % Test CRC C6F4722B Copy CRC C6F4722B Accurately ripped (confidence 2) [1920F19B] (AR v2) Copy OK

Track 13

Filename C:\Music\13 - Richard Band - The Meadow.wav

Peak level 96.6 % Extraction speed 3.4 X Track quality 99.8 % Test CRC 94D79B07 Copy CRC 94D79B07 Accurately ripped (confidence 2) [FDFCE5DD] (AR v2) Copy OK

Track 14

Filename C:\Music\14 - Richard Band - Torquemada Takes Maria.wav

Peak level 87.9 % Extraction speed 4.1 X Track quality 100.0 % Test CRC 1C8AB81F Copy CRC 1C8AB81F Accurately ripped (confidence 2) [103CA60B] (AR v2) Copy OK

Track 15

Filename C:\Music\15 - Richard Band - Maria Is Shown Chamber.wav

Peak level 96.6 % Extraction speed 4.3 X Track quality 100.0 % Test CRC A58B61E6 Copy CRC A58B61E6 Accurately ripped (confidence 2) [84AB0DA5] (AR v2) Copy OK

Track 16

Filename C:\Music\16 - Richard Band - Antonio Breaks Loose.wav

Peak level 96.6 % Extraction speed 4.8 X Track quality 100.0 % Test CRC 7B5424E7 Copy CRC 7B5424E7 Accurately ripped (confidence 2) [E1898CEA] (AR v2) Copy OK

Track 17

Filename C:\Music\17 - Richard Band - The Pope's Envoy.wav

Peak level 96.6 % Extraction speed 4.8 X Track quality 100.0 % Test CRC 9F6C2785 Copy CRC 9F6C2785 Accurately ripped (confidence 2) [E66171D7] (AR v2) Copy OK

Track 18

Filename C:\Music\18 - Richard Band - The Rape Of Maria.wav

Peak level 96.6 % Extraction speed 5.5 X Track quality 100.0 % Test CRC E6FF2524 Copy CRC E6FF2524 Accurately ripped (confidence 2) [46D27ADC] (AR v2) Copy OK

Track 19

Filename C:\Music\19 - Richard Band - Torquemada Cuts Out Maria's Tongue.wav

Peak level 96.6 % Extraction speed 4.8 X Track quality 100.0 % Test CRC C6D02E39 Copy CRC C6D02E39 Accurately ripped (confidence 2) [2A9E92DA] (AR v2) Copy OK

Track 20

Filename C:\Music\20 - Richard Band - Esmeralda Comforts Maria.wav

Pre-gap length 0:00:03.02

Peak level 96.6 % Extraction speed 4.5 X Track quality 100.0 % Test CRC 9696BCC3 Copy CRC 9696BCC3 Accurately ripped (confidence 2) [20DD5C79] (AR v2) Copy OK

Track 21

Filename C:\Music\21 - Richard Band - Maria Is Buried In The Crypt.wav

Peak level 88.7 % Extraction speed 3.2 X Track quality 100.0 % Test CRC 9656D7BD Copy CRC 9656D7BD Accurately ripped (confidence 2) [0EB690B6] (AR v2) Copy OK

Track 22

Filename C:\Music\22 - Richard Band - Esmeralda's Auto Da Fe.wav

Peak level 96.6 % Extraction speed 2.8 X Track quality 100.0 % Test CRC E4491F89 Copy CRC E4491F89 Accurately ripped (confidence 2) [2928C300] (AR v2) Copy OK

Track 23

Filename C:\Music\23 - Richard Band - Esmeralda's Curse.wav

Peak level 94.4 % Extraction speed 3.8 X Track quality 100.0 % Test CRC BF6FA1F6 Copy CRC BF6FA1F6 Accurately ripped (confidence 2) [8AAE9FFC] (AR v2) Copy OK

Track 24

Filename C:\Music\24 - Richard Band - Mendoza Sees Torquemada By Maria's Crypt.wav

Peak level 84.1 % Extraction speed 3.1 X Track quality 99.8 % Test CRC 53B73D33 Copy CRC 53B73D33 Accurately ripped (confidence 2) [78101D62] (AR v2) Copy OK

Track 25

Filename C:\Music\25 - Richard Band - The Pit And The Pendulum.wav

Peak level 96.6 % Extraction speed 5.3 X Track quality 99.9 % Test CRC 03729CD6 Copy CRC 03729CD6 Accurately ripped (confidence 2) [DBC8C4CD] (AR v2) Copy OK

Track 26

Filename C:\Music\26 - Richard Band - Maria Rises From Crypt.wav

Peak level 96.6 % Extraction speed 5.4 X Track quality 100.0 % Test CRC E0A93456 Copy CRC E0A93456 Accurately ripped (confidence 2) [C9B8190F] (AR v2) Copy OK

Track 27

Filename C:\Music\27 - Richard Band - Finale & End Titles.wav

Peak level 96.6 % Extraction speed 5.4 X Track quality 100.0 % Test CRC 61D3D108 Copy CRC 61D3D108 Accurately ripped (confidence 2) [629100E6] (AR v2) Copy OK

All tracks accurately ripped

No errors occurred

End of status report

---- CUETools DB Plugin V2.1.6

[CTDB TOCID: ugQQnKCZz_lE3KMtVU1RMogrSZo-] foundSubmit result: ugQQnKCZz_lE3KMtVU1RMogrSZo- has been confirmedTrack | CTDB Status 1 | (3/3) Accurately ripped 2 | (3/3) Accurately ripped 3 | (3/3) Accurately ripped 4 | (3/3) Accurately ripped 5 | (3/3) Accurately ripped 6 | (3/3) Accurately ripped 7 | (3/3) Accurately ripped 8 | (3/3) Accurately ripped 9 | (3/3) Accurately ripped 10 | (3/3) Accurately ripped 11 | (3/3) Accurately ripped 12 | (3/3) Accurately ripped 13 | (3/3) Accurately ripped 14 | (3/3) Accurately ripped 15 | (3/3) Accurately ripped 16 | (3/3) Accurately ripped 17 | (3/3) Accurately ripped 18 | (3/3) Accurately ripped 19 | (3/3) Accurately ripped 20 | (3/3) Accurately ripped 21 | (3/3) Accurately ripped 22 | (3/3) Accurately ripped 23 | (3/3) Accurately ripped 24 | (3/3) Accurately ripped 25 | (3/3) Accurately ripped 26 | (3/3) Accurately ripped 27 | (3/3) Accurately ripped

==== Log checksum DED8558657C2B765C80174B38BFEBC92790AFCB8E7303905EEE5B24EFE70C3E3 ====
REM GENRE SoundtrackREM DATE 1991REM DISCID 670EFB1BREM COMMENT "ExactAudioCopy v1.1"PERFORMER "Richard Band"TITLE "The Pit And The Pendulum"FILE "01 - Richard Band - The Crypt.wav" WAVE TRACK 01 AUDIO TITLE "The Crypt" PERFORMER "Richard Band" INDEX 01 00:00:00FILE "02 - Richard Band - The Whipping.wav" WAVE TRACK 02 AUDIO TITLE "The Whipping" PERFORMER "Richard Band" INDEX 01 00:00:00FILE "03 - Richard Band - Main Title.wav" WAVE TRACK 03 AUDIO TITLE "Main Title" PERFORMER "Richard Band" INDEX 01 00:00:00FILE "04 - Richard Band - Maria & Antonio.wav" WAVE TRACK 04 AUDIO TITLE "Maria & Antonio" PERFORMER "Richard Band" INDEX 01 00:00:00FILE "05 - Richard Band - The Chase.wav" WAVE TRACK 05 AUDIO TITLE "The Chase" PERFORMER "Richard Band" INDEX 01 00:00:00 TRACK 06 AUDIO TITLE "Auto Da Fe" PERFORMER "Richard Band" INDEX 00 02:19:35FILE "06 - Richard Band - Auto Da Fe.wav" WAVE INDEX 01 00:00:00FILE "07 - Richard Band - Torquemada Meets Maria.wav" WAVE TRACK 07 AUDIO TITLE "Torquemada Meets Maria" PERFORMER "Richard Band" INDEX 01 00:00:00FILE "08 - Richard Band - Antonio's Disbelief.wav" WAVE TRACK 08 AUDIO TITLE "Antonio's Disbelief" PERFORMER "Richard Band" INDEX 01 00:00:00FILE "09 - Richard Band - Maria Is Searched.wav" WAVE TRACK 09 AUDIO TITLE "Maria Is Searched" PERFORMER "Richard Band" INDEX 01 00:00:00FILE "10 - Richard Band - Torquemada's Flogging.wav" WAVE TRACK 10 AUDIO TITLE "Torquemada's Flogging" PERFORMER "Richard Band" INDEX 01 00:00:00FILE "11 - Richard Band - Under The Cart.wav" WAVE TRACK 11 AUDIO TITLE "Under The Cart" PERFORMER "Richard Band" INDEX 01 00:00:00FILE "12 - Richard Band - Antonio Searcehs Dungeon.wav" WAVE TRACK 12 AUDIO TITLE "Antonio Searcehs Dungeon" PERFORMER "Richard Band" INDEX 01 00:00:00FILE "13 - Richard Band - The Meadow.wav" WAVE TRACK 13 AUDIO TITLE "The Meadow" PERFORMER "Richard Band" INDEX 01 00:00:00FILE "14 - Richard Band - Torquemada Takes Maria.wav" WAVE TRACK 14 AUDIO TITLE "Torquemada Takes Maria" PERFORMER "Richard Band" INDEX 01 00:00:00FILE "15 - Richard Band - Maria Is Shown Chamber.wav" WAVE TRACK 15 AUDIO TITLE "Maria Is Shown Chamber" PERFORMER "Richard Band" INDEX 01 00:00:00FILE "16 - Richard Band - Antonio Breaks Loose.wav" WAVE TRACK 16 AUDIO TITLE "Antonio Breaks Loose" PERFORMER "Richard Band" INDEX 01 00:00:00FILE "17 - Richard Band - The Pope's Envoy.wav" WAVE TRACK 17 AUDIO TITLE "The Pope's Envoy" PERFORMER "Richard Band" INDEX 01 00:00:00FILE "18 - Richard Band - The Rape Of Maria.wav" WAVE TRACK 18 AUDIO TITLE "The Rape Of Maria" PERFORMER "Richard Band" INDEX 01 00:00:00FILE "19 - Richard Band - Torquemada Cuts Out Maria's Tongue.wav" WAVE TRACK 19 AUDIO TITLE "Torquemada Cuts Out Maria's Tongue" PERFORMER "Richard Band" INDEX 01 00:00:00 TRACK 20 AUDIO TITLE "Esmeralda Comforts Maria" PERFORMER "Richard Band" INDEX 00 02:23:23FILE "20 - Richard Band - Esmeralda Comforts Maria.wav" WAVE INDEX 01 00:00:00FILE "21 - Richard Band - Maria Is Buried In The Crypt.wav" WAVE TRACK 21 AUDIO TITLE "Maria Is Buried In The Crypt" PERFORMER "Richard Band" INDEX 01 00:00:00FILE "22 - Richard Band - Esmeralda's Auto Da Fe.wav" WAVE TRACK 22 AUDIO TITLE "Esmeralda's Auto Da Fe" PERFORMER "Richard Band" INDEX 01 00:00:00FILE "23 - Richard Band - Esmeralda's Curse.wav" WAVE TRACK 23 AUDIO TITLE "Esmeralda's Curse" PERFORMER "Richard Band" INDEX 01 00:00:00FILE "24 - Richard Band - Mendoza Sees Torquemada By Maria's Crypt.wav" WAVE TRACK 24 AUDIO TITLE "Mendoza Sees Torquemada By Maria's Crypt" PERFORMER "Richard Band" INDEX 01 00:00:00FILE "25 - Richard Band - The Pit And The Pendulum.wav" WAVE TRACK 25 AUDIO TITLE "The Pit And The Pendulum" PERFORMER "Richard Band" INDEX 01 00:00:00FILE "26 - Richard Band - Maria Rises From Crypt.wav" WAVE TRACK 26 AUDIO TITLE "Maria Rises From Crypt" PERFORMER "Richard Band" INDEX 01 00:00:00FILE "27 - Richard Band - Finale & End Titles.wav" WAVE TRACK 27 AUDIO TITLE "Finale & End Titles" PERFORMER "Richard Band" INDEX 01 00:00:00


Трекер:  [ 14-Апр-2016 19:00 ]

  

Скачать .torrent

Размер .torrent файла 18 KB


Размер: 390 MB
Хэш (hash) релиза: 12b1596864fccae1bcf7c2cb6986fa8c5cba7193

Торренты, похожие на Инквизитор: Колодец и маятник The Pit And The Pendulum скачать торрент

Форум Название Автор Размер S L Добавлен
Саундтреки к фильмам и мультфильмам (mp3) ·· (Score) Инквизитор: Колодец и маятник / The Pit And The Pendulum [Expanded] (by Richard Band) - 2014 (1991), MP3 (tracks) 320 kbps Galfimbul 186692355178 MB 0 0 1460654743

20:25

14-Апр-16

Саундтреки к фильмам и мультфильмам (lossless) ·· (Score) Инквизитор: Колодец и маятник / The Pit And The Pendulum (by Richard Band) - 1991, FLAC (tracks+.cue), lossless Galfimbul 258442261246 MB 0 0 1460275986

11:13

10-Апр-16

Еще никто не оставлял запись к записи скачать торрент Инквизитор: Колодец и маятник The Pit And The Pendulum . Будь первым!

!Обратная связь