Скачать через торрент музыку LArche et les Deluges The Ark and the Deluge бесплатно без регистрации torrent

Если у вас наблюдаются проблемы со скриншотами, переходом по ссылками, скачиванием торрентов - проблемы в блокировщике рекламы AdBlock. #хорошегоДня!


Статистика раздачи
Размер:  310 MB   |    Зарегистрирован:  1 год 5 месяцев   |    .torrent скачан:  33 раза   |   
Раздают:  1  
   
Загрузка...
 
Автор Сообщение

Galfimbul

avatar Galfimbul


L'Arche et les Déluges / The Ark and the Deluge
Жанр: Score (Documentary)
Композитор: Gabriel Yared
Год выпуска диска: 2016
Год производства (выпуска) фильма: 1992 (1993)
Производитель диска: France
Издатель (лейбл): Music Box Records
Номер по каталогу: MBR-089
Аудиокодек: FLAC (*.flac)
Тип рипа: tracks+.cue
Битрейт аудио: lossless
Продолжительность: 00:59:20
Источник: собственный рип
Наличие сканов в содержимом раздачи: да, 600 dpi
Ссылки: Кинопоиск | IMDB | SoundtrackCollector
MP3: <a href="viewtopic.php?t=5208003" class="postLink">(Score / Doc) L'Arche et les Deluges / The Ark and the Deluge (by Gabriel Yared) - 2016 (1992), MP3 (tracks) 320 kbps</a>
Gabriel Yared: <a href="tracker.php?f=786&nm=Gabriel+Yared" class="postLink">lossless</a> | <a href="tracker.php?f=785&nm=Gabriel+Yared" class="postLink">lossy</a>
01. À l’aube du temps [0:02:13.53]
02. L'Arche des Déluges [0:02:41.74]
03. Reflet de lune [0:00:37.52]
04. Ventre marin [0:03:35.13]
05. Les cités de cristal [0:05:54.45]
06. Lune bleue [0:02:02.63]
07. Aube [0:02:01.71]
08. Oasis Terre [0:03:19.54]
09. Eaux mêlées [0:01:43.20]
10. La nuit des angoisses [0:02:23.35]
11. Un ciel de cendres [0:03:07.22]
12. La savane [0:05:48.36]
13. Lune voilée [0:04:21.03]
14. Paradis urbain [0:01:05.42]
15. Valse industrie [0:03:40.48]
16. Les Dieux engloutis [0:03:48.17]

Bonus Tracks:
17. Un ciel de cendres (version film) [0:01:52.43]
18. L'Arche et les Déluges (variation #1) [0:01:38.27]
19. La nuit des angoisses (version alternative) [0:02:56.65]
20. Valse industrie (version film) [0:01:54.22]
21. L'Arche et les Déluges (variation #2) [0:01:28.50]
22. L'Arche et les Déluges (variation #3) [0:01:02.58]
Exact Audio Copy V1.1 from 23. June 2015

EAC extraction logfile from 13. April 2016, 12:24

Gabriel Yared / L’Arche et les Déluges

Used drive : PLEXTOR CD-R PX-230A Adapter: 1 ID: 2

Read mode : SecureUtilize accurate stream : YesDefeat audio cache : YesMake use of C2 pointers : No

Read offset correction : 738Overread into Lead-In and Lead-Out : NoFill up missing offset samples with silence : YesDelete leading and trailing silent blocks : NoNull samples used in CRC calculations : YesUsed interface : Native Win32 interface for Win NT & 2000Gap handling : Appended to previous track

Used output format : User Defined EncoderSelected bitrate : 1024 kBit/sQuality : HighAdd ID3 tag : NoCommand line compressor : C:\Program Files (x86)\Exact Audio Copy\FLAC\FLAC.EXEAdditional command line options : -6 -V -T "ARTIST=%artist%" -T "TITLE=%title%" -T "ALBUM=%albumtitle%" -T "DATE=%year%" -T "TRACKNUMBER=%tracknr%" -T "GENRE=%genre%" -T "COMMENT=%comment%" -T "ALBUMARTIST=%albuminterpret%" -T "COMPOSER=%composer%" -T "DISCNUMBER=%cdnumber%" -T "TOTALDISCS=%totalcds%" -T "TOTALTRACKS=%numtracks%" %source% -o %dest%

TOC of the extracted CD

Track | Start | Length | Start sector | End sector --------------------------------------------------------- 1 | 0:00.00 | 2:13.53 | 0 | 10027 2 | 2:13.53 | 2:41.74 | 10028 | 22176 3 | 4:55.52 | 0:37.52 | 22177 | 25003 4 | 5:33.29 | 3:35.13 | 25004 | 41141 5 | 9:08.42 | 5:54.45 | 41142 | 67736 6 | 15:03.12 | 2:02.63 | 67737 | 76949 7 | 17:06.00 | 2:01.71 | 76950 | 86095 8 | 19:07.71 | 3:19.54 | 86096 | 101074 9 | 22:27.50 | 1:43.20 | 101075 | 108819 10 | 24:10.70 | 2:23.35 | 108820 | 119579 11 | 26:34.30 | 3:07.22 | 119580 | 133626 12 | 29:41.52 | 5:48.36 | 133627 | 159762 13 | 35:30.13 | 4:21.03 | 159763 | 179340 14 | 39:51.16 | 1:05.42 | 179341 | 184257 15 | 40:56.58 | 3:40.48 | 184258 | 200805 16 | 44:37.31 | 3:48.17 | 200806 | 217922 17 | 48:25.48 | 1:52.43 | 217923 | 226365 18 | 50:18.16 | 1:38.27 | 226366 | 233742 19 | 51:56.43 | 2:56.65 | 233743 | 247007 20 | 54:53.33 | 1:54.22 | 247008 | 255579 21 | 56:47.55 | 1:28.50 | 255580 | 262229 22 | 58:16.30 | 1:02.58 | 262230 | 266937

Track 1

Filename C:\Music\01 - Gabriel Yared - À l’aube du temps.wav

Pre-gap length 0:00:02.00

Peak level 59.0 % Extraction speed 6.8 X Track quality 100.0 % Test CRC 63E1C464 Copy CRC 63E1C464 Track not present in AccurateRip database Copy OK

Track 2

Filename C:\Music\02 - Gabriel Yared - L'Arche des Déluges.wav

Pre-gap length 0:00:02.00

Peak level 82.2 % Extraction speed 6.0 X Track quality 99.9 % Test CRC 2CEC4BD1 Copy CRC 2CEC4BD1 Track not present in AccurateRip database Copy OK

Track 3

Filename C:\Music\03 - Gabriel Yared - Reflet de lune.wav

Pre-gap length 0:00:02.00

Peak level 44.3 % Extraction speed 4.7 X Track quality 100.0 % Test CRC 81A450D1 Copy CRC 81A450D1 Track not present in AccurateRip database Copy OK

Track 4

Filename C:\Music\04 - Gabriel Yared - Ventre marin.wav

Pre-gap length 0:00:02.00

Peak level 94.0 % Extraction speed 7.9 X Track quality 100.0 % Test CRC B084EA0B Copy CRC B084EA0B Track not present in AccurateRip database Copy OK

Track 5

Filename C:\Music\05 - Gabriel Yared - Les cités de cristal.wav

Pre-gap length 0:00:02.00

Peak level 84.9 % Extraction speed 8.0 X Track quality 100.0 % Test CRC DC74E55D Copy CRC DC74E55D Track not present in AccurateRip database Copy OK

Track 6

Filename C:\Music\06 - Gabriel Yared - Lune bleue.wav

Pre-gap length 0:00:02.00

Peak level 49.9 % Extraction speed 6.1 X Track quality 99.9 % Test CRC 0A1E414C Copy CRC 0A1E414C Track not present in AccurateRip database Copy OK

Track 7

Filename C:\Music\07 - Gabriel Yared - Aube.wav

Pre-gap length 0:00:02.00

Peak level 45.7 % Extraction speed 8.2 X Track quality 100.0 % Test CRC 71F989C5 Copy CRC 71F989C5 Track not present in AccurateRip database Copy OK

Track 8

Filename C:\Music\08 - Gabriel Yared - Oasis Terre.wav

Pre-gap length 0:00:02.00

Peak level 37.3 % Extraction speed 9.0 X Track quality 100.0 % Test CRC E9920ED2 Copy CRC E9920ED2 Track not present in AccurateRip database Copy OK

Track 9

Filename C:\Music\09 - Gabriel Yared - Eaux mêlées.wav

Pre-gap length 0:00:02.00

Peak level 76.2 % Extraction speed 6.3 X Track quality 99.8 % Test CRC FA30B5FF Copy CRC FA30B5FF Track not present in AccurateRip database Copy OK

Track 10

Filename C:\Music\10 - Gabriel Yared - La nuit des angoisses.wav

Pre-gap length 0:00:02.00

Peak level 63.9 % Extraction speed 8.6 X Track quality 100.0 % Test CRC CBA32312 Copy CRC CBA32312 Track not present in AccurateRip database Copy OK

Track 11

Filename C:\Music\11 - Gabriel Yared - Un ciel de cendres.wav

Pre-gap length 0:00:02.00

Peak level 74.2 % Extraction speed 9.6 X Track quality 100.0 % Test CRC 8C9DF155 Copy CRC 8C9DF155 Track not present in AccurateRip database Copy OK

Track 12

Filename C:\Music\12 - Gabriel Yared - La savane.wav

Pre-gap length 0:00:02.00

Peak level 89.5 % Extraction speed 9.6 X Track quality 100.0 % Test CRC D547DB6C Copy CRC D547DB6C Track not present in AccurateRip database Copy OK

Track 13

Filename C:\Music\13 - Gabriel Yared - Lune voilée.wav

Pre-gap length 0:00:02.00

Peak level 46.9 % Extraction speed 9.5 X Track quality 100.0 % Test CRC 7D93E125 Copy CRC 7D93E125 Track not present in AccurateRip database Copy OK

Track 14

Filename C:\Music\14 - Gabriel Yared - Paradis urbain.wav

Pre-gap length 0:00:02.00

Peak level 88.5 % Extraction speed 7.7 X Track quality 100.0 % Test CRC 2DE27151 Copy CRC 2DE27151 Track not present in AccurateRip database Copy OK

Track 15

Filename C:\Music\15 - Gabriel Yared - Valse industrie.wav

Pre-gap length 0:00:02.00

Peak level 81.4 % Extraction speed 9.7 X Track quality 100.0 % Test CRC F584870B Copy CRC F584870B Track not present in AccurateRip database Copy OK

Track 16

Filename C:\Music\16 - Gabriel Yared - Les Dieux engloutis.wav

Pre-gap length 0:00:02.00

Peak level 47.4 % Extraction speed 10.0 X Track quality 100.0 % Test CRC 9D4338B7 Copy CRC 9D4338B7 Track not present in AccurateRip database Copy OK

Track 17

Filename C:\Music\17 - Gabriel Yared - Un ciel de cendres (version film).wav

Pre-gap length 0:00:04.50

Peak level 67.6 % Extraction speed 7.3 X Track quality 99.9 % Test CRC DA25C201 Copy CRC DA25C201 Track not present in AccurateRip database Copy OK

Track 18

Filename C:\Music\18 - Gabriel Yared - L'Arche et les Déluges (variation #1).wav

Pre-gap length 0:00:02.00

Peak level 85.8 % Extraction speed 9.2 X Track quality 100.0 % Test CRC 1206FCA2 Copy CRC 1206FCA2 Track not present in AccurateRip database Copy OK

Track 19

Filename C:\Music\19 - Gabriel Yared - La nuit des angoisses (version alternative).wav

Pre-gap length 0:00:02.00

Peak level 61.9 % Extraction speed 10.2 X Track quality 100.0 % Test CRC 3C57A6C2 Copy CRC 3C57A6C2 Track not present in AccurateRip database Copy OK

Track 20

Filename C:\Music\20 - Gabriel Yared - Valse industrie (version film).wav

Pre-gap length 0:00:02.00

Peak level 94.0 % Extraction speed 9.6 X Track quality 100.0 % Test CRC 5E720783 Copy CRC 5E720783 Track not present in AccurateRip database Copy OK

Track 21

Filename C:\Music\21 - Gabriel Yared - L'Arche et les Déluges (variation #2).wav

Pre-gap length 0:00:02.00

Peak level 64.5 % Extraction speed 9.1 X Track quality 100.0 % Test CRC 8F276E32 Copy CRC 8F276E32 Track not present in AccurateRip database Copy OK

Track 22

Filename C:\Music\22 - Gabriel Yared - L'Arche et les Déluges (variation #3).wav

Pre-gap length 0:00:02.00

Peak level 86.7 % Extraction speed 6.4 X Track quality 99.8 % Test CRC 5D9D8EB5 Copy CRC 5D9D8EB5 Track not present in AccurateRip database Copy OK

None of the tracks are present in the AccurateRip database

No errors occurred

End of status report

---- CUETools DB Plugin V2.1.6

[CTDB TOCID: IW1IAhVhFiCzErOsv7nk7UAHWRs-] foundSubmit result: IW1IAhVhFiCzErOsv7nk7UAHWRs- has been uploadedTrack | CTDB Status 1 | (1/1) Accurately ripped 2 | (1/1) Accurately ripped 3 | (0/1) No match 4 | (0/1) No match 5 | (0/1) No match 6 | (0/1) No match 7 | (0/1) No match 8 | (0/1) No match 9 | (0/1) No match 10 | (0/1) No match 11 | (0/1) No match 12 | (0/1) No match 13 | (0/1) No match 14 | (0/1) No match 15 | (0/1) No match 16 | (0/1) No match 17 | (0/1) No match 18 | (0/1) No match 19 | (0/1) No match 20 | (0/1) No match 21 | (0/1) No match 22 | (0/1) No match

==== Log checksum 4A9E85F584742A0B5D6DA4F49FA3C80F1078C3C95F3E71D85FF82B9F0A29E42B ====
REM GENRE SoundtrackREM DATE 1992REM DISCID 430DE716REM COMMENT "ExactAudioCopy v1.1"PERFORMER "Gabriel Yared"TITLE "L’Arche et les Deluges"FILE "01 - Gabriel Yared - A l'aube du temps.wav" WAVE TRACK 01 AUDIO TITLE "A l’aube du temps" PERFORMER "Gabriel Yared" INDEX 01 00:00:00 TRACK 02 AUDIO TITLE "L'Arche des Deluges" PERFORMER "Gabriel Yared" INDEX 00 02:11:53FILE "02 - Gabriel Yared - L'Arche des Deluges.wav" WAVE INDEX 01 00:00:00 TRACK 03 AUDIO TITLE "Reflet de lune" PERFORMER "Gabriel Yared" INDEX 00 02:39:74FILE "03 - Gabriel Yared - Reflet de lune.wav" WAVE INDEX 01 00:00:00 TRACK 04 AUDIO TITLE "Ventre marin" PERFORMER "Gabriel Yared" INDEX 00 00:35:52FILE "04 - Gabriel Yared - Ventre marin.wav" WAVE INDEX 01 00:00:00 TRACK 05 AUDIO TITLE "Les cites de cristal" PERFORMER "Gabriel Yared" INDEX 00 03:33:13FILE "05 - Gabriel Yared - Les cites de cristal.wav" WAVE INDEX 01 00:00:00 TRACK 06 AUDIO TITLE "Lune bleue" PERFORMER "Gabriel Yared" INDEX 00 05:52:45FILE "06 - Gabriel Yared - Lune bleue.wav" WAVE INDEX 01 00:00:00 TRACK 07 AUDIO TITLE "Aube" PERFORMER "Gabriel Yared" INDEX 00 02:00:63FILE "07 - Gabriel Yared - Aube.wav" WAVE INDEX 01 00:00:00 TRACK 08 AUDIO TITLE "Oasis Terre" PERFORMER "Gabriel Yared" INDEX 00 01:59:71FILE "08 - Gabriel Yared - Oasis Terre.wav" WAVE INDEX 01 00:00:00 TRACK 09 AUDIO TITLE "Eaux melees" PERFORMER "Gabriel Yared" INDEX 00 03:17:54FILE "09 - Gabriel Yared - Eaux melees.wav" WAVE INDEX 01 00:00:00 TRACK 10 AUDIO TITLE "La nuit des angoisses" PERFORMER "Gabriel Yared" INDEX 00 01:41:20FILE "10 - Gabriel Yared - La nuit des angoisses.wav" WAVE INDEX 01 00:00:00 TRACK 11 AUDIO TITLE "Un ciel de cendres" PERFORMER "Gabriel Yared" INDEX 00 02:21:35FILE "11 - Gabriel Yared - Un ciel de cendres.wav" WAVE INDEX 01 00:00:00 TRACK 12 AUDIO TITLE "La savane" PERFORMER "Gabriel Yared" INDEX 00 03:05:22FILE "12 - Gabriel Yared - La savane.wav" WAVE INDEX 01 00:00:00 TRACK 13 AUDIO TITLE "Lune voilee" PERFORMER "Gabriel Yared" INDEX 00 05:46:36FILE "13 - Gabriel Yared - Lune voilee.wav" WAVE INDEX 01 00:00:00 TRACK 14 AUDIO TITLE "Paradis urbain" PERFORMER "Gabriel Yared" INDEX 00 04:19:03FILE "14 - Gabriel Yared - Paradis urbain.wav" WAVE INDEX 01 00:00:00 TRACK 15 AUDIO TITLE "Valse industrie" PERFORMER "Gabriel Yared" INDEX 00 01:03:42FILE "15 - Gabriel Yared - Valse industrie.wav" WAVE INDEX 01 00:00:00 TRACK 16 AUDIO TITLE "Les Dieux engloutis" PERFORMER "Gabriel Yared" INDEX 00 03:38:48FILE "16 - Gabriel Yared - Les Dieux engloutis.wav" WAVE INDEX 01 00:00:00 TRACK 17 AUDIO TITLE "Un ciel de cendres (version film)" PERFORMER "Gabriel Yared" INDEX 00 03:43:42FILE "17 - Gabriel Yared - Un ciel de cendres (version film).wav" WAVE INDEX 01 00:00:00 TRACK 18 AUDIO TITLE "L'Arche et les Deluges (variation #1)" PERFORMER "Gabriel Yared" INDEX 00 01:50:43FILE "18 - Gabriel Yared - L'Arche et les Deluges (variation #1).wav" WAVE INDEX 01 00:00:00 TRACK 19 AUDIO TITLE "La nuit des angoisses (version alternative)" PERFORMER "Gabriel Yared" INDEX 00 01:36:27FILE "19 - Gabriel Yared - La nuit des angoisses (version alternative).wav" WAVE INDEX 01 00:00:00 TRACK 20 AUDIO TITLE "Valse industrie (version film)" PERFORMER "Gabriel Yared" INDEX 00 02:54:65FILE "20 - Gabriel Yared - Valse industrie (version film).wav" WAVE INDEX 01 00:00:00 TRACK 21 AUDIO TITLE "L'Arche et les Deluges (variation #2)" PERFORMER "Gabriel Yared" INDEX 00 01:52:22FILE "21 - Gabriel Yared - L'Arche et les Deluges (variation #2).wav" WAVE INDEX 01 00:00:00 TRACK 22 AUDIO TITLE "L'Arche et les Deluges (variation #3)" PERFORMER "Gabriel Yared" INDEX 00 01:26:50FILE "22 - Gabriel Yared - L'Arche et les Deluges (variation #3).wav" WAVE INDEX 01 00:00:00


Трекер:  [ 13-Апр-2016 20:00 ]

  

Скачать .torrent

Размер .torrent файла 14 KB


Размер: 310 MB
Хэш (hash) релиза: 44fad38087df33890d423ab2531813896a4e9918

Торренты, похожие на LArche et les Deluges The Ark and the Deluge скачать торрент

Форум Название Автор Размер S L Добавлен
Саундтреки к фильмам и мультфильмам (mp3) ·· (Score / Doc) L'Arche et les Deluges / The Ark and the Deluge (by Gabriel Yared) - 2016 (1992), MP3 (tracks) 320 kbps Galfimbul 170232607162 MB 0 0 1460571471

21:17

13-Апр-16

Еще никто не оставлял запись к записи скачать торрент LArche et les Deluges The Ark and the Deluge . Будь первым!

!Обратная связь