Скачать через торрент музыку H2O бесплатно без регистрации torrent

Если у вас наблюдаются проблемы со скриншотами, переходом по ссылками, скачиванием торрентов - проблемы в блокировщике рекламы AdBlock. #хорошегоДня!


Статистика раздачи
Размер:  290 MB   |    Зарегистрирован:  6 лет 6 месяцев   |    .torrent скачан:  78 раз   |   
Раздают:  1  
   
Загрузка...
 
Автор Сообщение

L


H2O (экс-Турбомода) - New & Remixes (Promo CD)

Жанр: Pop
Страна-производитель диска: Россия
Год издания диска: 2011
Издатель (лейбл): H2O
Аудио кодек: FLAC (*.flac)
Тип рипа: image+.cue
Битрейт аудио: lossless
Источник (релизер): собственный диск
Наличие сканов в содержимом раздачи: нет
Promo CD группы, распространяется исключительно для радиостанций и организаторов концертов

Треклист:
01. Турболюбовь (Ла-Ла-Ла) (Elektroniki Remix)
02. Турболюбовь (Ла-Ла-Ла) (Synthetic Orchestra Electro Remix)
03. Вторая половина
04. Вторая половина (Synthetic Orchestra Electro Remix)
05. Но не я
06. Но не я (Synthetic Orchestra Electro Remix)
07. Разорву небо
08. Ты ушел
09. Не было любви
 
Exact Audio Copy V0.99 prebeta 5 from 4. May 2009

Отчёт EAC об извлечении, выполненном 11. мая 2011, 23:35

H2O (экс - Турбомода) / New & Remixes

Дисковод: ASUS DRW-24B1ST Adapter: 1 ID: 0

Режим чтения : ДостоверностьИспользование точного потока : ДаОтключение кэша аудио : ДаИспользование указателей C2 : Нет

Коррекция смещения при чтении : 6Способность читать области Lead-in и Lead-out : НетЗаполнение пропущенных сэмплов тишиной : ДаУдаление блоков с тишиной в начале и конце : НетПри вычислениях CRC использовались нулевые сэмплы : ДаИнтерфейс : Встроенный Win32-интерфейс для Win NT/2000

Выходной формат : Внутренние WAV-операцииФормат сэмплов : 44.100 Гц; 16 бит; стерео

TOC извлечённого CD

Трек | Старт | Длительность | Начальный сектор | Конечный сектор --------------------------------------------------------------------- 1 | 0:00.00 | 4:19.50 | 0 | 19474 2 | 4:19.50 | 5:31.45 | 19475 | 44344 3 | 9:51.20 | 4:02.00 | 44345 | 62494 4 | 13:53.20 | 5:56.52 | 62495 | 89246 5 | 19:49.72 | 4:02.51 | 89247 | 107447 6 | 23:52.48 | 4:45.12 | 107448 | 128834 7 | 28:37.60 | 3:48.24 | 128835 | 145958 8 | 32:26.09 | 3:50.69 | 145959 | 163277 9 | 36:17.03 | 3:53.73 | 163278 | 180825

Характеристики диапазона извлечения и сообщения об ошибках

Выбранный диапазон

Имя файла C:\Documents and Settings\Polzovatel\Мои документы\Мои рисунки\H2O (экс - Турбомода) - New & Remixes.wav

Пиковый уровень 100.0 % Качество диапазона 100.0 % CRC теста 1B4F6A00 CRC копии 1B4F6A00 Копирование... OK

Ошибок не произошло

AccurateRip: сводка

Трек 1 нет в базе данныхТрек 2 нет в базе данныхТрек 3 нет в базе данныхТрек 4 нет в базе данныхТрек 5 нет в базе данныхТрек 6 нет в базе данныхТрек 7 нет в базе данныхТрек 8 нет в базе данныхТрек 9 нет в базе данных

Ни одного трека нет в базе AccurateRip

Конец отчёта
 
REM GENRE PopREM DATE 2011REM DISCID 7F096B09REM COMMENT "ExactAudioCopy v0.99pb5"PERFORMER "H2O (экс - Турбомода) "TITLE "New & Remixes"FILE "H2O (экс - Турбомода) - New & Remixes.wav" WAVE TRACK 01 AUDIO TITLE "Турболюбовь (Ла-Ла-Ла) (Elektroniki Remix)" PERFORMER "H2O (экс - Турбомода) " FLAGS DCP INDEX 01 00:00:00 TRACK 02 AUDIO TITLE "Турболюбовь (Ла-Ла-Ла) (Synthetic Orchestra Electro Remix)" PERFORMER "H2O (экс - Турбомода) " FLAGS DCP INDEX 00 04:17:50 INDEX 01 04:19:50 TRACK 03 AUDIO TITLE "Вторая половина" PERFORMER "H2O (экс - Турбомода) " FLAGS DCP INDEX 00 09:49:20 INDEX 01 09:51:20 TRACK 04 AUDIO TITLE "Вторая половина (Synthetic Orchestra Electro Remix)" PERFORMER "H2O (экс - Турбомода) " FLAGS DCP INDEX 00 13:51:20 INDEX 01 13:53:20 TRACK 05 AUDIO TITLE "Но не я" PERFORMER "H2O (экс - Турбомода) " FLAGS DCP INDEX 00 19:47:72 INDEX 01 19:49:72 TRACK 06 AUDIO TITLE "Но не я (Synthetic Orchestra Electro Remix)" PERFORMER "H2O (экс - Турбомода) " FLAGS DCP INDEX 00 23:50:48 INDEX 01 23:52:48 TRACK 07 AUDIO TITLE "Разорву небо" PERFORMER "H2O (экс - Турбомода) " FLAGS DCP INDEX 00 28:35:60 INDEX 01 28:37:60 TRACK 08 AUDIO TITLE "Ты ушел" PERFORMER "H2O (экс - Турбомода) " FLAGS DCP INDEX 00 32:24:09 INDEX 01 32:26:09 TRACK 09 AUDIO TITLE "Не было любви" PERFORMER "H2O (экс - Турбомода) " FLAGS DCP INDEX 00 36:15:03 INDEX 01 36:17:03


Трекер:  [ 12-Май-2011 07:44 ]

  

Скачать .torrent

Размер .torrent файла 12 KB


Размер: 290 MB
Хэш (hash) релиза: 4c5a4f6c9655c0d2ce52d23e83d27db716c11f18

Торренты, похожие на H2O скачать торрент

Форум Название Автор Размер S L Добавлен
Саундтреки к фильмам и мультфильмам (mp3) ·· (Soundtrack) H2O: Просто Добавь Воды / H2O: Just Add Water (H2O: Just Add Water [Music from Series Three]) (Shelly Rosenberg) - 2011, MP3, 320 kbps Galfimbul 9208364688 MB 0 0 1422971611

16:53

3-Фев-15

Саундтреки к фильмам и мультфильмам (mp3) ·· (Soundtrack/TV) Kate Alexa - H2O Just Add Water/H2O Просто добавь воды - 2007, MP3, 192 kbps Galfimbul 7507353672 MB 0 0 1292265789

21:43

13-Дек-10

Электронная музыка (mp3) ·· (Psytrance) Nirix - H2O - 2017, MP3, 320 kbps Galfimbul 3546509934 MB 0 0 1508065530

14:05

15-Окт-17

Электронная музыка (lossless) ·· (Drum & Bass) Al Pack - H2O - 2016 (Liquid Flavours Records)(LFR043), FLAC (tracks), lossless Galfimbul 8728179183 MB 0 0 1471975967

21:12

23-Авг-16

Электронная музыка (lossless) ·· (Drum & Bass) Al Pack - H2O - 2016 (Liquid Flavours Records)(LFR043), FLAC (tracks), lossless Galfimbul 176789525169 MB 0 0 1471973862

20:37

23-Авг-16

Электронная музыка (lossless) ·· (Goa Trance, Psy-Trance) [CD] Mendark - H2O - Haze To Order - 2003, FLAC (tracks+.cue), lossless Galfimbul 504851959481 MB 0 0 1455994920

22:02

20-Фев-16

Rосk | Mеtаl | Аltеrnаtivе, Рunk, Indереndеnt (mр3) ·· (Rock Ballad) H2O - Vol.6 Still Foggy.....But - 2014, MP3, 320 kbps Galfimbul 110656290106 MB 0 0 1417813569

00:06

6-Дек-14

Rосk | Mеtаl | Аltеrnаtivе, Рunk, Indереndеnt (mр3) ·· (Rock Ballad) H2O - Vol.6 Still Roggy…..But - 2014, MP3, 320 kbps Galfimbul 110656290106 MB 0 0 1416582056

18:00

21-Ноя-14

Rосk | Mеtаl | Аltеrnаtivе, Рunk, Indереndеnt (mр3) ·· (Punk/Hardcore) H2O - Дискография (1994-2011), (splits w. Dropkick Murphys), (26CD), MP3 (tracks), VBR 192-320 kbps Galfimbul 11705999221.09 GB 0 0 1416040542

11:35

15-Ноя-14

Электронная музыка (mp3) ·· (Chillout) H2O - Коллекция 1994-1996 (2 сингла + бонусы), MP3, 192-320 kbps Galfimbul 8355261780 MB 0 0 1414503198

16:33

28-Окт-14

Электронная музыка (mp3) ·· (Chillout, Apoptygma Berzerk, Stephan Groth) H2O - 2 сингла + бонусы - 1994, MP3, 192-320 kbps Galfimbul 7787396474 MB 0 0 1413203911

15:38

13-Окт-14

Электронная музыка (lossless) ·· (Psy Trance) Alien Project - Activation Portal (H2O Records [H2O1CD002]) - 2007, FLAC (tracks+.cue), lossless Galfimbul 564277026538 MB 0 0 1370595515

11:58

7-Июн-13

Электронная музыка (mp3) ·· (Tribal House) Sharam Jey - Shake Your... (Underwater Records [H2O 030]) - Vinyl - 2003, MP3 (tracks), 192 kbps Galfimbul 2361139223 MB 0 0 1368650681

23:44

15-Май-13

Rосk | Mеtаl | Аltеrnаtivе, Рunk, Indереndеnt (mр3) ·· (Folk-Punk/Oi) Dropkick Murphys - Discography/Дискография (47 релизов w. Ducky Boys, The Bruisers, Anti-Heroes, Oxymoron, Agnostic Front, The Business, H2O, Face To Face), 1997 - 2013, MP3 (tracks), 192-320 kbps Galfimbul 32676181473.04 GB 0 0 1362043419

12:23

28-Фев-13

Электронная музыка (lossless) ·· (House) [24 bit / 96 kHz] H2O - Satisfied (Take Me Higher) & Nobody's Business (AMPMDJ 091) Vinyl (1997), FLAC (tracks) Galfimbul 620142698591 MB 0 0 1361798656

16:24

25-Фев-13

Электронная музыка ·· (House, Electro Progressive, Progressive House) Dj Alexey Romeo @ Live Mix H2O Kazantip 2012 (17.08.2012) , MP3 (image), 320 kbps Galfimbul 253015108241 MB 0 0 1346157720

15:42

28-Авг-12

Rосk | Mеtаl | Аltеrnаtivе, Рunk, Indереndеnt (mр3) ·· (Rock Progressivo Italiano) H2O - Коллекция 1997-2001 (2 альбома), MP3, 320 kbps Devil_Black 244398627233 MB 0 0 1324206109

14:01

18-Дек-11

Еще никто не оставлял запись к записи скачать торрент H2O . Будь первым!

!Обратная связь