Скачать через торрент Кровь: Последний вампир Blood: The Last Vampire бесплатно Аниме Все серии на русском torrent

Если у вас наблюдаются проблемы со скриншотами, переходом по ссылками, скачиванием торрентов - проблемы в блокировщике рекламы AdBlock. #хорошегоДня!


Статистика раздачи
Размер:  7.2 GB   |    Зарегистрирован:  1 год 4 месяца   |    .torrent скачан:  53 раза   |   
Раздают:  2  
   
Загрузка...
 
Автор Сообщение

Galfimbul

avatar Galfimbul


Кровь: Последний вампир / Blood: The Last Vampire

Страна: Япония
Год выпуска: 2000 г.
Жанр: приключения, ужасы
Тип: Movie
Продолжительность: 48 мин.
Режиссер: Китакубо Хироюки

Описание: Описание: Америка на пороге Вьетнамской войны. На японской базе воздушных сил Екота нарастает напряжение. Но существует более великая опасность в стенах охраняемого комплекса: Вампиры!
Команда сверх-секретных агентов высылает на их уничтожение загадочную юную девушку…

Доп. информация:
Movie: авторский перевод с английского и озвучивание - Андрей Гаврилов по заказу компании Animegroup в 2007 году.
Extras "Кровь последнего вампира: Создание" (45 мин.): Перевод с японского и озвучивание Юки Нацуи.

Качество: DVD9
Формат экрана: 16:9
Система / Разрешение: NTSC (720x480)
Средний битрейт: 7 216 Kbps
Аудио 1: AC-3, 448 Kbps, 6 channels Язык Русский
Аудио 2: AC-3, 448 Kbps, 6 channels Язык Японский
Аудио 3: AC-3, 192 Kbps, 2 channels Язык Японский
Аудио 4: AC-3, 448 Kbps, 6 channels Музыкальная аудиодорожка
Язык субтитров 1: японский (перевод с английского)
Язык субтитров 2: английский
Язык субтитров 3: русский
GeneralComplete name : D:\Films\Blood the Last Vampire\VIDEO_TS\VTS_01_1.VOBFormat : MPEG-PSFile size : 1 024 MiBDuration : 16mn 1sOverall bit rate mode : VariableOverall bit rate : 8 929 Kbps

VideoID : 224 (0xE0)Format : MPEG VideoFormat version : Version 2Format profile : Main@MainFormat settings, BVOP : YesFormat settings, Matrix : CustomFormat settings, GOP : M=3, N=15Format settings, picture st : FrameDuration : 16mn 1sBit rate mode : VariableBit rate : 7 216 KbpsMaximum bit rate : 9 800 KbpsWidth : 720 pixelsHeight : 480 pixelsDisplay aspect ratio : 16:9Frame rate : 29.970 fpsStandard : NTSCColor space : YUVChroma subsampling : 4:2:0Bit depth : 8 bitsScan type : InterlacedScan order : Top Field FirstCompression mode : LossyBits/(Pixel*Frame) : 0.697Stream size : 827 MiB (81%)

Audio #1ID : 189 (0xBD)-128 (0x80)Format : AC-3Format/Info : Audio Coding 3Mode extension : CM (complete main)Format settings, Endianness : BigMuxing mode : DVD-VideoDuration : 16mn 1sBit rate mode : ConstantBit rate : 448 KbpsChannel(s) : 6 channelsChannel positions : Front: L C R, Side: L R, LFESampling rate : 48.0 KHzCompression mode : LossyStream size : 51.4 MiB (5%)

Audio #2ID : 189 (0xBD)-129 (0x81)Format : AC-3Format/Info : Audio Coding 3Mode extension : CM (complete main)Format settings, Endianness : BigMuxing mode : DVD-VideoDuration : 16mn 1sBit rate mode : ConstantBit rate : 448 KbpsChannel(s) : 6 channelsChannel positions : Front: L C R, Side: L R, LFESampling rate : 48.0 KHzCompression mode : LossyStream size : 51.4 MiB (5%)

Audio #3ID : 189 (0xBD)-130 (0x82)Format : AC-3Format/Info : Audio Coding 3Format profile : Dolby DigitalMode extension : CM (complete main)Format settings, Endianness : BigMuxing mode : DVD-VideoDuration : 16mn 1sBit rate mode : ConstantBit rate : 192 KbpsChannel(s) : 2 channelsChannel positions : Front: L RSampling rate : 48.0 KHzCompression mode : LossyStream size : 22.0 MiB (2%)

Audio #4ID : 189 (0xBD)-131 (0x83)Format : AC-3Format/Info : Audio Coding 3Mode extension : CM (complete main)Format settings, Endianness : BigMuxing mode : DVD-VideoDuration : 16mn 1sBit rate mode : ConstantBit rate : 448 KbpsChannel(s) : 6 channelsChannel positions : Front: L C R, Side: L R, LFESampling rate : 48.0 KHzCompression mode : LossyStream size : 51.4 MiB (5%)

Text #1ID : 189 (0xBD)-34 (0x22)Format : RLEFormat/Info : Run-length encodingMuxing mode : DVD-VideoDelay relative to video : 3s 503ms

Text #2ID : 189 (0xBD)-35 (0x23)Format : RLEFormat/Info : Run-length encodingMuxing mode : DVD-VideoDelay relative to video : 3s 503ms

Text #3ID : 189 (0xBD)-36 (0x24)Format : RLEFormat/Info : Run-length encodingMuxing mode : DVD-VideoDelay relative to video : 3s 236ms

Menu
<a href="viewtopic.php?t=150993" class="postLink">...150993</a> - DVD-9, там DVD-5; альтернативная озвучка.


Трекер:  [ 10-Апр-2016 16:30 ]

  

Скачать .torrent

Размер .torrent файла 19 KB


Размер: 7.2 GB
Хэш (hash) релиза: fa4b9cf1fe509bddff904ce4704c57faba932e
Подписка на обновления:

Торренты, похожие на Кровь: Последний вампир Blood: The Last Vampire скачать торрент

Форум Название Автор Размер S L Добавлен
Аниме | HD Rips ·· Кровь: Последний вампир / Blood: the Last Vampire [Movie] [без хардсаба] [RUS(int),ENG,JAP+SUB] [2000 г., приключения, фэнтези, ужасы, вампиры, BDRip] [720p] Bot 24883928992.32 GB 0 0 1286480885

22:48

7-Окт-10

Аниме | Blu-Ray и BDRemux ·· Кровь: Последний вампир / Blood: The Last Vampire [Movie] [RUS(ext)x2,JAP,ENG+sub][2000, приключения, ужасы, bdremux][1080p] Polarnik 92324552538.6 GB 0 0 1348228500

14:55

21-Сен-12

Аниме | Rips ·· Кровь: Последний вампир / Blood: The Last Vampire [Movie] [Без хардсаба] [RUS(int), JAP, SUB] [2000 г., Мистика, DVDRip] [HWP] Galfimbul 803748332767 MB 0 0 1346401260

11:21

31-Авг-12

Аниме | Rips ·· Кровь: Последний вампир / Blood: The Last Vampire [MOVIE] [RUS, JAP+SUB] (Хироюки Китакубо) [2000, Ужасы, Боевик, Мультфильм, Аниме, BDRip] [Профессиональная ] Demonessa 939892736896 MB 0 0 1300757820

04:37

22-Мар-11

Аниме | Rips ·· Кровь: Последний вампир / Blood: The Last Vampire [MOVIE] [RUS, JAP ext] (Хироюки Китакубо) [2000, Ужасы, Боевик, Мультфильм, Аниме, BDRip] [Профессиональный] Demonessa 784300032748 MB 0 0 1300755760

04:02

22-Мар-11

Аниме | HD Rips ·· Кровь: Последний вампир / Blood: The Last Vampire [MOVIE] [RUS, ENG+SUB] [2000, аниме, мультфильм, ужасы, боевик, BDRip 1080p] [Профессиональная ] Demonessa 23500474792.19 GB 0 0 1300755461

03:57

22-Мар-11

Еще никто не оставлял запись к записи скачать торрент Кровь: Последний вампир Blood: The Last Vampire . Будь первым!

!Обратная связь