Скачать через торрент музыку Инквизитор: Колодец и маятник The Pit And The Pendulum бесплатно без регистрации torrent

Если у вас наблюдаются проблемы со скриншотами, переходом по ссылками, скачиванием торрентов - проблемы в блокировщике рекламы AdBlock. #хорошегоДня!


Статистика раздачи
Размер:  246 MB   |    Зарегистрирован:  1 год 5 месяцев   |    .torrent скачан:  13 раз   |   
Раздают:  1  
   
Загрузка...
 
Автор Сообщение

Galfimbul

avatar Galfimbul


Инквизитор: Колодец и маятник / The Pit And The Pendulum
Жанр: Score
Композитор: Richard Band
Год выпуска диска: 1991
Производитель диска: Disctronics. USA
Издатель (лейбл): Moonstone Records
Номер по каталогу: MD 9903
Аудиокодек: FLAC (*.flac)
Тип рипа: tracks+.cue
Битрейт аудио: lossless
Продолжительность: 00:48:37
Источник: собственный рип
Наличие сканов в содержимом раздачи: да, 600 dpi
Ссылки: Кинопоиск | IMDB | Wikipedia | SoundtrackCollector
MP3: <a href="viewtopic.php?t=3225921" class="postLink">(Score) Инквизитор: Колодец и маятник / The Pit and The Pendulum (by Richard Band) - 1991, MP3 (tracks), 320 kbps</a>
Richard Band: <a href="tracker.php?f=786&nm=Richard+Band" class="postLink">lossless</a> | <a href="tracker.php?f=785&nm=Richard+Band" class="postLink">lossy</a>
01. The Crypt and Main Titles [0:04:00.00]
02. The Chase and Onslaught [0:02:21.05]
03. The Arrest of Maria [0:01:18.22]
04. The Purging of Torquemada [0:01:06.73]
05. Antonio Sneaks Into the Castle [0:02:38.35]
06. Esmeralda's Meadow Of Peace [0:01:34.32]
07. Antonio Battles the Guards [0:04:05.50]
08. The Pope's Envoy [0:02:13.28]
09. The Rape Of Maria [0:06:02.65]
10. Esmeralda Comforts Maria [0:01:43.15]
11. The Night Auto Da Fe / Esmeralda's Revenge [0:02:37.70]
12. Maria's Burial [0:00:41.32]
13. The Pit and the Pendulum [0:08:48.28]
14. Justice For the Grand Inquisitor...Death [0:03:36.30]
15. Maria's Resurrection and Finale [0:05:51.35]
Exact Audio Copy V1.1 from 23. June 2015

EAC extraction logfile from 5. April 2016, 12:00

Richard Band / The Pit & The Pendulum

Used drive : PLEXTOR CD-R PX-230A Adapter: 1 ID: 2

Read mode : SecureUtilize accurate stream : YesDefeat audio cache : YesMake use of C2 pointers : No

Read offset correction : 738Overread into Lead-In and Lead-Out : NoFill up missing offset samples with silence : YesDelete leading and trailing silent blocks : NoNull samples used in CRC calculations : YesUsed interface : Native Win32 interface for Win NT & 2000Gap handling : Appended to previous track

Used output format : User Defined EncoderSelected bitrate : 1024 kBit/sQuality : HighAdd ID3 tag : NoCommand line compressor : C:\Program Files (x86)\Exact Audio Copy\FLAC\FLAC.EXEAdditional command line options : -6 -V -T "ARTIST=%artist%" -T "TITLE=%title%" -T "ALBUM=%albumtitle%" -T "DATE=%year%"-T "TRACKNUMBER=%tracknr%" -T "GENRE=%genre%" -T "COMMENT=%comment%" -T "ALBUMARTIST=%albuminterpret%" -T "COMPOSER=%composer%"-T "DISCNUMBER=%cdnumber%" -T "TOTALDISCS=%totalcds%" -T "TOTALTRACKS=%numtracks%" %source% -o %dest%

TOC of the extracted CD

Track | Start | Length | Start sector | End sector --------------------------------------------------------- 1 | 0:00.00 | 4:00.00 | 0 | 17999 2 | 4:00.00 | 2:21.05 | 18000 | 28579 3 | 6:21.05 | 1:18.22 | 28580 | 34451 4 | 7:39.27 | 1:06.73 | 34452 | 39474 5 | 8:46.25 | 2:38.35 | 39475 | 51359 6 | 11:24.60 | 1:34.32 | 51360 | 58441 7 | 12:59.17 | 4:05.50 | 58442 | 76866 8 | 17:04.67 | 2:13.28 | 76867 | 86869 9 | 19:18.20 | 6:02.65 | 86870 | 114084 10 | 25:21.10 | 1:43.15 | 114085 | 121824 11 | 27:04.25 | 2:37.70 | 121825 | 133669 12 | 29:42.20 | 0:41.32 | 133670 | 136776 13 | 30:23.52 | 8:48.28 | 136777 | 176404 14 | 39:12.05 | 3:36.30 | 176405 | 192634 15 | 42:48.35 | 5:51.35 | 192635 | 218994

Track 1

Filename C:\Music\01 - Richard Band - The Crypt and Main Titles.wav

Pre-gap length 0:00:02.00

Peak level 80.0 % Extraction speed 3.6 X Track quality 99.9 % Test CRC FEF67802 Copy CRC FEF67802 Accurately ripped (confidence 1) [5494FF0B] (AR v1) Copy OK

Track 2

Filename C:\Music\02 - Richard Band - The Chase and Onslaught.wav

Pre-gap length 0:00:00.50

Peak level 90.4 % Extraction speed 3.7 X Track quality 99.9 % Test CRC E974BD6B Copy CRC E974BD6B Accurately ripped (confidence 1) [2E125DED] (AR v1) Copy OK

Track 3

Filename C:\Music\03 - Richard Band - The Arrest of Maria.wav

Pre-gap length 0:00:02.30

Peak level 48.9 % Extraction speed 4.2 X Track quality 100.0 % Test CRC 588B8F09 Copy CRC 588B8F09 Accurately ripped (confidence 1) [B776641D] (AR v1) Copy OK

Track 4

Filename C:\Music\04 - Richard Band - The Purging of Torquemada.wav

Pre-gap length 0:00:01.50

Peak level 26.7 % Extraction speed 4.0 X Track quality 100.0 % Test CRC 74E0D167 Copy CRC 74E0D167 Accurately ripped (confidence 1) [E256D0E1] (AR v1) Copy OK

Track 5

Filename C:\Music\05 - Richard Band - Antonio Sneaks Into the Castle.wav

Pre-gap length 0:00:01.53

Peak level 59.6 % Extraction speed 4.7 X Track quality 100.0 % Test CRC A5F6FCE9 Copy CRC A5F6FCE9 Accurately ripped (confidence 1) [6F5083BB] (AR v1) Copy OK

Track 6

Filename C:\Music\06 - Richard Band - Esmeralda's Meadow Of Peace.wav

Pre-gap length 0:00:02.20

Peak level 65.9 % Extraction speed 4.4 X Track quality 100.0 % Test CRC 83004E0C Copy CRC 83004E0C Accurately ripped (confidence 1) [3D727ABE] (AR v1) Copy OK

Track 7

Filename C:\Music\07 - Richard Band - Antonio Battles the Guards.wav

Pre-gap length 0:00:01.72

Peak level 88.4 % Extraction speed 4.8 X Track quality 99.9 % Test CRC E204626B Copy CRC E204626B Accurately ripped (confidence 1) [98FA84A9] (AR v1) Copy OK

Track 8

Filename C:\Music\08 - Richard Band - The Pope's Envoy.wav

Pre-gap length 0:00:02.20

Peak level 89.6 % Extraction speed 4.9 X Track quality 100.0 % Test CRC 1430922D Copy CRC 1430922D Accurately ripped (confidence 1) [13A7D122] (AR v1) Copy OK

Track 9

Filename C:\Music\09 - Richard Band - The Rape Of Maria.wav

Pre-gap length 0:00:01.63

Peak level 92.0 % Extraction speed 5.1 X Track quality 99.9 % Test CRC BE6DE20E Copy CRC BE6DE20E Accurately ripped (confidence 1) [6C2FB75C] (AR v1) Copy OK

Track 10

Filename C:\Music\10 - Richard Band - Esmeralda Comforts Maria.wav

Pre-gap length 0:00:02.53

Peak level 84.8 % Extraction speed 4.6 X Track quality 100.0 % Test CRC 363E5E49 Copy CRC 363E5E49 Accurately ripped (confidence 1) [62015D1B] (AR v1) Copy OK

Track 11

Filename C:\Music\11 - Richard Band - The Night Auto Da Fe , Esmeralda's Revenge.wav

Pre-gap length 0:00:01.63

Peak level 100.0 % Extraction speed 5.0 X Track quality 100.0 % Test CRC E51C2477 Copy CRC E51C2477 Accurately ripped (confidence 1) [BE0D7ADF] (AR v1) Copy OK

Track 12

Filename C:\Music\12 - Richard Band - Maria's Burial.wav

Pre-gap length 0:00:03.13

Peak level 31.9 % Extraction speed 3.2 X Track quality 100.0 % Test CRC 350C781D Copy CRC 350C781D Accurately ripped (confidence 1) [74B57F77] (AR v1) Copy OK

Track 13

Filename C:\Music\13 - Richard Band - The Pit and the Pendulum.wav

Pre-gap length 0:00:01.35

Peak level 94.6 % Extraction speed 4.7 X Track quality 100.0 % Test CRC 0FC262D8 Copy CRC 0FC262D8 Accurately ripped (confidence 1) [AB745329] (AR v1) Copy OK

Track 14

Filename C:\Music\14 - Richard Band - Justice For the Grand Inquisitor...Death.wav

Pre-gap length 0:00:02.53

Peak level 58.2 % Extraction speed 5.3 X Track quality 100.0 % Test CRC A2AC8143 Copy CRC A2AC8143 Accurately ripped (confidence 1) [E665AFF9] (AR v1) Copy OK

Track 15

Filename C:\Music\15 - Richard Band - Maria's Resurrection and Finale.wav

Pre-gap length 0:00:01.48

Peak level 91.2 % Extraction speed 4.4 X Track quality 100.0 % Test CRC 7E0DE5A3 Copy CRC 7E0DE5A3 Accurately ripped (confidence 1) [67C3B574] (AR v1) Copy OK

All tracks accurately ripped

No errors occurred

End of status report

---- CUETools DB Plugin V2.1.6

[CTDB TOCID: 3ZYeBkJhwXCW9iuSuXEPvThySCU-] foundSubmit result: 3ZYeBkJhwXCW9iuSuXEPvThySCU- has been confirmedTrack | CTDB Status 1 | (3/3) Accurately ripped 2 | (3/3) Accurately ripped 3 | (3/3) Accurately ripped 4 | (3/3) Accurately ripped 5 | (3/3) Accurately ripped 6 | (3/3) Accurately ripped 7 | (3/3) Accurately ripped 8 | (3/3) Accurately ripped 9 | (3/3) Accurately ripped 10 | (3/3) Accurately ripped 11 | (3/3) Accurately ripped 12 | (3/3) Accurately ripped 13 | (3/3) Accurately ripped 14 | (3/3) Accurately ripped 15 | (3/3) Accurately ripped

==== Log checksum 3B5CAD4AE4C1D7E69FB8F09EB618559E82C8261582B226D03B93B53987D68C85 ====
REM GENRE SoundtrackREM DATE 1991REM DISCID C10B670FREM COMMENT "ExactAudioCopy v1.1"PERFORMER "Richard Band"TITLE "The Pit & The Pendulum"FILE "01 - Richard Band - The Crypt and Main Titles.wav" WAVE TRACK 01 AUDIO TITLE "The Crypt and Main Titles" PERFORMER "Richard Band" INDEX 01 00:00:00 TRACK 02 AUDIO TITLE "The Chase and Onslaught" PERFORMER "Richard Band" INDEX 00 03:59:25FILE "02 - Richard Band - The Chase and Onslaught.wav" WAVE INDEX 01 00:00:00 TRACK 03 AUDIO TITLE "The Arrest of Maria" PERFORMER "Richard Band" INDEX 00 02:18:50FILE "03 - Richard Band - The Arrest of Maria.wav" WAVE INDEX 01 00:00:00 TRACK 04 AUDIO TITLE "The Purging of Torquemada" PERFORMER "Richard Band" INDEX 00 01:16:47FILE "04 - Richard Band - The Purging of Torquemada.wav" WAVE INDEX 01 00:00:00 TRACK 05 AUDIO TITLE "Antonio Sneaks Into the Castle" PERFORMER "Richard Band" INDEX 00 01:05:20FILE "05 - Richard Band - Antonio Sneaks Into the Castle.wav" WAVE INDEX 01 00:00:00 TRACK 06 AUDIO TITLE "Esmeralda's Meadow Of Peace" PERFORMER "Richard Band" INDEX 00 02:36:15FILE "06 - Richard Band - Esmeralda's Meadow Of Peace.wav" WAVE INDEX 01 00:00:00 TRACK 07 AUDIO TITLE "Antonio Battles the Guards" PERFORMER "Richard Band" INDEX 00 01:32:35FILE "07 - Richard Band - Antonio Battles the Guards.wav" WAVE INDEX 01 00:00:00 TRACK 08 AUDIO TITLE "The Pope's Envoy" PERFORMER "Richard Band" INDEX 00 04:03:30FILE "08 - Richard Band - The Pope's Envoy.wav" WAVE INDEX 01 00:00:00 TRACK 09 AUDIO TITLE "The Rape Of Maria" PERFORMER "Richard Band" INDEX 00 02:11:40FILE "09 - Richard Band - The Rape Of Maria.wav" WAVE INDEX 01 00:00:00 TRACK 10 AUDIO TITLE "Esmeralda Comforts Maria" PERFORMER "Richard Band" INDEX 00 06:00:12FILE "10 - Richard Band - Esmeralda Comforts Maria.wav" WAVE INDEX 01 00:00:00 TRACK 11 AUDIO TITLE "The Night Auto Da Fe / Esmeralda's Revenge" PERFORMER "Richard Band" INDEX 00 01:41:27FILE "11 - Richard Band - The Night Auto Da Fe , Esmeralda's Revenge.wav" WAVE INDEX 01 00:00:00 TRACK 12 AUDIO TITLE "Maria's Burial" PERFORMER "Richard Band" INDEX 00 02:34:57FILE "12 - Richard Band - Maria's Burial.wav" WAVE INDEX 01 00:00:00 TRACK 13 AUDIO TITLE "The Pit and the Pendulum" PERFORMER "Richard Band" INDEX 00 00:39:72FILE "13 - Richard Band - The Pit and the Pendulum.wav" WAVE INDEX 01 00:00:00 TRACK 14 AUDIO TITLE "Justice For the Grand Inquisitor...Death" PERFORMER "Richard Band" INDEX 00 08:45:50FILE "14 - Richard Band - Justice For the Grand Inquisitor...Death.wav" WAVE INDEX 01 00:00:00 TRACK 15 AUDIO TITLE "Maria's Resurrection and Finale" PERFORMER "Richard Band" INDEX 00 03:34:57FILE "15 - Richard Band - Maria's Resurrection and Finale.wav" WAVE INDEX 01 00:00:00


Трекер:  [ 10-Апр-2016 10:00 ]

  

Скачать .torrent

Размер .torrent файла 11 KB


Размер: 246 MB
Хэш (hash) релиза: 98e651724ef416cad81886a4476ffaeb2e63c35f

Торренты, похожие на Инквизитор: Колодец и маятник The Pit And The Pendulum скачать торрент

Форум Название Автор Размер S L Добавлен
Саундтреки к фильмам и мультфильмам (lossless) ·· (Score) Инквизитор: Колодец и маятник / The Pit And The Pendulum [Expanded] (by Richard Band) - 2014 (1991), FLAC (tracks+.cue), lossless Galfimbul 408531062390 MB 0 0 1460654792

20:26

14-Апр-16

Саундтреки к фильмам и мультфильмам (mp3) ·· (Score) Инквизитор: Колодец и маятник / The Pit And The Pendulum [Expanded] (by Richard Band) - 2014 (1991), MP3 (tracks) 320 kbps Galfimbul 186692355178 MB 0 0 1460654743

20:25

14-Апр-16

Еще никто не оставлял запись к записи скачать торрент Инквизитор: Колодец и маятник The Pit And The Pendulum . Будь первым!

!Обратная связь