Скачать через торрент музыку Стрекоза Dragonfly бесплатно без регистрации torrent

Если у вас наблюдаются проблемы со скриншотами, переходом по ссылками, скачиванием торрентов - проблемы в блокировщике рекламы AdBlock. #хорошегоДня!


Статистика раздачи
Размер:  157 MB   |    Зарегистрирован:  1 год 5 месяцев   |    .torrent скачан:  16 раз   |   
Раздают:  1  
   
Загрузка...
 
Автор Сообщение

Galfimbul

avatar Galfimbul


Стрекоза / Dragonfly
Жанр: Score
Композитор: John Debney
Год выпуска диска: 2002
Производитель диска: P&O, Germany
Издатель (лейбл): Varèse Sarabande
Номер по каталогу: VSD 6338
Аудиокодек: FLAC (*.flac)
Тип рипа: tracks+.cue
Битрейт аудио: lossless
Продолжительность: 00:31:16
Источник: собственный рип
Наличие сканов в содержимом раздачи: да, 600 dpi
Ссылки: Кинопоиск | IMDB | Wikipedia | SoundtrackCollector
MP3: <a href="viewtopic.php?t=999999999999" class="postLink">coming soon</a>
John Debney: <a href="tracker.php?f=786&nm=John+Debney" class="postLink">lossless</a> | <a href="tracker.php?f=785&nm=John+Debney" class="postLink">lossy</a>
01. Main Titles [0:04:12.62]
02. Joe And Emily Flashback [0:03:42.74]
03. Donor Body Awakens [0:04:47.36]
04. Meeting Sister Madeline [0:05:35.28]
05. Plane Ride [0:02:32.34]
06. Emily's Grave [0:03:14.33]
07. Emily's Message Revealed [0:07:11.43]
Exact Audio Copy V1.1 from 23. June 2015

EAC extraction logfile from 9. April 2016, 18:44

John Debney / Dragonfly

Used drive : PLEXTOR CD-R PX-230A Adapter: 1 ID: 2

Read mode : SecureUtilize accurate stream : YesDefeat audio cache : YesMake use of C2 pointers : No

Read offset correction : 738Overread into Lead-In and Lead-Out : NoFill up missing offset samples with silence : YesDelete leading and trailing silent blocks : NoNull samples used in CRC calculations : YesUsed interface : Native Win32 interface for Win NT & 2000Gap handling : Appended to previous track

Used output format : User Defined EncoderSelected bitrate : 1024 kBit/sQuality : HighAdd ID3 tag : NoCommand line compressor : C:\Program Files (x86)\Exact Audio Copy\FLAC\FLAC.EXEAdditional command line options : -6 -V -T "ARTIST=%artist%" -T "TITLE=%title%" -T "ALBUM=%albumtitle%" -T "DATE=%year%"-T "TRACKNUMBER=%tracknr%" -T "GENRE=%genre%" -T "COMMENT=%comment%" -T "ALBUMARTIST=%albuminterpret%" -T "COMPOSER=%composer%"-T "DISCNUMBER=%cdnumber%" -T "TOTALDISCS=%totalcds%" -T "TOTALTRACKS=%numtracks%" %source% -o %dest%

TOC of the extracted CD

Track | Start | Length | Start sector | End sector --------------------------------------------------------- 1 | 0:00.00 | 4:12.62 | 0 | 18961 2 | 4:12.62 | 3:42.74 | 18962 | 35685 3 | 7:55.61 | 4:47.36 | 35686 | 57246 4 | 12:43.22 | 5:35.28 | 57247 | 82399 5 | 18:18.50 | 2:32.34 | 82400 | 93833 6 | 20:51.09 | 3:14.33 | 93834 | 108416 7 | 24:05.42 | 7:11.43 | 108417 | 140784

Track 1

Filename C:\Music\01 - John Debney - Main Titles.wav

Pre-gap length 0:00:02.00

Peak level 97.4 % Extraction speed 5.2 X Track quality 100.0 % Test CRC 20BC21AD Copy CRC 20BC21AD Accurately ripped (confidence 3) [C820CD72] (AR v2) Copy OK

Track 2

Filename C:\Music\02 - John Debney - Joe And Emily Flashback.wav

Peak level 38.4 % Extraction speed 5.3 X Track quality 100.0 % Test CRC 04DF3E8A Copy CRC 04DF3E8A Accurately ripped (confidence 3) [86CDF2B2] (AR v2) Copy OK

Track 3

Filename C:\Music\03 - John Debney - Donor Body Awakens.wav

Peak level 97.4 % Extraction speed 4.9 X Track quality 99.9 % Test CRC 950C07A6 Copy CRC 950C07A6 Accurately ripped (confidence 3) [DFD0CF22] (AR v2) Copy OK

Track 4

Filename C:\Music\04 - John Debney - Meeting Sister Madeline.wav

Peak level 39.4 % Extraction speed 5.5 X Track quality 100.0 % Test CRC 5B1CC551 Copy CRC 5B1CC551 Accurately ripped (confidence 3) [E09BA11A] (AR v2) Copy OK

Track 5

Filename C:\Music\05 - John Debney - Plane Ride.wav

Peak level 96.0 % Extraction speed 4.9 X Track quality 100.0 % Test CRC 70B5F148 Copy CRC 70B5F148 Accurately ripped (confidence 3) [5321CBB1] (AR v2) Copy OK

Track 6

Filename C:\Music\06 - John Debney - Emily's Grave.wav

Peak level 89.2 % Extraction speed 5.1 X Track quality 100.0 % Test CRC 19C0B4A6 Copy CRC 19C0B4A6 Accurately ripped (confidence 3) [9F18D1FE] (AR v2) Copy OK

Track 7

Filename C:\Music\07 - John Debney - Emily's Message Revealed.wav

Peak level 97.4 % Extraction speed 5.5 X Track quality 100.0 % Test CRC 7B6F7C38 Copy CRC 7B6F7C38 Accurately ripped (confidence 3) [8512B4D8] (AR v2) Copy OK

All tracks accurately ripped

No errors occurred

End of status report

---- CUETools DB Plugin V2.1.6

[CTDB TOCID: odQn8QkN.CTL4J4F0fcsKxL1re8-] foundSubmit result: odQn8QkN.CTL4J4F0fcsKxL1re8- has been confirmedTrack | CTDB Status 1 | (2/4) Accurately ripped 2 | (2/4) Accurately ripped 3 | (2/4) Accurately ripped 4 | (2/4) Accurately ripped 5 | (2/4) Accurately ripped 6 | (2/4) Accurately ripped 7 | (2/4) Accurately ripped

==== Log checksum 68A8811D8FFB7FC3FD0A31273549519D33FB2E0CA1E2290A59F7A938EDC4E40F ====
REM GENRE SoundtrackREM DATE 2002REM DISCID 4E075507REM COMMENT "ExactAudioCopy v1.1"PERFORMER "John Debney"TITLE "Dragonfly"FILE "01 - John Debney - Main Titles.wav" WAVE TRACK 01 AUDIO TITLE "Main Titles" PERFORMER "John Debney" INDEX 01 00:00:00FILE "02 - John Debney - Joe And Emily Flashback.wav" WAVE TRACK 02 AUDIO TITLE "Joe And Emily Flashback" PERFORMER "John Debney" INDEX 01 00:00:00FILE "03 - John Debney - Donor Body Awakens.wav" WAVE TRACK 03 AUDIO TITLE "Donor Body Awakens" PERFORMER "John Debney" INDEX 01 00:00:00FILE "04 - John Debney - Meeting Sister Madeline.wav" WAVE TRACK 04 AUDIO TITLE "Meeting Sister Madeline" PERFORMER "John Debney" INDEX 01 00:00:00FILE "05 - John Debney - Plane Ride.wav" WAVE TRACK 05 AUDIO TITLE "Plane Ride" PERFORMER "John Debney" INDEX 01 00:00:00FILE "06 - John Debney - Emily's Grave.wav" WAVE TRACK 06 AUDIO TITLE "Emily's Grave" PERFORMER "John Debney" INDEX 01 00:00:00FILE "07 - John Debney - Emily's Message Revealed.wav" WAVE TRACK 07 AUDIO TITLE "Emily's Message Revealed" PERFORMER "John Debney" INDEX 01 00:00:00


Трекер:  [ 10-Апр-2016 10:00 ]

  

Скачать .torrent

Размер .torrent файла 7 KB


Размер: 157 MB
Хэш (hash) релиза: d6ebfc4c101350aa14f79f2d808573ad6a92aef5

Торренты, похожие на Стрекоза Dragonfly скачать торрент

Форум Название Автор Размер S L Добавлен
Саундтреки к фильмам и мультфильмам (mp3) ·· (Score) Стрекоза / Dragonfly (by John Debney) - 2002, MP3 (tracks) 320 kbps Galfimbul 9051056386 MB 0 0 1460278731

11:58

10-Апр-16

Еще никто не оставлял запись к записи скачать торрент Стрекоза Dragonfly . Будь первым!

!Обратная связь