Скачать через торрент С нуля: пособие по выживанию в альтернативном мире Re: Zero kara Hajimeru Isekai Seikatsu бесплатно Аниме Все серии на русском torrent

Если у вас наблюдаются проблемы со скриншотами, переходом по ссылками, скачиванием торрентов - проблемы в блокировщике рекламы AdBlock. #хорошегоДня!


Статистика раздачи
Размер:  777 MB   |    Зарегистрирован:  1 год 5 месяцев   |    .torrent скачан:  40 раз   |   
Раздают:  1  
   
Загрузка...
 
Автор Сообщение

Galfimbul

avatar Galfimbul



С нуля: пособие по выживанию в альтернативном мире / Re: Zero kara Hajimeru Isekai Seikatsu / Re: Zero - Starting Life in Another World
Год выпуска: 2016 г.
Страна: Япония
Жанр: Приключения, Фентези
Тип: TV
Продолжительность: 25 эп. по 00:49:29
Режиссер: Ватанабэ Масахару
Студия: White Fox
Перевод:
<ol class="post-ul">
Русские субтитры от mikanya & kis-kis
</ol>
Озвучка:
<ol class="post-ul">
Многоголосая от Kiara_Laine & Oriko & Balfor & Cuba77 (AniDub)
</ol>
Описание:
На обратном пути из магазина Субару Нацуки неожиданно призывают в другой мир. Стоит чёрт знает где, самого призывающего ни следа, а на него ещё и нападают! Дело было бы совсем дрянь, если бы не прекрасная сереброволосая дева с пушистым котиком наперевес, которая спасает Субару, после чего тот в благодарность присоединяется к ней. Стоит им найти подсказку — и обоих тут же убивают.
Субару приходит в себя в том же месте, что в первый раз, и обнаруживает у себя неплохую способность — «Возврат в прошлое после смерти». Сможет ли беспомощный парень, умеющий только отматывать время, спасти девушку от смертельной участи?
Информационные ссылки: World Art || AniDB || MAL
Качество: HDTVRip | Рип: [Leopard-Raws]
Тип релиза: Без хардсаба
Формат видео: MP4
Наличие линковки: Нет
Видео: AVC, 1280x720, 1807 kbps, 23.976 fps [8 bit]
Аудио:
1. Russian AC3, 48.0 KHz, 192 kbps, 2 ch (внешние) - [AniDub];
2. Japanese AAC, 48.0 KHz, 192 kbps, 2 ch;
Субтитры:
<ol class="post-ul">
Russian: ASS, внешние;
</ol>
General Format : MPEG-4 Format profile : Base Media Codec ID : isom File size : 709 MiB Duration : 49mn 29s Overall bit rate mode : Variable Overall bit rate : 2 003 Kbps Encoded date : UTC 2016-04-04 07:03:23 Tagged date : UTC 2016-04-04 07:03:23 Video #1 ID : 1 Format : AVC Format/Info : Advanced Video Codec Format profile : High@L4.1 Format settings, CABAC : Yes Format settings, ReFrames : 4 frames Codec ID : avc1 Codec ID/Info : Advanced Video Coding Duration : 49mn 29s Bit rate : 1 807 Kbps Maximum bit rate : 24.2 Mbps Width : 1 280 pixels Height : 720 pixels Display aspect ratio : 16:9 Frame rate mode : Constant Frame rate : 23.976 fps Color space : YUV Chroma subsampling : 4:2:0 Bit depth : 8 bits Scan type : Progressive Bits/(Pixel*Frame) : 0.082 Stream size : 640 MiB (90%) Title : 264:fps=23.976@GPAC0.5.1-DEV-rev4929 Writing library : x264 core 129 r2245+729M 1a52e03 Encoding settings : cabac=1 / ref=4 / deblock=1:1:-1 / analyse=0x3:0x113 / me=umh / subme=9 / psy=1 / fade_compensate=0.00 / psy_rd=1.00:0.00 / mixed_ref=1 / me_range=24 / chroma_me=1 / trellis=2 / 8x8dct=1 / cqm=0 / deadzone=21,11 / fast_pskip=1 / chroma_qp_offset=-2 / threads=8 / lookahead_threads=1 / sliced_threads=0 / nr=0 / decimate=1 / interlaced=0 / bluray_compat=0 / constrained_intra=0 / fgo=0 / bframes=9 / b_pyramid=2 / b_adapt=2 / b_bias=0 / direct=1 / weightb=1 / open_gop=0 / weightp=2 / keyint=240 / keyint_min=24 / scenecut=40 / intra_refresh=0 / rc=crf / mbtree=0 / crf=17.0 / qcomp=0.72 / qpmin=0 / qpmax=69 / qpstep=4 / ip_ratio=1.40 / pb_ratio=1.30 / aq=1:0.85 Encoded date : UTC 2016-04-04 07:03:23 Tagged date : UTC 2016-04-04 07:03:32 Color primaries : BT.709 Transfer characteristics : BT.709 Matrix coefficients : BT.709 Audio #2 ID : 2 Format : AAC Format/Info : Advanced Audio Codec Format profile : LC Codec ID : 40 Duration : 49mn 29s Bit rate mode : Variable Bit rate : 192 Kbps Maximum bit rate : 233 Kbps Channel(s) : 2 channels Channel positions : Front: L R Sampling rate : 48.0 KHz Compression mode : Lossy Stream size : 67.9 MiB (10%) Language : Japanese Encoded date : UTC 2016-04-03 17:59:09 Tagged date : UTC 2016-04-04 07:03:32

01. Конец начало и начало конца / The End of the Beginning and the Beginning of the End
<a href="viewtopic.php?t=5202278" class="postLink">...5202278</a>
- наличие озвучки


Трекер:  [ 07-Апр-2016 07:30 ]

  

Скачать .torrent

Размер .torrent файла 16 KB


Размер: 777 MB
Хэш (hash) релиза: 601ae2729e4f673eb56c6f6172a9ed7572aec4c6
Подписка на обновления:

Еще никто не оставлял запись к записи скачать торрент С нуля: пособие по выживанию в альтернативном мире Re: Zero kara Hajimeru Isekai Seikatsu . Будь первым!

!Обратная связь