Скачать через торрент Сотня Hundred бесплатно Аниме Все серии на русском torrent

Если у вас наблюдаются проблемы со скриншотами, переходом по ссылками, скачиванием торрентов - проблемы в блокировщике рекламы AdBlock. #хорошегоДня!


Статистика раздачи
Размер:  525 MB   |    Зарегистрирован:  1 год 5 месяцев   |    .torrent скачан:  60 раз   |   
Раздают:  1  
   
Загрузка...
 
Автор Сообщение

Galfimbul

avatar Galfimbul



Сотня / Hundred / ハンドレッド
Год выпуска: 2016 г.
Страна: Япония
Жанр: Экшн, Этти, Меха, Гарем, Романтика, Школа
Тип: TV
Продолжительность: 12 эп. по 00:24:14
Режиссер: Кобаяси Томоки
Студия: Production IMS
Перевод:
<ol class="post-ul">
Русские субтитры от Legoffate
</ol>
Озвучка:
<ol class="post-ul">
Одноголосая от (муж) Snowly (SHIZA)
</ol>
Описание:
Однажды на Землю прилетают неизвестные формы жизни, которые называются "Сэйвиджи".
Главный герой сериала, Хаято Кисараги, который стремиться достичь своей цели, стать "мастером боевых искусств", что бы получить специальное оружие "Сотню", способное противостоять этим пришельцам. Он поступает в военно-морскую академию "Маленький Сад", Сразу, как только церемония поступления заканчивается, его сразу же вызывают на дуэль. Причем вызывает не просто кто-то, а президент студсовета "Маленького Сада" Клэр Харви, которая в свою очередь является сильнейшим мастером боевых искусств. Именно с этой встречи начинается его путь к становлению мастером.
Информационные ссылки: World Art || AniDB || MAL
Качество: HDTVRip | Рип: [Leopard-Raws]
Тип релиза: Без хардсаба
Формат видео: MP4
Наличие линковки: Нет
Видео: AVC, 1280x720, 2639 kbps, 23.976 fps [8 bit]
Аудио:
1. Russian AC3, 48.0 KHz, 192 kbps, 2 ch (внешние) - [SHIZA];
2. Japanese AAC, 48.0 KHz, 192 kbps, 2 ch;
Субтитры:
<ol class="post-ul">
Russian: ASS, внешние;
</ol>
General Format : MPEG-4 Format profile : Base Media Codec ID : isom File size : 492 MiB Duration : 24mn 14s Overall bit rate mode : Variable Overall bit rate : 2 835 Kbps Encoded date : UTC 2016-04-05 06:21:13 Tagged date : UTC 2016-04-05 06:21:13 Video #1 ID : 1 Format : AVC Format/Info : Advanced Video Codec Format profile : High@L4.1 Format settings, CABAC : Yes Format settings, ReFrames : 4 frames Codec ID : avc1 Codec ID/Info : Advanced Video Coding Duration : 24mn 14s Bit rate : 2 639 Kbps Maximum bit rate : 11.4 Mbps Width : 1 280 pixels Height : 720 pixels Display aspect ratio : 16:9 Frame rate mode : Constant Frame rate : 23.976 fps Color space : YUV Chroma subsampling : 4:2:0 Bit depth : 8 bits Scan type : Progressive Bits/(Pixel*Frame) : 0.119 Stream size : 458 MiB (93%) Title : 264:fps=23.976@GPAC0.5.1-DEV-rev4929 Writing library : x264 core 129 r2245+729M 1a52e03 Encoding settings : cabac=1 / ref=4 / deblock=1:1:-1 / analyse=0x3:0x113 / me=umh / subme=9 / psy=1 / fade_compensate=0.00 / psy_rd=1.00:0.00 / mixed_ref=1 / me_range=24 / chroma_me=1 / trellis=2 / 8x8dct=1 / cqm=0 / deadzone=21,11 / fast_pskip=1 / chroma_qp_offset=-2 / threads=8 / lookahead_threads=1 / sliced_threads=0 / nr=0 / decimate=1 / interlaced=0 / bluray_compat=0 / constrained_intra=0 / fgo=0 / bframes=9 / b_pyramid=2 / b_adapt=2 / b_bias=0 / direct=1 / weightb=1 / open_gop=0 / weightp=2 / keyint=240 / keyint_min=24 / scenecut=40 / intra_refresh=0 / rc=crf / mbtree=0 / crf=18.0 / qcomp=0.72 / qpmin=0 / qpmax=69 / qpstep=4 / ip_ratio=1.40 / pb_ratio=1.30 / aq=1:0.85 Encoded date : UTC 2016-04-05 06:21:13 Tagged date : UTC 2016-04-05 06:21:16 Color primaries : BT.709 Transfer characteristics : BT.709 Matrix coefficients : BT.709 Audio #2 ID : 2 Format : AAC Format/Info : Advanced Audio Codec Format profile : LC Codec ID : 40 Duration : 24mn 14s Bit rate mode : Variable Bit rate : 192 Kbps Maximum bit rate : 227 Kbps Channel(s) : 2 channels Channel positions : Front: L R Sampling rate : 48.0 KHz Compression mode : Lossy Stream size : 33.3 MiB (7%) Language : Japanese Encoded date : UTC 2016-04-04 17:59:18 Tagged date : UTC 2016-04-05 06:21:16

01. Малый Сад / Little Garden


Трекер:  [ 05-Апр-2016 23:00 ]

  

Скачать .torrent

Размер .torrent файла 11 KB


Размер: 525 MB
Хэш (hash) релиза: a672fa9880270de1468cca629983e90a1d0af5e0
Подписка на обновления:

Торренты, похожие на Сотня Hundred скачать торрент

Форум Название Автор Размер S L Добавлен
Аниме | HD Rips ·· Сотня / Hundred (Кобаяси Томоки) [TV] [12 из 12] [Без хардсаба] [JAP+SUB] [2016, фантастика, меха, комедия, этти, BDRip] [1080p] Galfimbul 2391753558122.27 GB 0 0 1496795625

03:33

7-Июн-17

Аниме | HD Rips ·· Сотня / Hundred (Кобаяси Томоки) [TV] [12 из 12] [Без хардсаба] [JAP+SUB] [2016, приключения, комедия, этти BDRip] [1080p] Galfimbul 2102759467219.58 GB 0 0 1496660228

13:57

5-Июн-17

Аниме | HD Rips ·· Сотня / Hundred (Кобаяси Томоки) [TV] [12 из 12] [без хардсаба] [JAP+SUB] [2016, комедия, этти, BDRip] [720p] Galfimbul 90490125518.43 GB 0 0 1487872769

20:59

23-Фев-17

Аниме | Rips ·· Сотня / Hundred (Кобаяси Томоки) [TV] [12 из 12] [без хардсаба] [RUS(ext), JAP+SUB] [2016, комедия, этти, BDRip] [720p] Galfimbul 94637895048.81 GB 0 0 1487872757

20:59

23-Фев-17

Аниме | HD Rips ·· Сотня / Hundred [TV] [12 из 12] [без хардсаба] [JAP+SUB] [2016, приключения, комедия, этти, BDRemux] [1080p] Galfimbul 8611914478880.2 GB 0 0 1484412234

19:43

14-Янв-17

Аниме | Rips ·· Сотня / Hundred [TV] [12 из 12] [Без хардсаба] [RUS(ext), JAP, SUB] [2016, Экшен, Этти, Меха, Гарем, Романтика, Школа, BDRip] [720p] Galfimbul 63564915355.92 GB 0 0 1484072745

21:25

10-Янв-17

Аниме | Rips ·· Сотня / Hundred [TV] [12 из 12] [Без хардсаба] [RUS(ext), JAP, SUB] [2016 г., Экшен, Этти, Меха, Гарем, Романтика, Школа, HDTVRip] [720p] Galfimbul 64987022066.05 GB 0 0 1467261060

07:31

30-Июн-16

Аниме | Rips ·· Сотня / Hundred [TV] [12 из 12] [Без хардсаба] [RUS(ext), JAP, SUB] [2016 г., Экшен, Этти, Меха, Гарем, Романтика, Школа, HDTVRip] [720p] Galfimbul 64640485666.02 GB 0 0 1466632752

00:59

23-Июн-16

Аниме | Rips ·· Сотня / Hundred [TV] [01-11 из 12] [Без хардсаба] [RUS(ext), JAP, SUB] [2016 г., Экшен, Этти, Меха, Гарем, Романтика, Школа, HDTVRip] [720p] Galfimbul 58562227595.45 GB 0 0 1465974548

10:09

15-Июн-16

Аниме | Rips ·· Сотня / Hundred [TV] [01-10 из 12] [Без хардсаба] [RUS(ext), JAP, SUB] [2016 г., Экшен, Этти, Меха, Гарем, Романтика, Школа, HDTVRip] [720p] Galfimbul 53197920354.95 GB 0 0 1465842601

21:30

13-Июн-16

Аниме | Rips ·· Сотня / Hundred [TV] [01-08 из 12] [Без хардсаба] [RUS(ext), JAP, SUB] [2016 г., Экшен, Этти, Меха, Гарем, Романтика, Школа, HDTVRip] [720p] Galfimbul 46785710024.36 GB 0 0 1464971866

19:37

3-Июн-16

Аниме | Rips ·· Сотня / Hundred [TV] [01-08 из 12] [Без хардсаба] [RUS(ext), JAP, SUB] [2016 г., Экшен, Этти, Меха, Гарем, Романтика, Школа, HDTVRip] [720p] Galfimbul 39386548673.67 GB 0 0 1464235486

07:04

26-Май-16

Аниме | Rips ·· Сотня / Hundred [TV] [01-07 из 12] [Без хардсаба] [RUS(ext), JAP, SUB] [2016 г., Экшен, Этти, Меха, Гарем, Романтика, Школа, HDTVRip] [720p] Galfimbul 33564905683.13 GB 0 0 1463542186

06:29

18-Май-16

Аниме | Rips ·· Сотня / Hundred [TV] [01-06 из 12] [Без хардсаба] [JAP, SUB] & [01-05 из 12] [RUS(ext)] [2016 г., Экшен, Этти, Меха, Гарем, Романтика, Школа, HDTVRip] [720p] Galfimbul 28534611562.66 GB 0 0 1462916325

00:38

11-Май-16

Аниме | Rips ·· Сотня / Hundred [TV] [01-05 из 12] [Без хардсаба] [JAP, SUB] & [01-04 из 12] [RUS(ext)] [2016 г., Экшен, Этти, Меха, Гарем, Романтика, Школа, HDTVRip] [720p] Galfimbul 23952344942.23 GB 0 0 1462256967

09:29

3-Май-16

Аниме | Rips ·· Сотня / Hundred [TV] [01-04 из 12] [Без хардсаба] [JAP, SUB] & [01-03 из 12] [RUS(ext)] [2016 г., Экшен, Этти, Меха, Гарем, Романтика, Школа, HDTVRip] [720p] Galfimbul 19486313431.81 GB 0 0 1461657429

10:57

26-Апр-16

Аниме | Rips ·· Сотня / Hundred [TV] [01-03 из 12] [Без хардсаба] [RUS(ext), JAP, SUB] [2016 г., Экшен, Этти, Меха, Гарем, Романтика, Школа, HDTVRip] [720p] Galfimbul 16318605861.52 GB 0 0 1461123298

06:34

20-Апр-16

Еще никто не оставлял запись к записи скачать торрент Сотня Hundred . Будь первым!

!Обратная связь