Скачать через торрент Девушки, покоряющие новые горизонты Shoujo-tachi wa Kouya o Mezasu бесплатно Аниме Все серии на русском torrent

Если у вас наблюдаются проблемы со скриншотами, переходом по ссылками, скачиванием торрентов - проблемы в блокировщике рекламы AdBlock. #хорошегоДня!


Статистика раздачи
Размер:  3.6 GB   |    Зарегистрирован:  1 год 5 месяцев   |    .torrent скачан:  34 раза   |   
Раздают:  1  
   
Загрузка...
 
Автор Сообщение

Galfimbul

avatar Galfimbul



Девушки, покоряющие новые горизонты / Shoujo-tachi wa Kouya o Mezasu / Girls Beyond the Wasteland / 少女たちは荒野を目指す
Год выпуска: 2016 г.
Страна: Япония
Жанр: Повседневность, Школа
Тип: TV
Продолжительность: 12 эп. по 24 мин.
Режиссер: Сато Такуя
Студия: Project No.9
Перевод:
<ol class="post-ul">
Русские субтитры от sanyalitvyak & Seiya Loveless & Zelretch
</ol>
<ol class="post-ul">
Русские субтитры от Jaffar & StripDancer
</ol>
Озвучка:
<ol class="post-ul">
Двухголосая от (муж/жен) BalFor & Nika Lenina (AniDub)
</ol>
Описание:
Бунтаро Ходзё считал себя простым парнем без особых талантов и от души удивился, когда молчаливая Саюки Курода позвала его на свидание. После всех прелюдий нелюдимая красавица прямо предложила Ходзё стать ее партнером… в производстве игр для юношей! Старший брат Саюки давно в этом бизнесе, но работать на дядю – одно, а пробиваться самим – иное: риск велик, но и выгода куда больше! Курода честно признала, что не ладит с людьми, и Бунтаро должен сам собрать команду и обеспечить творческий процесс. А вы бы на месте Бунты-куна, наверное, отказались?!

Все знают, что японская старшая школа – инкубатор талантов. Курода стала продюсером, Бунтаро помимо персонала взвалил на себя сценарий и сразу привлек к делу друзей детства. Энергичная Юка, звезда драмкружка, обещала заняться озвучкой игры, а хитрована Атому назначили режиссером. Дизайн доверили малышке Угуису по кличке Тори – девочка она стеснительная, а из-под кисти порой такое выходит – самим страшно. Ну и какая же игра без настоящей фудзёси?! Ею оказалась веселая одноклассница Тэруха Андо – эксперт она в другом жанре, но принципы знает. В общем, как говорил известный персонаж – стоит только начать, и прибыли пойдут!
Информационные ссылки: World Art || AniDB || MAL
Качество: HDTVRip | Рип: [Ohys-Raws]
Тип релиза: Без хардсаба
Формат видео: MP4
Наличие линковки: Нет
Видео: AVC, 1280x720, ~1378 kbps, 23.976 fps [8 bit]
Аудио:
1. Russian AC3, 48.0 KHz, 192 kbps, 2 ch (внешние) - [AniDub];
2. Japanese AAC, 48.0 KHz, 192 kbps, 2 ch;
Субтитры:
<ol class="post-ul">
Russian: ASS, внешние;
</ol>
General Format : MPEG-4 Format profile : Base Media Codec ID : isom File size : 270 MiB Duration : 24mn 0s Overall bit rate mode : Variable Overall bit rate : 1 574 Kbps Encoded date : UTC 2016-01-07 14:47:25 Tagged date : UTC 2016-01-07 14:47:25 Video #1 ID : 1 Format : AVC Format/Info : Advanced Video Codec Format profile : Main@L4.1 Format settings, CABAC : Yes Format settings, ReFrames : 4 frames Codec ID : avc1 Codec ID/Info : Advanced Video Coding Duration : 24mn 0s Bit rate : 1 378 Kbps Maximum bit rate : 14.4 Mbps Width : 1 280 pixels Height : 720 pixels Display aspect ratio : 16:9 Frame rate mode : Constant Frame rate : 23.976 fps Color space : YUV Chroma subsampling : 4:2:0 Bit depth : 8 bits Scan type : Progressive Bits/(Pixel*Frame) : 0.062 Stream size : 237 MiB (88%) Writing library : x264 core 148 r2638 7599210 Encoding settings : cabac=1 / ref=3 / deblock=1:0:0 / analyse=0x1:0x111 / me=hex / subme=7 / psy=1 / psy_rd=1.00:0.00 / mixed_ref=1 / me_range=16 / chroma_me=1 / trellis=1 / 8x8dct=0 / cqm=0 / deadzone=21,11 / fast_pskip=1 / chroma_qp_offset=-2 / threads=12 / lookahead_threads=2 / sliced_threads=0 / nr=0 / decimate=1 / interlaced=0 / bluray_compat=0 / constrained_intra=0 / bframes=3 / b_pyramid=2 / b_adapt=1 / b_bias=0 / direct=1 / weightb=1 / open_gop=0 / weightp=2 / keyint=240 / keyint_min=1 / scenecut=40 / intra_refresh=0 / rc_lookahead=40 / rc=crf / mbtree=1 / crf=20.0 / qcomp=0.60 / qpmin=0 / qpmax=69 / qpstep=4 / ip_ratio=1.40 / aq=1:1.50 Encoded date : UTC 2016-01-07 14:47:25 Tagged date : UTC 2016-01-07 14:47:27 Color primaries : BT.709 Transfer characteristics : BT.709 Matrix coefficients : BT.709 Audio #2 ID : 2 Format : AAC Format/Info : Advanced Audio Codec Format profile : LC Codec ID : 40 Duration : 24mn 0s Bit rate mode : Variable Bit rate : 192 Kbps Maximum bit rate : 254 Kbps Channel(s) : 2 channels Channel positions : Front: L R Sampling rate : 48.0 KHz Compression mode : Lossy Stream size : 33.0 MiB (12%) Language : Japanese Encoded date : UTC 2016-01-07 14:38:08 Tagged date : UTC 2016-01-07 14:47:27

01. Девушка, которая следует своей мечте / Girls Who Chase After Their Dreams
02. Это очередная юношеская весна / This Is Another Spring of Youth
03. Это мой первый раз / It`s the First Time
04. Мелодия своенравия и вычитания / A Melody of Selfishness and Subtraction
05. Что прячет шторм / What You Can See in the Storm
06. Фансервисный эпизод — это когда так / This Is the So-Called Fanservice Episode
07. Ты сам не свой / As Always, It`s a Different You
08. Лето взаперти / Shut Away in Summer
09. Потому что люблю / Because I Love You
10. Навстречу тайфуну / Typhoon Attack
11. Возможно, вот оно - начало? / This Might Be the Beginning
12. Шаг в дикое поле / Girls Beyond the Wasteland
<a href="viewtopic.php?t=5146959" class="postLink">...5146959</a>
- не обновлялся более месяца, здесь новые эпизоды



Добавлена Седьмая серия [17.03.2016]

Добавлены Восьмая и Девятая серии [25.03.2016]

Добавлена Десятая серия [28.03.2016]

Добавлена Одиннадцатая серия [29.03.2016]



Раздача обновлена. Добавлена Двенадцатая серия [30.03.2016]



Трекер:  [ 02-Апр-2016 10:00 ]

  

Скачать .torrent

Размер .torrent файла 22 KB


Размер: 3.6 GB
Хэш (hash) релиза: 1b7f6177bc93285126a7954235b3f4e2e4cf1fd8
Подписка на обновления:

Торренты, похожие на Девушки, покоряющие новые горизонты Shoujo-tachi wa Kouya o Mezasu скачать торрент

Форум Название Автор Размер S L Добавлен
Аниме | HD Rips ·· Девушки, покоряющие новые горизонты / Shoujo-tachi wa Kouya o Mezasu / Girls Beyond the Wasteland [TV] [12 из 12] [Без хардсаба] [RUS(ext), JAP, SUB] [2016 г., Повседневность, Школа, HDTVRip] [720p] Galfimbul 39665069213.69 GB 0 0 1461114057

04:00

20-Апр-16

Аниме | HD Rips ·· Девушки, покоряющие новые горизонты / Shoujo-tachi wa Kouya o Mezasu / Girls Beyond the Wasteland [TV] [Без хардсаба] [01-09 из 12] [JAP, SUB] & [01-07 из 12] [RUS(ext)] [2016 г., Романтика, Школа, HDTVRip] [720p] Galfimbul 29587344752.76 GB 0 0 1458880229

07:30

25-Мар-16

Аниме | Rips ·· Девушки, покоряющие новые горизонты / Shoujo-tachi wa Kouya o Mezasu / Girls Beyond the Wasteland [TV] [01-04 из >12] [Без хардсаба] [RUS(int), JAP+SUB] [2016 г., комедия, повседневность, HDTVRip] [HWP] Galfimbul 937528599894 MB 0 0 1454874863

22:54

7-Фев-16

Аниме | Rips ·· Девушки, покоряющие новые горизонты / Shokomeza / Shoujo-tachi wa Kouya o Mezasu / Girls Beyond the Wasteland [TV] [12 из 12] [Без хардсаба] [RUS(int), JAP+SUB] [2016 г., комедия, повседневность, HDTVRip] [HWP] Galfimbul 26741535232.49 GB 0 0 1459687939

15:52

3-Апр-16

Аниме | HD Rips ·· Девушки, покоряющие новые горизонты / Girls Beyond the Wasteland / Shoujo-tachi wa Kouya o Mezasu [OVA] [1 из 1] [Без хардсаба] [JAP, SUB] [2016 г., повседневность, BDRip] [1080p] Galfimbul 11087304431.03 GB 0 0 1467840782

00:33

7-Июл-16

Аниме | HD Rips ·· Девушки, покоряющие новые горизонты / Girls Beyond the Wasteland / Shoujo-tachi wa Kouya o Mezasu [OVA] [1 из 1] [Без хардсаба] [JAP, SUB] [2016 г., повседневность, BDRip] [720p] Galfimbul 377518615360 MB 0 0 1467784565

08:56

6-Июл-16

Аниме | Rips ·· Девушки, покоряющие новые горизонты / Girls Beyond the Wasteland / Shoujo-tachi wa Kouya o Mezasu [TV] [01 из 12] [Без хардсаба] [RUS(ext), JAP, SUB] [2016 г., Романтика, Школа, HDTVRip] [720p] Galfimbul 318057040303 MB 0 0 1452430639

15:57

10-Янв-16

Еще никто не оставлял запись к записи скачать торрент Девушки, покоряющие новые горизонты Shoujo-tachi wa Kouya o Mezasu . Будь первым!

!Обратная связь