Скачать через торрент Сержант Кэроро бесплатно Аниме Все серии на русском torrent

Если у вас наблюдаются проблемы со скриншотами, переходом по ссылками, скачиванием торрентов - проблемы в блокировщике рекламы AdBlock. #хорошегоДня!


Статистика раздачи
Размер:  4.38 GB   |    Зарегистрирован:  1 год 4 месяца   |    .torrent скачан:  37 раз   |   
Раздают:  1  
   
Загрузка...
 
Автор Сообщение

Galfimbul

avatar Galfimbul


Сержант Кэроро (фильм третий) / Chou Gekijouban Keroro Gunso 3: Keroro Tai Keroro - Tenkuu Daikessen de Arimasu!

Страна: Япония
Год выпуска: 2008 г.
Жанр: приключения, комедия
Тип: Movie
Продолжительность: 96 мин.
Режиссер: Ямагути Сусуму

Описание: The movie begins with Fuyuki Hinata and the Keroro Platoon exploring an abandoned temple in the mountaintop city of Machu Picchu in Peru. While on the exploration, Keroro accidentally sets off a trap, and by chance they find a hidden chamber with a large blue crystal in the center, on a stand that has a key in it. Keroro leans on the key, causing the room to activate a mysterious machine, this caused the entire temple to shake. As soon as the group realized what was happening, they run out of the room. While running, Keroro accidentally loses his Kero Ball while Fuyuki catches a fleeting glimpse of a glowing young woman as he is running out, and tells Keroro that there was a girl in the room, but he is forced to leave the room before he can say anything else. The group successfully escapes, while the girl (now sprouting a pair of glowing wings) watches them leave - while back in the chamber, something is growing within the crystal...

Доп. информация: Перевод с японского и озвучивание - Юки Нацуи по заказу компании Animegroup в 2008 году. Источник видео - японский DVD-9 диск, который разделён на 2 DVD-5. У меня только первый диск - фильм. На втором - OVA (10 мин, переведена) и остальные дополнительные материалы без перевода (его я не покупал). На второй фильм пираты перевод не заказывали.

Качество: DVD5
Формат экрана: 16:9
Система / Разрешение: NTSC (720x480)
Средний битрейт: 5 508 Kbps
Аудио: AC-3, 384 Kbps, 6 channels Язык Русский
Аудио 2: AC-3, 448 Kbps, 6 channels Язык Японский
Субтитры: Нет
GeneralComplete name : D:\Films\Keroro\Keroro movie 3\VIDEO_TS\VTS_01_1.VOBFormat : MPEG-PSFile size : 1 024 MiBDuration : 22mn 7sOverall bit rate mode : VariableOverall bit rate : 6 468 Kbps

VideoID : 224 (0xE0)Format : MPEG VideoFormat version : Version 2Format profile : Main@MainFormat settings, BVOP : YesFormat settings, Matrix : CustomFormat settings, GOP : VariableDuration : 22mn 7sBit rate mode : VariableBit rate : 5 508 KbpsMaximum bit rate : 9 800 KbpsWidth : 720 pixelsHeight : 480 pixelsDisplay aspect ratio : 16:9Frame rate : 29.970 fpsStandard : NTSCColor space : YUVChroma subsampling : 4:2:0Bit depth : 8 bitsCompression mode : LossyBits/(Pixel*Frame) : 0.532Time code of first frame : 01:00:46:00Time code source : Group of pictures headerGOP, Open/Closed : OpenGOP, Open/Closed of first f : ClosedStream size : 872 MiB (85%)

Audio #1ID : 189 (0xBD)-128 (0x80)Format : AC-3Format/Info : Audio Coding 3Mode extension : CM (complete main)Format settings, Endianness : BigMuxing mode : DVD-VideoDuration : 22mn 7sBit rate mode : ConstantBit rate : 384 KbpsChannel(s) : 6 channelsChannel positions : Front: L C R, Side: L R, LFESampling rate : 48.0 KHzCompression mode : LossyStream size : 60.8 MiB (6%)

Audio #2ID : 189 (0xBD)-129 (0x81)Format : AC-3Format/Info : Audio Coding 3Mode extension : CM (complete main)Format settings, Endianness : BigMuxing mode : DVD-VideoDuration : 22mn 7sBit rate mode : ConstantBit rate : 448 KbpsChannel(s) : 6 channelsChannel positions : Front: L C R, Side: L R, LFESampling rate : 48.0 KHzCompression mode : LossyStream size : 70.9 MiB (7%)

Menu


Трекер:  [ 01-Апр-2016 21:30 ]

  

Скачать .torrent

Размер .torrent файла 12 KB


Размер: 4.38 GB
Хэш (hash) релиза: 60af7120429ec346fec749dca6d3ff73ba09351e
Подписка на обновления:

Еще никто не оставлял запись к записи скачать торрент Сержант Кэроро . Будь первым!

!Обратная связь