Скачать через торрент Рандеву с жизнью бесплатно Аниме Все серии на русском torrent

Если у вас наблюдаются проблемы со скриншотами, переходом по ссылками, скачиванием торрентов - проблемы в блокировщике рекламы AdBlock. #хорошегоДня!


Статистика раздачи
Размер:  1.34 GB   |    Зарегистрирован:  1 год 5 месяцев   |    .torrent скачан:  47 раз   |   
Раздают:  1  
   
Загрузка...
 
Автор Сообщение

Galfimbul

avatar Galfimbul


Рандеву с жизнью (фильм) / Gekijouban Date A Live - Mayuri Judgement

Страна: Япония
Год выпуска: 2015 г.
Жанр: приключения
Тип: Movie
Продолжительность: 73 мин.

Режиссер: Мотонага Кэйтаро
Студия: Production IMS

Описание: Для Ицуки Шидо вновь потекли спокойные деньки. Никаких битв, не надо никого спасать… Но всему хорошему приходит конец. Над городом появилась непонятная сфера, которую видит только он, а одновременно с ней - и таинственная девушка, которая явно за ним наблюдает… Но зачем?

Качество: BDRip
Тип релиза: Без хардсаба
Формат видео: MP4
Наличие линковки: Нет
Релиз/Автор рипа: Ohys-Raws
Видео: H264, 1280x720, 2432 kbs, 23.976 fps, 8 bit
Аудио: AAC, 205 kbps, 48000 Hz, stereo Язык Японский
Субтитры: ass, внешние, Язык субтитров: русский
Переводчик: Alvakarp [Sovet Romantica]
Редактор/Оформление: Angara [Sovet Romantica]

Не забываем "благодарить" и писать комментарии. Это стимулирует дальнешие раздачи.
General
Complete name                  : F:\anime\[Ohys-Raws] Gekijouban Date a Live - Mayuri Judgement\[Ohys-Raws] Gekijouban Date a Live - Mayuri Judgement (BD 1280x720 x264 AAC).mp4
Format                         : MPEG-4
Format profile                 : Base Media
Codec ID                       : isom
File size                      : 1.33 GiB
Duration                       : 1h 12mn
Overall bit rate mode          : Variable
Overall bit rate               : 2 642 Kbps
Encoded date                   : UTC 2016-02-29 12:21:53
Tagged date                    : UTC 2016-02-29 12:21:53

Video
ID                             : 1
Format                         : AVC
Format/Info                    : Advanced Video Codec
Format profile                 : Main@L4.1
Format settings, CABAC         : Yes
Format settings, ReFrames      : 4 frames
Codec ID                       : avc1
Codec ID/Info                  : Advanced Video Coding
Duration                       : 1h 12mn
Bit rate                       : 2 432 Kbps
Maximum bit rate               : 19.7 Mbps
Width                          : 1 280 pixels
Height                         : 720 pixels
Display aspect ratio           : 16:9
Frame rate mode                : Constant
Frame rate                     : 23.976 fps
Color space                    : YUV
Chroma subsampling             : 4:2:0
Bit depth                      : 8 bits
Scan type                      : Progressive
Bits/(Pixel*Frame)             : 0.110
Stream size                    : 1.23 GiB (92%)
Writing library                : x264 core 148 r2665 a01e339
Encoding settings              : cabac=1 / ref=3 / deblock=1:0:0 / analyse=0x1:0x131 / me=umh / subme=9 / psy=1 / psy_rd=1.00:0.00 / mixed_ref=1 / me_range=32 / chroma_me=1 / trellis=1 / 8x8dct=0 / cqm=0 / deadzone=21,11 / fast_pskip=1 / chroma_qp_offset=-2 / threads=12 / lookahead_threads=1 / sliced_threads=0 / nr=0 / decimate=1 / interlaced=0 / bluray_compat=0 / constrained_intra=0 / bframes=3 / b_pyramid=2 / b_adapt=1 / b_bias=0 / direct=1 / weightb=1 / open_gop=0 / weightp=2 / keyint=240 / keyint_min=1 / scenecut=40 / intra_refresh=0 / rc_lookahead=40 / rc=crf / mbtree=1 / crf=17.0 / qcomp=0.60 / qpmin=0 / qpmax=69 / qpstep=4 / ip_ratio=1.40 / aq=1:1.00
Encoded date                   : UTC 2016-02-29 12:21:53
Tagged date                    : UTC 2016-02-29 12:22:00

Audio
ID                             : 2
Format                         : AAC
Format/Info                    : Advanced Audio Codec
Format profile                 : LC
Codec ID                       : 40
Duration                       : 1h 12mn
Bit rate mode                  : Variable
Bit rate                       : 206 Kbps
Maximum bit rate               : 256 Kbps
Channel(s)                     : 2 channels
Channel positions              : Front: L R
Sampling rate                  : 48.0 KHz
Compression mode               : Lossy
Stream size                    : 106 MiB (8%)
Language                       : Japanese
Encoded date                   : UTC 2016-02-29 12:16:57
Tagged date                    : UTC 2016-02-29 12:22:00
<a href="viewtopic.php?t=5188631" class="postLink">...5188631</a> - здесь BDRemux, 1080p. У меня BDRip, 720p.


Трекер:  [ 31-Мар-2016 19:00 ]

  

Скачать .torrent

Размер .torrent файла 14 KB


Размер: 1.34 GB
Хэш (hash) релиза: 8359960ec7fe629c5a1ddf55e337ffda87e3c796
Подписка на обновления:

Торренты, похожие на Рандеву с жизнью скачать торрент

Форум Название Автор Размер S L Добавлен
Аниме | Rips ·· Рандеву с жизнью 2 / Date a Live II [TV] [10 из 10] [Без хардсаба] [RUS(int), SUB] [2014 г., приключения, романтика, фантастика, мистика, BDRip] [720p] Galfimbul 49423771734.6 GB 0 0 1466345798

17:16

19-Июн-16

Аниме | HD Rips ·· Рандеву с жизнью 2 / Date A Live II / Date A Live: Encore [OVA] [1 из 1] [Без хардсаба] [JAP+SUB] [2014 г., приключения, романтика, фантастика, мистика, BDRip] [720p] Galfimbul 443847853423 MB 0 0 1466100422

21:07

16-Июн-16

Аниме | HD Rips ·· Рандеву с жизнью / Gekijouban Date A Live - Mayuri Judgement (Мотонага Кэйтаро) [Movie] [Без хардсаба] [RUS(ext), JAP+SUB] [2015 г., приключения, романтика, фантастика, мистика, BDRip] [1080p] Galfimbul 69808979266.5 GB 0 0 1465630931

10:42

11-Июн-16

Аниме | HD Rips ·· Рандеву с жизнью / Gekijouban Date A Live - Mayuri Judgement [Movie] [Без хардсаба] [JAP+SUB] [2015 г., приключения, романтика, фантастика, мистика, BDRip] [720p] Galfimbul 25598606872.38 GB 0 0 1459629139

23:32

2-Апр-16

Аниме | HD Rips ·· Рандеву с жизнью (фильм) / Gekijouban Date A Live - Mayuri Judgement (Мотонага Кэйтаро) [Movie] [1 из 1] [без хардсаба] [JAP+SUB] [2015 г., приключения, BDRemux] [1080p] Galfimbul 2443319817322.76 GB 0 0 1457869800

14:50

13-Мар-16

Аниме | HD Rips ·· Рандеву с жизнью / Date a Live Director's Cut [TV] [12 из 12] [Без хардсаба] [JAP+SUB] [2015 г., приключения, романтика, фантастика, мистика, BDRip] [720p] Galfimbul 61634347125.74 GB 0 0 1449993215

10:53

13-Дек-15

Аниме | HD Rips ·· Рандеву с жизнью / Date a Live Director's Cut [TV] [12 из 12] [Без хардсаба] [JAP+SUB] [2015 г., приключения, романтика, фантастика, мистика, BDRip] [720p] Galfimbul 61634312585.74 GB 0 0 1449233832

15:57

4-Дек-15

Аниме | HD Rips ·· Рандеву с жизнью 2 / Date A Live: Encore (Мотонага Кэйтаро) [OVA] [1 из 1] [Без хардсаба] [JAP+SUB] [2014 г., приключения, романтика, фантастика, мистика, BDRemux] [1080p] Galfimbul 88217650968.22 GB 0 0 1447619268

23:27

15-Ноя-15

Аниме | HD Rips ·· Рандеву с жизнью 2 / Date a Live II [TV] [10 из 10] [Без хардсаба] [JAP+SUB] [2014 г., приключения, романтика, фантастика, мистика, BDRip] [720p] Galfimbul 47100410574.39 GB 0 0 1438031214

00:06

28-Июл-15

Аниме | HD Rips ·· Рандеву с жизнью (OVA-2) / Date A Live: Encore [OVA] [1 из 1] [Без хардсаба] [JAP, SUB] [2014 г., приключения, романтика, фантастика, BDRip] [720p] Galfimbul 238865851228 MB 0 0 1419340398

16:13

23-Дек-14

Аниме | Rips ·· Рандеву с жизнью OVA-2 / Date a Live: Encore / Date A Live II OVA [OVA] [1 из 1] [Без хардсаба] [RUS(ext), JAP+SUB] [2014 г., приключения, романтика, фантастика, мистика, BDRip] [1080p] Galfimbul 350682066334 MB 0 0 1419322820

11:20

23-Дек-14

Аниме | Rips ·· Рандеву с жизнью OVA-2 / Date a Live: Encore / Date A Live II OVA [OVA] [1 из 1] [Без хардсаба] [JAP, RUS(ext)] [2014 г., приключения, романтика, фантастика, мистика, BDRip] [1080p] Galfimbul 350635069334 MB 0 0 1419246766

14:12

22-Дек-14

Аниме | HD Rips ·· Рандеву с жизнью 2 / Date A Live 2 [OVA] [1 из 1] [Без хардсаба] [JAP,ENG+SUB] [2014 г., приключения, романтика, фантастика, мистика, BDRip] [1080p] Galfimbul 1042935613995 MB 0 0 1419176696

18:44

21-Дек-14

Аниме | HD Rips ·· Рандеву с жизнью / Date A Live II (Мотонага Кэйтаро) [TV] [10 из 10] [Без хардсаба] [JAP+SUB] [2014 г., приключения, HDTVRip] [720p] Galfimbul 33517398953.12 GB 0 0 1400796211

01:03

23-Май-14

Аниме | HD Rips ·· Рандеву с жизнью / Date a Live (Мотонага Кэйтаро) [TV] [12 из 12] [без хардсаба] [JAP+SUB] [2013 г., комедия, романтика, мистика, этти, BDRip] [1080p] Polarnik 2185334468120.35 GB 0 0 1392983480

14:51

21-Фев-14

Аниме | Blu-Ray и BDRemux ·· Рандеву с жизнью / Date a Live (Мотонага Кэйтаро) [TV] [12 из 12] [без хардсаба] [JAP+SUB] [2013 г., комедия, романтика, мистика, этти, BDRemux] [1080p] Polarnik 8413947625778.36 GB 0 0 1392983415

14:50

21-Фев-14

Аниме | Blu-Ray и BDRemux ·· Рандеву с жизнью OVA / Date a Live OVA (Мотонага Кэйтаро) [OVA] [1 из 1] [без хардсаба] [JAP+SUB] [2013 г., приключения, BDRemux] [1080p] Polarnik 71601519286.67 GB 4 0 1392908472

18:01

20-Фев-14

Аниме | HD Rips ·· Рандеву с жизнью / Date a Live (Мотонага Кэйтаро) [TV] [1 из 12] [без хардсаба] [JAP+SUB] [2013 г., приключения, фантастика, мистика, романтика, комедия, BDRip] [720p] Polarnik 11353251801.06 GB 0 0 1378262186

05:36

4-Сен-13

Аниме | HD Rips ·· Рандеву с жизнью / Date a Live (Мотонага Кэйтаро) [TV] [12 из 12] [без хардсаба] [JAP+SUB] [2013 г., приключения, фантастика, мистика, романтика, комедия, HDTVRip] [720p] Polarnik 55468949725.17 GB 0 0 1373806280

15:51

14-Июл-13

Еще никто не оставлял запись к записи скачать торрент Рандеву с жизнью . Будь первым!

!Обратная связь